#TITLE:BEAUTIFUL ANGEL;
#SUBTITLE:;
#ARTIST:DJ SWAN;
#TITLETRANSLIT:;
#SUBTITLETRANSLIT:;
#ARTISTTRANSLIT:;
#GENRE:;
#CREDIT:;
#BANNER:BEAUTIFUL ANGEL-bn.png;
#BACKGROUND:BEAUTIFUL ANGEL-bg.png;
#LYRICSPATH:;
#CDTITLE:;
#MUSIC:BEAUTIFUL ANGEL.ogg;
#OFFSET:0.000000;
#SAMPLESTART:13.953000;
#SAMPLELENGTH:20.000000;
#SELECTABLE:YES;
#DISPLAYBPM:172.000000;
#BPMS:0.000000=171.979996
;
#STOPS:
;
#BGCHANGES:;
#KEYSOUNDS:;
#ATTACKS:;

//---------------dance-single - Old scale 10----------------
#NOTES:
     dance-single:
     :
     Hard:
     15:
     0.743384,1.036880,0.500354,0.283534,0.204311,624.000000,564.000000,60.000000,34.000000,0.000000,0.000000,0.743384,1.036880,0.500354,0.283534,0.204311,624.000000,564.000000,60.000000,34.000000,0.000000,0.000000:
// measure 0
0000
0000
0000
0000
,  // measure 1
0000
0000
0000
0000
,  // measure 2
0000
0000
0000
0000
,  // measure 3
0000
0000
0000
0000
,  // measure 4
0000
0000
0000
0000
,  // measure 5
0000
0000
0000
0000
,  // measure 6
1000
0100
0010
0001
0100
0001
1000
0010
,  // measure 7
0001
0010
0100
1000
0100
0010
1000
0001
,  // measure 8
0010
0000
0001
1000
0001
0000
1000
0100
1000
0000
0010
0100
0010
0000
0100
0001
,  // measure 9
0100
0000
0001
0010
0001
0000
1000
0010
1000
0000
0100
0010
0100
0000
0000
0000
,  // measure 10
1001
0001
0100
0110
1000
0010
0100
0000
,  // measure 11
0001
0001
1000
1000
0010
0010
0100
0100
,  // measure 12
0101
0100
0010
1010
1000
0001
0100
0000
,  // measure 13
0100
0100
0010
0010
1000
1000
0001
0001
,  // measure 14
0011
0010
0100
1100
1000
0001
0010
0000
,  // measure 15
1000
1000
0010
0010
0001
0001
0100
0100
,  // measure 16
0020
1000
1030
0200
0010
0310
0002
0100
,  // measure 17
0103
0000
2000
0000
0001
0000
3001
1000
0010
0000
1000
0001
0100
0000
0001
0000
,  // measure 18
0020
1000
1030
0002
0100
0103
0010
0000
,  // measure 19
1000
1000
0100
0100
0001
0001
0010
0010
,  // measure 20
2000
0001
3001
0200
1000
1300
0010
0000
,  // measure 21
0001
0100
0010
1000
0100
0010
0001
1000
,  // measure 22
1100
0100
0010
0101
1000
0001
1001
0000
,  // measure 23
1010
1000
0010
0011
0001
0100
0110
0000
,  // measure 24
0001
0000
1000
0100
1000
0000
0001
0100
0001
0000
0100
0010
0100
0000
0010
1000
,  // measure 25
0010
0000
0100
0000
0001
0000
1000
0000
0001
0010
0001
0010
0100
1000
0100
1000
,  // measure 26
0010
0000
1000
0100
0001
0100
1000
0000
,  // measure 27
0000
0001
0001
0001
0100
0100
0010
0010
,  // measure 28
1000
0000
0001
0010
1000
0010
0001
0000
,  // measure 29
0000
0100
0100
0100
1000
1000
0010
0010
,  // measure 30
0100
0000
0001
0010
1000
0010
0001
0000
,  // measure 31
0000
0001
0001
0001
1000
1000
0010
0010
,  // measure 32
2000
0001
3001
0200
0010
0310
0020
0100
,  // measure 33
0130
0000
0002
0000
1000
0000
1003
0100
0010
0000
0100
0010
0001
0000
0010
0000
,  // measure 34
0011
0000
1000
0100
0010
0001
1010
0000
,  // measure 35
0000
1000
1000
1000
0100
0100
0001
0001
,  // measure 36
0101
0000
0100
0010
1000
0001
1100
0000
,  // measure 37
0000
0010
0010
0010
0001
0001
0100
0100
,  // measure 38
0110
0000
0010
0001
0100
1000
1001
0000
,  // measure 39
0000
0100
0100
0100
0010
0010
1000
1000
,  // measure 40
0002
0010
0013
0200
1000
1300
0020
0100
,  // measure 41
0130
0000
2000
0000
0001
0000
3001
1000
0100
0000
1000
0010
0100
0000
0001
0000
,  // measure 42
1001
0110
1001
0110
,  // measure 43
1000
0100
0010
0001
1000
0100
0010
0001
,  // measure 44
0101
1100
0101
1100
,  // measure 45
0001
0010
0100
1000
0001
0010
0100
1000
,  // measure 46
1010
0011
1010
0011
,  // measure 47
0010
0100
0001
1000
0010
0100
0001
1000
,  // measure 48
1010
0101
0011
1100
,  // measure 49
0010
0100
0110
1001
,  // measure 50
0010
1000
0010
0001
0010
1000
0010
0001
,  // measure 51
0010
1000
0010
0100
0010
0001
0010
0100
,  // measure 52
1000
0100
1000
0010
1000
0001
1000
0010
,  // measure 53
1000
0100
1000
0010
1000
0001
1000
0010
,  // measure 54
0100
0001
0100
1000
0100
0001
0100
1000
,  // measure 55
0001
0010
0001
0100
0001
0010
0001
0100
,  // measure 56
1020
1000
1030
0000
2100
0001
3001
0000
,  // measure 57
0201
0010
0310
0000
0012
0100
0103
0000
,  // measure 58
2001
0001
3001
0000
0120
0100
0130
0000
,  // measure 59
1000
0000
1000
0100
0010
0000
0010
0001
0100
0000
0100
0010
0001
0000
0001
1000
,  // measure 60
0002
0000
0013
0000
,  // measure 61
0200
0000
1300
0000
,  // measure 62
0010
1000
0010
0100
0001
0100
0001
1000
,  // measure 63
0100
0010
0001
0100
1000
0010
1000
0000
,  // measure 64
0001
0100
0010
1000
0010
0001
1000
0100
,  // measure 65
0001
0100
1000
0010
0100
0001
1000
0000
,  // measure 66
0010
0001
0100
1000
0100
0010
0001
1000
,  // measure 67
0010
0100
1000
0100
0010
0001
1000
0000
,  // measure 68
0001
0010
1000
0010
0100
1000
0100
0001
,  // measure 69
0010
0000
0010
0001
0001
0100
1000
1000
,  // measure 70
1000
0100
0010
0001
0010
0100
1000
0100
,  // measure 71
0010
0001
0010
0100
1000
0100
0010
0001
,  // measure 72
0001
0010
0100
1000
0100
0010
0001
0010
,  // measure 73
0100
1000
0100
0010
0001
0010
0100
1000
,  // measure 74
0000
0000
0010
0000
0010
1000
0000
0000
1100
0000
0000
1010
0000
0000
1001
0000
,  // measure 75
0000
0000
0001
0000
0001
0100
0000
0000
0101
0000
0000
0011
0000
0000
0110
0000
,  // measure 76
0000
0000
0002
0000
0000
0023
0000
0000
0230
0000
0000
2300
0000
0000
3010
0000
,  // measure 77
1010
0000
0000
0110
0000
0000
0101
0000
0011
0000
0000
1001
0000
0000
1100
0000
,  // measure 78
0000
0000
2000
0000
0000
3200
0000
0000
0320
0000
0000
0032
0000
0000
0103
0000
,  // measure 79
0101
0000
0000
1100
0000
0000
0110
0000
1010
0000
0000
0011
0000
0000
1001
0000
,  // measure 80
0001
0000
1000
0100
1000
0000
0001
0100
0001
0000
1000
0010
1000
0000
0001
0010
,  // measure 81
0001
0010
0001
0010
0100
0010
0100
0010
0100
1000
0100
1000
0001
1000
0001
2000
,  // measure 82
0002
0000
0000
0000
,  // measure 83
0000
0000
0000
0000
,  // measure 84
0000
0000
0000
0000
,  // measure 85
0000
0000
0000
3003
;

//---------------dance-single - old scale 8----------------
#NOTES:
     dance-single:
     :
     Medium:
     11:
     0.537285,0.607826,0.350248,0.483676,0.033357,451.000000,409.000000,42.000000,58.000000,0.000000,0.000000,0.537285,0.607826,0.350248,0.483676,0.033357,451.000000,409.000000,42.000000,58.000000,0.000000,0.000000:
0000
0000
0000
0000
,
0000
0000
0000
0000
,
0000
0000
0000
0000
,
0000
0000
0000
0000
,
0000
0000
0000
0000
,
0000
0000
0000
0000
,
1000
0100
0010
0001
,
0100
0010
1000
0001
,
1000
0001
0100
0010
1000
0100
0010
0001
,
0100
0010
1000
0010
0100
0001
0010
0000
,
1001
0000
0010
0200
0000
0301
1000
0000
,
0101
0000
1100
0000
0001
1000
0010
0100
,
0020
0000
1030
2000
0000
3001
0002
0000
,
0103
0000
0110
0000
0010
1000
0010
0100
,
0001
0000
1000
0020
0000
1030
0001
0000
,
1010
0000
0011
0000
0100
0010
1000
0001
,
2000
0000
3001
0002
0000
0103
0200
0000
,
0301
0010
0100
1000
0100
0010
0001
0000
,
1100
0000
0001
2000
0000
3010
0100
0000
,
1010
0000
1001
0000
0001
0010
0100
1000
,
0020
0000
0130
0200
0000
0301
0002
0000
,
1003
0000
0001
0000
0100
0000
0001
1000
,
0001
0000
0100
0010
1000
0000
0101
0000
,
1000
0000
0100
0010
0001
0000
0011
0000
,
0110
0000
0100
0010
1000
0010
0100
0001
,
1000
0100
0010
0001
0100
0010
1000
0001
,
0020
0000
0000
0032
0000
0000
1003
0000
,
0000
1000
0100
0000
0010
0001
0100
0000
,
2000
0000
0000
3200
0000
0000
0310
0000
,
0000
0010
0100
0000
0001
1000
0001
0000
,
0020
0000
0000
2030
0000
0000
3002
0000
,
0000
1003
0200
0000
1300
0010
0001
0000
,
0101
0000
0000
1010
0000
0000
1100
0000
,
0000
0011
0000
0000
0110
0000
1001
0000
,
1010
0000
1000
0001
0010
0000
0011
0000
,
0000
0100
0010
0100
0010
0100
0010
0000
,
0101
0000
0100
0001
1000
0000
1100
0000
,
0000
1000
0001
1000
0001
1000
0001
0000
,
0110
0000
1000
0100
0010
0000
1001
0000
,
0000
0001
0010
0001
1000
0010
1000
0000
,
0010
0100
0010
0100
0010
0000
0001
1000
,
0001
1000
0001
0000
0100
0000
0100
0000
,
2000
3200
0320
0031
,
0000
0001
0100
0002
0000
1003
0010
1000
,
0002
0023
0230
1300
,
0000
1000
0100
2000
0000
3010
0100
0010
,
0200
0320
2030
3001
,
0000
1000
0010
0002
0000
0103
0001
1000
,
1010
0101
1100
0011
,
0000
0000
0110
1001
,
1000
0100
0010
0001
0000
0001
0100
0001
,
0000
1000
0100
1000
0000
0010
0100
0010
,
1000
0100
1000
0001
0000
0001
0010
0100
,
0000
0100
0010
1000
0000
0010
1000
0001
,
0100
0010
0100
1000
0000
1000
0001
0010
,
0000
0010
0001
0100
0000
0010
1000
0100
,
2000
0100
0002
3003
,
0200
0001
0020
0330
,
1001
0010
0110
0000
,
1010
0011
1100
0101
,
0002
0000
0023
0000
,
0230
0000
2300
0000
,
3001
1000
0001
1000
0000
0010
0100
0010
,
0000
1000
0100
1000
0000
0001
0100
0001
,
0010
0001
0100
0001
0000
0100
0010
1000
,
0000
1000
0100
0001
0000
1000
0010
0001
,
0100
0010
1000
0001
0000
0010
0001
1000
,
0000
0100
0010
0001
0000
0100
0010
1000
,
0001
0010
0001
0100
0010
1000
0100
1000
,
0001
0000
0000
0100
0010
0010
1000
1000
,
0001
0100
0001
0100
0010
0100
0010
0100
,
0010
1000
0010
1000
0001
1000
0001
0000
,
1000
0100
1000
0100
0010
0100
0010
0100
,
0010
0001
0010
0001
1000
0001
1000
0000
,
0000
0000
0020
0000
0000
0230
0000
0000
0302
0000
0000
2003
0000
0000
3100
0000
,
0000
0000
2000
0000
0000
3020
0000
0000
0230
0000
0000
0302
0000
0000
0103
0000
,
0000
0000
0002
0000
0000
0023
0000
0000
0230
0000
0000
2300
0000
0000
3001
0000
,
0101
0100
0110
1010
,
0000
0000
2000
0000
0000
3002
0000
0000
0203
0000
0000
0320
0000
0000
0130
0000
,
1001
0010
1100
0011
,
1000
0100
1000
0100
0010
0001
0010
0001
,
0100
0010
0100
0010
1000
0001
1000
0002
,
0020
0000
0000
0000
,
0000
0000
0000
0000
,
0000
0000
0000
0000
,
0000
0000
0000
0033
;

//---------------dance-single - old scale 5----------------
#NOTES:
     dance-single:
     :
     Easy:
     7:
     0.325230,0.393299,0.141767,0.533711,0.000000,273.000000,256.000000,17.000000,64.000000,0.000000,0.000000,0.325230,0.393299,0.141767,0.533711,0.000000,273.000000,256.000000,17.000000,64.000000,0.000000,0.000000:
0000
0000
0000
0000
,
0000
0000
0000
0000
,
0000
0000
0000
0000
,
0000
0000
0000
0000
,
0000
0000
0000
0000
,
0000
0000
0000
0000
,
1000
0100
0010
0001
,
0100
0010
1000
0001
,
0010
0100
0001
1000
,
0001
0010
0100
1000
,
0002
0000
0000
2000
0000
0000
0003
0000
,
0100
0010
0100
3010
,
2000
0000
0000
3200
0000
0000
2300
0000
,
3020
0100
0001
1030
,
0002
0000
0000
0200
0000
0000
0003
0000
,
0001
1000
0001
1300
,
0002
0000
0000
0023
0000
0000
0230
0000
,
2300
0010
0100
3001
,
0200
0000
0000
0020
0000
0000
0300
0000
,
1000
0100
1000
0130
,
2000
0000
0000
3002
0000
0000
0203
0000
,
0302
0000
0010
0000
1000
0000
0013
0001
,
0200
0000
0000
0320
0000
0000
0130
0000
,
2000
0000
0000
3002
0000
0000
1003
0000
,
0002
0100
0010
0103
,
2000
0001
0100
3001
,
2000
0000
0000
3001
0000
0000
2002
0000
,
3000
0100
0100
0103
,
0200
0000
0000
0310
0000
0000
0220
0000
,
0300
1000
1000
1030
,
2000
0000
0000
3100
0000
0000
2200
0000
,
0300
0010
0010
3010
,
1020
0000
0000
0130
0000
0000
0201
0000
,
0000
0310
0000
0000
0012
0000
1003
0000
,
0200
0000
0000
0301
0000
0000
0202
0000
,
0300
0010
1000
0103
,
2000
0000
0000
3010
0000
0000
2020
0000
,
3000
0001
0100
1030
,
0020
0000
0000
0130
0000
0000
0220
0000
,
0030
0010
1000
0301
,
0012
0000
0000
1003
0000
0000
0210
0000
,
0000
0310
0000
0000
1002
0000
0013
0000
,
0001
0001
0001
0001
,
0000
1000
0000
1000
,
0010
0010
0010
0010
,
0000
0100
0000
0100
,
1000
1000
1000
1000
,
0000
0001
0000
0001
,
0100
0100
0100
0100
,
0000
0000
0110
1001
,
1000
0100
0010
0001
,
0100
0010
1000
0001
,
0010
0001
0100
1000
,
0100
1000
0001
0010
,
1000
0100
0001
0100
,
0010
0001
0010
1000
,
0020
0030
0200
0300
,
0002
0003
2000
3000
,
0002
0003
0200
0300
,
2000
3020
0230
0302
,
2003
3000
0200
0300
,
0020
0030
0002
0003
,
0100
0010
1000
0100
,
0001
0010
0001
1000
,
0010
0001
0100
0010
,
0001
1000
0100
1000
,
0010
0010
0100
0100
,
0001
0001
1000
1000
,
0001
0010
0100
1000
,
0010
0000
1010
0011
,
1000
0100
1000
0100
,
0010
0001
0010
0001
,
1000
0010
1000
0010
,
0100
0001
0100
0001
,
0000
0100
0010
0100
,
0000
0001
1000
0001
,
0000
1000
0100
0010
,
0001
0001
1000
1000
,
0000
0001
0010
0100
,
1000
1000
0001
0001
,
0100
0100
0100
0100
,
0010
0010
0010
0010
,
2002
0000
0000
0000
,
0000
0000
0000
0000
,
0000
0000
0000
0000
,
0000
0000
0000
3003
;

//---------------dance-single - Old scale 1----------------
#NOTES:
     dance-single:
     :
     Beginner:
     2:
     0.140576,0.205145,0.041696,0.100071,0.000000,118.000000,113.000000,5.000000,12.000000,0.000000,0.000000,0.140576,0.205145,0.041696,0.100071,0.000000,118.000000,113.000000,5.000000,12.000000,0.000000,0.000000:
0000
0000
0000
0000
,
0000
0000
0000
0000
,
0000
0000
0000
0000
,
0000
0000
0000
0000
,
0000
0000
0000
0000
,
0000
0000
0000
0000
,
1000
0000
1000
0000
,
0001
0000
0001
0000
,
0100
0000
0100
0000
,
0010
0000
0010
0000
,
2000
0000
3000
0000
,
0010
0000
0100
0000
,
0001
0000
1000
0000
,
0020
0000
0030
0000
,
0200
0000
0300
0000
,
0001
0000
1000
0000
,
0010
0000
0100
0000
,
0001
0000
1000
0000
,
0002
0000
0003
0000
,
1000
0000
0100
0000
,
1000
0000
0010
0000
,
0200
0000
0300
0000
,
0020
0000
0030
0000
,
2000
0000
3000
0000
,
0002
0000
0000
0000
,
0000
0000
0003
0000
,
0010
0000
0000
0010
,
0000
0000
0000
0000
,
0100
0000
0000
0100
,
0000
0000
0000
0000
,
0001
0000
0000
0001
,
0000
0000
0000
0000
,
1000
0000
0000
1000
,
0000
0000
1000
0000
,
0100
0000
0000
0010
,
0000
0000
0000
0000
,
1000
0000
0000
0001
,
0000
0000
0000
0000
,
0010
0000
0000
1000
,
0000
0000
0000
0000
,
0001
0000
0000
0010
,
0000
0000
0100
0000
,
0010
0010
0000
0000
,
0000
0000
0000
0000
,
0100
0100
0000
0000
,
0000
0000
0000
0000
,
0001
0001
0000
0000
,
0000
0000
0000
0000
,
1000
1000
0000
0000
,
0000
0000
0010
0010
,
0010
0000
0100
0000
,
0001
0000
1000
0000
,
0001
0000
0010
0000
,
0100
0000
1000
0000
,
0100
0000
0010
0000
,
1000
0000
0001
0000
,
2000
0000
3000
0000
,
0200
0000
0300
0000
,
0020
0000
0030
0000
,
0002
0000
0003
0000
,
1001
0000
0000
0000
,
0110
0000
0000
0000
,
1000
0000
0100
0000
,
0010
0000
0001
0000
,
0001
0000
0010
0000
,
0100
0000
1000
0000
,
0010
0000
0100
0000
,
0001
0000
1000
0000
,
0010
0000
0100
0000
,
0001
0000
1000
0000
,
0100
0000
0100
0000
,
0010
0000
0010
0000
,
1000
0000
1000
0000
,
0001
0000
0001
0000
,
0000
0000
1001
0000
,
0000
0000
0110
0000
,
0000
0000
1000
0000
,
0001
0000
0100
0000
,
0000
0000
0001
0000
,
0010
0000
1000
0000
,
0010
0000
1000
0000
,
0001
0000
0100
0000
,
1001
0000
0000
0000
;
