#VERSION:0.83;
#TITLE:BATTLE BREAKS;
#SUBTITLE:;
#ARTIST:DJ TAKAWO;
#TITLETRANSLIT:;
#SUBTITLETRANSLIT:;
#ARTISTTRANSLIT:;
#GENRE:;
#ORIGIN:;
#CREDIT:;
#BANNER:BATTLE BREAKS-bn.png;
#BACKGROUND:BATTLE BREAKS-bg.png;
#PREVIEWVID:;
#JACKET:BATTLE BREAKS-jacket.png;
#CDIMAGE:;
#DISCIMAGE:;
#LYRICSPATH:;
#CDTITLE:;
#MUSIC:BATTLE BREAKS.ogg;
#OFFSET:0.000000;
#SAMPLESTART:27.860001;
#SAMPLELENGTH:15.000000;
#SELECTABLE:YES;
#BPMS:0.000=112.000;
#STOPS:;
#DELAYS:;
#WARPS:;
#TIMESIGNATURES:0.000=4=4;
#TICKCOUNTS:0.000=4;
#COMBOS:0.000=1;
#SPEEDS:0.000=1.000=0.000=0;
#SCROLLS:0.000=1.000;
#FAKES:;
#LABELS:0.000=Song Start;
#BGCHANGES:;
#KEYSOUNDS:;
#ATTACKS:
;

//---------------dance-single - ----------------
#NOTEDATA:;
#CHARTNAME:;
#STEPSTYPE:dance-single;
#DESCRIPTION:;
#CHARTSTYLE:;
#DIFFICULTY:Beginner;
#METER:2;
#RADARVALUES:0.112099,0.153289,0.063870,0.000000,0.000000,86.000000,79.000000,7.000000,0.000000,0.000000,0.000000,0.000000,0.000000,0.000000,0.112099,0.153289,0.063870,0.000000,0.000000,86.000000,79.000000,7.000000,0.000000,0.000000,0.000000,0.000000,0.000000,0.000000;
#CREDIT:;
#NOTES:
0000
0000
0000
0000
,
0000
0000
0000
0000
,
1000
0000
1000
0000
,
0001
0000
0001
0000
,
1000
0000
0000
0000
,
1000
0000
0000
1000
,
0000
0100
0000
0001
,
0000
0001
0000
1000
,
0000
1000
0000
0000
,
0100
0000
0010
0000
,
1000
0000
0000
0000
,
0010
0000
0010
0000
,
0001
0000
0000
0000
,
1000
0000
0001
0000
,
0100
0000
0100
0000
,
1000
0000
1000
0000
,
1001
0000
1001
0000
,
0001
0000
1000
0000
,
0100
0000
0100
0000
,
1000
0000
1000
0000
,
1001
0000
1001
0000
,
1000
0000
0100
0000
,
1000
0000
1000
0000
,
1000
0000
0000
0000
,
0001
0000
1000
0000
,
0001
0000
0100
0000
,
1000
0000
0100
0000
,
0001
0000
0010
0000
,
1000
0000
0001
0000
,
0010
0000
0001
0000
,
1000
0000
0010
0000
,
1001
0000
0000
0000
,
0001
0000
0001
0000
,
0010
0000
0001
0000
,
0001
0000
0100
0000
,
1001
0000
0000
0010
,
0000
0000
0000
1000
,
0000
0100
0000
0010
,
0000
0001
0000
0100
,
0000
0000
0000
0000
,
1000
0000
0000
0000
,
0100
0000
0000
0000
,
1000
0000
0000
0000
,
0001
0000
0000
0000
,
1000
0000
0000
0000
,
1000
0000
0001
0000
,
0100
0000
1000
0000
,
0001
0000
0100
0000
,
1001
0000
0000
0000
;

//---------------dance-single - ----------------
#NOTEDATA:;
#CHARTNAME:;
#STEPSTYPE:dance-single;
#DESCRIPTION:;
#CHARTSTYLE:;
#DIFFICULTY:Easy;
#METER:5;
#RADARVALUES:0.218984,0.249665,0.063870,0.346725,0.000000,168.000000,161.000000,7.000000,38.000000,0.000000,0.000000,0.000000,0.000000,0.000000,0.218984,0.249665,0.063870,0.346725,0.000000,168.000000,161.000000,7.000000,38.000000,0.000000,0.000000,0.000000,0.000000,0.000000;
#CREDIT:;
#NOTES:
0000
0000
0000
0000
,
0000
0000
0000
0000
,
1000
0001
1000
0000
,
0001
1000
0001
0000
,
1000
0020
0000
0030
,
2000
3002
0003
2000
,
3001
0200
0000
0301
,
0100
0001
0002
1003
,
0010
0000
2000
0000
0000
0001
3000
0001
,
0200
0000
0010
0310
,
1000
0000
0002
0000
0000
1000
0003
1000
,
0010
0100
0010
0100
,
0001
1000
0002
0000
0000
1000
0003
1000
,
2000
0001
0001
3001
,
0100
0001
0100
0001
,
1000
0100
1000
0100
,
1001
0010
1001
0100
,
0002
1000
1000
1003
,
0100
0001
0100
0001
,
1000
0100
1000
0100
,
1001
0100
1001
0010
,
2000
3002
0203
0320
,
1030
0010
1000
0001
,
2000
0000
0000
3000
,
0001
1000
0000
0001
1000
0000
0000
0000
,
0002
0000
0100
0103
,
2000
3001
0200
0300
,
0001
0000
0001
0000
0010
0000
0010
0001
,
2000
0000
3001
0100
,
0010
0000
0100
0000
0001
0000
1000
0001
,
1000
0000
0010
0100
,
2002
0000
0000
3003
,
0001
0010
0001
0100
,
0010
0100
0001
0100
,
0001
1000
0100
1000
,
2002
0000
0000
0000
3003
0000
0010
0001
,
2000
0000
0000
0000
3000
0001
1000
0000
,
0001
0100
1000
0010
,
1000
0001
0010
0100
,
0002
0000
0003
0000
0000
1000
0000
1000
,
2000
0000
0000
0000
0000
3000
0000
0001
,
0100
0000
0001
0000
0000
1000
0000
1000
,
2000
0000
0000
0000
0000
3000
0000
1000
,
0001
0000
0100
0000
0000
0001
0000
0000
,
2000
0000
0000
0020
3000
0000
0030
0000
,
2000
3001
0002
1003
,
0200
0000
0301
0000
1000
0001
0100
0000
,
0002
1000
0203
0300
,
2002
0000
0000
0000
,
0000
0000
0000
3003
;

//---------------dance-single - ----------------
#NOTEDATA:;
#CHARTNAME:;
#STEPSTYPE:dance-single;
#DESCRIPTION:;
#CHARTSTYLE:;
#DIFFICULTY:Medium;
#METER:8;
#RADARVALUES:0.305014,0.359499,0.145989,0.456217,0.050184,234.000000,218.000000,16.000000,50.000000,0.000000,0.000000,0.000000,0.000000,0.000000,0.305014,0.359499,0.145989,0.456217,0.050184,234.000000,218.000000,16.000000,50.000000,0.000000,0.000000,0.000000,0.000000,0.000000;
#CREDIT:;
#NOTES:
0000
0000
0000
0000
,
0000
0000
0000
0000
,
1000
0001
2000
0000
0001
0000
3100
0000
,
0001
1000
0002
0000
1000
0000
0103
0000
,
0001
1000
0020
0000
0130
0000
0100
0000
,
2010
0000
3000
0102
0000
0003
0000
0000
,
1000
0000
0001
0000
0020
0000
0000
0000
0000
0000
0100
0000
0030
0100
0000
0000
,
1000
0000
0001
0000
0010
0001
0101
0000
,
0010
0000
1000
0000
0002
0000
0000
0000
0000
0000
0010
0000
0003
0010
0000
0000
,
0200
0000
0000
0000
0300
1000
0001
0000
,
1000
0000
0001
0000
0200
0000
0000
0000
0000
0000
0010
0000
0300
0010
0000
0000
,
1000
0010
0100
0000
0000
0000
1000
0010
,
0001
0000
1000
0000
0002
0000
0000
0000
0003
0000
0100
0000
0000
0001
0000
0000
,
2002
0000
0000
3003
,
1000
0001
1000
1000
0100
0010
0100
0000
,
0001
0100
0001
0000
1000
0010
0100
0100
,
0010
0100
0010
0010
1000
0100
0010
0000
,
0002
2003
3002
0003
,
0001
1000
0001
0001
0100
0010
0100
0000
,
1000
0100
1000
1000
0001
0010
0100
0100
,
0010
0100
0010
0010
0001
0100
0010
0000
,
0200
0320
2030
3000
,
1000
0010
0100
0100
,
2002
0000
0000
3003
,
1000
0001
0000
0010
0200
0000
0300
0000
,
1000
0001
0200
0302
,
1003
0000
1000
0000
0200
0000
1300
0010
,
0200
0000
0302
0000
1003
0001
0200
0000
,
0320
0000
0030
1000
0001
1000
0010
0100
,
0200
0000
0300
0000
0000
0001
1000
0001
,
2000
0000
3000
0010
1000
0001
0010
0100
,
2200
0000
0000
0000
3300
0000
0000
0000
0001
0000
0000
1000
0000
0000
0100
0000
,
0120
0000
0030
0001
0100
0001
0010
0100
,
0200
0000
0000
0000
0300
0000
0000
0000
1000
0000
0000
0001
0000
0000
0100
0000
,
0002
0000
0003
0010
0001
1000
0001
0100
,
1000
0000
0001
0000
0100
0000
0000
0010
,
0200
0000
0000
0000
0300
0010
0100
0010
,
1000
0000
0000
0000
2020
0000
3030
0000
0000
0000
0001
0000
0000
0110
0000
0000
,
1000
0000
0000
1000
0001
0010
0100
0000
,
1000
0000
0000
0000
2020
0000
0000
3030
0000
0000
0001
0000
0000
1001
0000
0000
,
0200
0000
0300
0000
0000
0010
1000
0000
,
0010
0000
0000
0000
0220
0000
0000
0330
0000
0000
1000
0000
0000
0110
0000
0000
,
0001
0000
1000
0000
0000
0001
0000
0000
0000
1000
0000
0000
0010
0000
0000
0000
,
0100
0000
0000
0000
0220
0000
0000
0330
0000
0000
1001
0000
0000
0000
0010
0000
,
0010
0001
1000
0100
1000
0000
0000
0000
,
0100
0001
0100
0000
1000
0010
1000
0000
,
0002
0000
0023
0000
0230
0000
1300
0001
,
0000
0100
0000
0010
0001
0100
0010
0000
,
2002
0000
0000
0000
,
0000
3003
0000
0000
;

//---------------dance-single - ----------------
#NOTEDATA:;
#CHARTNAME:;
#STEPSTYPE:dance-single;
#DESCRIPTION:;
#CHARTSTYLE:;
#DIFFICULTY:Hard;
#METER:11;
#RADARVALUES:0.432754,0.544723,0.291979,0.310227,0.187049,332.000000,300.000000,32.000000,34.000000,0.000000,0.000000,0.000000,0.000000,0.000000,0.432754,0.544723,0.291979,0.310227,0.187049,332.000000,300.000000,32.000000,34.000000,0.000000,0.000000,0.000000,0.000000,0.000000;
#CREDIT:;
#NOTES:
0000
0000
0000
0000
,
0000
0000
0000
0000
,
1000
0001
0200
0000
0301
1000
0010
0000
,
1000
0001
0020
0000
0031
0010
0100
0000
,
0010
0100
0020
0000
0031
1000
0100
0000
,
0010
0001
0100
0010
1000
1001
1100
0000
,
0001
0000
1000
0000
0200
0000
0000
0000
0300
0000
1001
0000
0000
1010
0000
0000
,
0100
0001
2000
0000
3001
0010
0100
0000
,
1000
0000
0001
0000
0020
0000
0000
0000
0030
0000
0101
0000
0000
0110
0000
0000
,
1000
0001
0100
0000
0000
0010
0010
1000
,
1000
0000
0001
0000
0200
0000
0000
0000
0300
0000
1001
0000
0000
0011
0000
0000
,
0100
1000
0002
0000
1003
0010
0100
0000
,
0001
0000
1000
0000
0020
0000
0000
0000
0030
0000
1100
0000
0000
0110
0000
0000
,
0001
1000
0100
0001
1000
0100
0010
0000
,
0001
0010
0001
1000
0010
1000
0100
0100
,
1000
0010
1000
0001
0010
0001
0100
0100
,
0001
1000
0001
0010
0100
0010
0001
0001
,
2000
3100
2000
3010
0202
0000
0303
0000
,
1000
0100
1000
0001
0100
0001
0010
0010
,
0001
0100
0001
1000
0100
1000
0010
0010
,
1000
0001
1000
0100
0010
0100
1000
1000
,
0002
2003
3020
2030
,
3010
0010
0100
0010
0010
1000
0100
0010
,
0022
0000
0000
0033
,
0001
1000
0000
0010
0100
0000
0000
0000
,
0010
0000
1000
0001
1000
0000
0100
0000
0010
0000
0000
0000
0000
0000
0000
0000
,
0011
0000
0110
0000
1001
0000
0010
0100
,
0001
0000
0001
0000
0001
1000
0001
0100
,
1010
0000
0000
0100
0001
0000
0010
0000
0001
0000
1000
0000
0010
0000
1000
0000
,
2000
0000
0000
3100
0010
0000
0001
0000
1000
0000
0001
0000
0100
0000
0200
0000
,
0310
0000
0000
1000
0001
0000
0010
0000
0001
0000
1000
0000
0100
0000
0100
0000
,
1001
0000
0000
0000
0000
0000
0000
0000
0101
0000
0000
1010
0000
0000
0100
0000
,
0011
0000
0000
0100
1000
0000
0010
0000
1000
0000
0001
0000
0010
0000
0001
0000
,
0002
0000
0000
0103
0010
0000
1000
0000
0002
0000
0000
0200
0003
0000
0301
0000
,
0020
0000
0030
0001
1000
0000
0010
0000
1000
0000
0001
0000
0100
0000
0100
0000
,
1001
0000
0110
0000
0101
0000
0000
1000
,
0001
1000
0010
0200
0000
0000
0300
0000
,
1010
0000
0100
0000
0002
0010
0000
0010
0003
0000
0110
0000
0000
1001
0000
0000
,
0100
0001
0100
0000
0010
0000
1000
0000
0100
1000
0000
0001
0000
1000
0010
0000
,
1000
0000
0001
0000
2000
0001
0000
0001
3000
0000
0110
0000
0000
0100
0000
0000
,
0001
1000
0001
1000
0010
0100
0010
0100
0001
1000
0001
1000
0001
0000
0000
0000
,
0011
0000
0100
0000
2000
0010
0000
0010
3000
0000
0110
0000
0000
1001
0000
0000
,
0001
0000
1000
0001
0000
1000
0100
0000
0010
0001
0000
0100
0001
0000
1000
0000
,
0100
0000
1000
0000
0002
1000
0000
1000
0003
0000
0110
0000
0000
0100
0000
0000
,
1000
0001
0001
1000
0101
0000
0000
0000
,
1000
0100
1000
0000
0010
0000
0000
0000
0100
0001
0100
0000
0001
0000
0000
0000
,
1000
0001
1000
0001
,
0020
0000
2030
0000
3001
0100
0020
0000
,
0200
0000
0030
0000
,
0000
0000
0000
0300
;

//---------------dance-double - ----------------
#NOTEDATA:;
#CHARTNAME:;
#STEPSTYPE:dance-double;
#DESCRIPTION:;
#CHARTSTYLE:;
#DIFFICULTY:Easy;
#METER:6;
#RADARVALUES:0.202039,0.226968,0.036497,0.337600,0.018249,155.000000,151.000000,4.000000,37.000000,0.000000,0.000000,0.000000,0.000000,0.000000,0.202039,0.226968,0.036497,0.337600,0.018249,155.000000,151.000000,4.000000,37.000000,0.000000,0.000000,0.000000,0.000000,0.000000;
#CREDIT:;
#NOTES:
00000000
00000000
00000000
00000000
,
00000000
00000000
00000000
00000000
,
10000000
00010000
01000000
00000000
,
00001000
00010000
00000100
00000000
,
00001000
00000020
00000000
00000030
,
00002000
00003002
00000003
00002000
,
00003000
00000200
00000000
00010300
,
00001000
01000000
00200000
10300000
,
00100000
00000000
00000000
00000000
20000000
00000000
00000000
00000000
00000000
00000000
00010000
00000000
30000000
00010000
00000000
00000000
,
02000000
00020000
03000000
00030000
,
00100000
00001000
00010000
00000000
,
00000010
00000100
00000010
00000100
,
00000001
00000000
00001000
00000000
00000001
00000000
00000000
00000000
00000000
00000000
00001000
00000000
00000000
00001000
00000000
00000000
,
00000200
00000000
00000000
00000300
,
00010000
00001000
01000000
00010000
,
10000000
01000000
10000000
01000000
,
10010000
00010000
00010000
01000000
,
00002000
00010000
00010000
00013000
,
00000100
00001000
00000100
00001000
,
00000001
00000100
00000001
00000100
,
00000010
00010000
00001000
00100000
,
02000000
23000000
30020000
00030000
,
00100000
00010000
10000000
00010000
,
02000000
00000000
00000000
03000000
,
00001000
00000000
00000000
00010000
00001000
00000000
00000000
00000000
,
00022000
00000000
00000000
00033000
,
00000020
00001030
00000200
00000300
,
00010000
00000000
00001000
00000000
00100000
00000000
00100000
00010000
,
20000000
00000000
30010000
01000000
,
00100000
00000000
01000000
00000000
00001000
00000000
00010000
00010000
,
00000100
00000000
00000010
00000100
,
00002002
00000000
00000000
00003003
,
00000001
00000010
00000100
00010000
,
00001000
01000000
00010000
01000000
,
00010000
00100000
00010000
01000000
,
00002000
00023000
00030000
00000010
,
00000200
00000000
00000000
00000000
00000300
00000001
00001000
00000000
,
00000001
00000100
00001000
00000001
,
00001000
00000100
00010000
00001000
,
00200000
00000000
00000000
00000000
00300000
00000000
00000000
00000000
00000000
00000000
00010000
00000000
00000000
00010000
00000000
00000000
,
20000000
00000000
00000000
00000000
00000000
30000000
00000000
00010000
,
00100000
00000000
00000000
00000000
00001000
00000000
00000000
00000000
00000000
00000000
00001000
00000000
00000000
00010000
00000000
00000000
,
00000200
00000000
00000000
00000000
00000000
00000300
00000000
00001000
,
00000001
00000000
00000100
00000000
00000000
00000010
00000000
00000000
,
00020000
00000000
00000000
00002000
00030000
00000000
00003000
00000000
,
00020000
00031000
00200000
00310000
,
02000000
00000000
03010000
00000000
10000000
00010000
01000000
00000000
,
00020000
10000000
02030000
03000000
,
20020000
00000000
00000000
00000000
,
00000000
00000000
00000000
30030000
;

//---------------dance-double - ----------------
#NOTEDATA:;
#CHARTNAME:;
#STEPSTYPE:dance-double;
#DESCRIPTION:;
#CHARTSTYLE:;
#DIFFICULTY:Medium;
#METER:8;
#RADARVALUES:0.248964,0.317755,0.063870,0.501839,0.027373,191.000000,184.000000,7.000000,55.000000,0.000000,0.000000,0.000000,0.000000,0.000000,0.248964,0.317755,0.063870,0.501839,0.027373,191.000000,184.000000,7.000000,55.000000,0.000000,0.000000,0.000000,0.000000,0.000000;
#CREDIT:;
#NOTES:
00000000
00000000
00000000
00000000
,
00000000
00000000
00000000
00000000
,
00010000
10000000
00020000
00000000
10000000
00000000
01030000
00000000
,
10000000
00010000
01000000
00000000
00001000
00000000
00020000
00000000
,
00030010
00002000
00000000
00003000
,
00000020
00000230
00000300
00002000
,
00003001
00000000
00000000
00000000
00000200
00000000
00000000
00000000
00000000
00000000
00000010
00000000
00000300
00000010
00000000
00000000
,
00010000
00000000
00001000
00000000
00010000
00001000
00011000
00000000
,
00100000
00000000
00010000
00000000
02000000
00000000
00000000
00000000
00000000
00000000
00100000
00000000
03000000
00100000
00000000
00000000
,
20000000
00000000
00000000
00000000
00000000
30000000
00010000
00000000
,
01000000
00000000
00001000
00000000
00020000
00000000
00000000
00000000
00000000
00000000
00001000
00000000
00030000
00001000
00000000
00000000
,
00010000
00000010
00000100
00000000
00000010
00010000
00001000
00000000
,
00100000
00010000
02000000
00000000
03000000
00010000
00000000
00010000
,
20020000
00000000
00000000
30030000
,
10000000
00010000
10000000
00000000
01000000
00100000
01000000
00000000
,
10000000
00010000
10000000
00000000
01000000
00100000
01000000
00000000
,
10010000
00000000
01000000
00000000
00001000
00010000
00000010
00000000
,
00002000
00003001
00000002
00000003
,
00001000
00000001
00001000
00000000
00000100
00000010
00000100
00000000
,
00001000
00000001
00001000
00000000
00000010
00001000
00000010
00000000
,
00010000
00001000
01000000
00000000
00010000
10000000
00100000
00000000
,
20000000
30020000
02030000
03010000
,
01000000
00001000
00010000
00001000
,
00022000
00000000
00000000
00033000
,
00000010
00002000
00000000
00000010
00000010
00000000
00003000
00000000
,
00000001
00000000
00001000
00000002
00000000
00000000
00001003
00000000
,
00000001
00000000
00001000
00000000
00000100
00000000
00010000
00001000
,
00100000
00000000
01000000
00000000
10000000
00010000
01000000
00000000
,
00020000
00000000
00030000
20000000
,
30020000
00000000
02030000
00000000
03020000
00000000
10030000
00010000
,
10000000
00100000
00100000
01000000
,
20020000
30000000
01000000
01030000
,
00001000
00000000
00010000
00000000
00000010
00001000
00000001
00000000
,
00000010
00000100
00000002
00000203
,
00000302
00002003
00003200
00001300
,
00002200
00000000
00000000
00000000
00003300
00000000
00010000
00001000
,
02000000
00000000
00000000
00000000
03000000
00010000
20000000
00000000
,
00020000
00000000
00000000
00000000
30000000
00000000
00000000
00000000
00000000
00000000
10030000
00000000
00000000
00010000
00000000
00000000
,
00200000
00000000
00301000
00010000
,
00000100
00000000
00000000
00000000
00000020
00000000
00000000
00000000
00000000
00000000
00000001
00000000
00000030
00000100
00000000
00000000
,
00002000
00000000
00000000
00000000
00000000
00003000
00000000
00000001
,
00000200
00000000
00000000
00000000
00000302
00000000
00000000
00000000
00000000
00000000
00001003
00000000
00000000
00000100
00000000
00000000
,
00020000
00000000
00000000
00000000
00000000
00030000
00000000
00001000
,
02000000
00000000
03020000
00000000
00000000
01000000
00030000
00000000
,
00200000
00000000
00000000
02000000
00300000
00000000
03000000
00000000
,
00010000
10000000
00020000
00000000
10030000
00100000
02000000
00000000
,
03010000
00000000
01000000
00000000
00001000
00010000
00001000
00000000
,
00002000
00010000
00023000
00030000
,
00022000
00000000
00000000
00000000
,
00000000
00000000
00000000
00033000
;

//---------------dance-double - ----------------
#NOTEDATA:;
#CHARTNAME:;
#STEPSTYPE:dance-double;
#DESCRIPTION:;
#CHARTSTYLE:;
#DIFFICULTY:Hard;
#METER:10;
#RADARVALUES:0.325869,0.408542,0.145989,0.574833,0.036497,250.000000,234.000000,16.000000,63.000000,0.000000,0.000000,0.000000,0.000000,0.000000,0.325869,0.408542,0.145989,0.574833,0.036497,250.000000,234.000000,16.000000,63.000000,0.000000,0.000000,0.000000,0.000000,0.000000;
#CREDIT:;
#NOTES:
00000000
00000000
00000000
00000000
,
00000000
00000000
00000000
00000000
,
10000000
01000000
21000000
00000000
30010000
00000000
01000000
00000000
,
00001000
00010000
00011000
00000000
00000010
00001000
00000200
00000000
,
00000300
00002000
00000020
00000000
00000000
00000000
00000030
00003000
,
00002000
00000020
00000000
00003030
,
00010000
00000000
00001000
00000000
02000000
00000000
00000000
00000000
00000000
00000000
00010000
00000000
03000000
00010000
00000000
00000000
,
01000000
00010000
10000000
00000000
00100000
01000000
01100000
00000000
,
00100000
00000000
01000000
00000000
00002000
00000000
00000000
00000000
00000000
00000000
00013000
00000000
00000100
00001000
00000000
00000000
,
00000020
00000100
00000130
00000001
,
00001000
00000000
00000001
00000000
00000200
00000000
00000000
00000000
00000000
00000000
00000001
00000000
00000300
00000001
00000000
00000000
,
00000010
00000001
00000100
00000010
00001000
00000100
00010000
00000000
,
00001000
00000000
01000000
00000000
00020000
00000000
00000000
00000000
00000000
00000000
20030000
00000000
00000000
30010000
00000000
00000000
,
20020000
00000000
00000000
30030000
,
10000000
00010000
10000000
00010000
01000000
00100000
01000000
00010000
,
10000000
00010000
10000000
00010000
00100000
01000000
10000000
00010000
,
10010000
00010000
10000000
00010000
01000000
00001000
00010000
00000010
,
00002000
00000000
00003010
00000100
00000002
00000000
00000003
00000000
,
00001001
00000100
00001000
00000100
00001000
00000100
00000010
00000001
,
00000010
00000001
00000010
00000001
00001000
00000010
00000100
00000001
,
00001000
00000010
00010000
00001000
00100000
00010000
01000000
00100000
,
20000000
30200000
02300000
03000000
,
00010000
00100000
00010000
01000000
00100000
20000000
30000000
00000000
,
20020000
00000000
00000000
00000000
00030000
00010000
30010000
01000000
,
00002000
00000000
00003000
00010000
00020000
00000000
00030000
00000000
,
00000010
00001000
00000020
00000200
00000000
00000000
00000330
00000000
,
00002001
00000000
00003002
00000000
00000203
00000000
00000301
00001000
,
00000010
00000000
00000010
00000000
00010000
00001000
00010000
00001000
,
00200000
00000000
00000000
00000000
00310000
00000000
01000000
00020000
,
10000000
00000000
01030000
00000000
10010000
00000000
10000000
00020000
,
10000000
00000000
00030000
00000000
00100000
00010000
01000000
00000000
,
00022000
00000000
00003000
00000000
00030010
00000000
00001000
00001000
,
00000000
00000000
00002000
00000000
00000001
00003001
00000100
00000010
,
00002000
00000000
00003100
00000000
00000002
00000000
00000203
00000001
,
00000301
00000000
00001000
00000000
00000100
00010000
00001000
00000000
,
02000000
00000000
00000000
00000000
03010000
00100000
01000000
10000000
,
20000000
32000000
03200000
00302000
,
00010000
00000000
00000000
00000000
00023000
00000000
00000000
00000000
00030000
00000000
00000010
00000000
00001000
00000001
00000000
00000000
,
00002000
00000000
00003010
00001000
00000010
00000100
00000001
00000101
,
00000002
00000000
00000000
00000000
00002003
00000000
00000000
00000000
00003000
00000000
00000010
00000000
00001000
00000010
00000000
00000000
,
00020000
00000000
00031000
01000000
00010000
01000000
00010000
01010000
,
02000000
00000000
00000000
00000000
00020000
00000000
03000000
00000000
00000000
00000000
10030000
00000000
00100000
02000000
00000000
00000000
,
00000000
00000000
03000000
00000000
00001000
00000000
00000000
00000000
00010000
00000000
00000000
00000000
00000100
00001000
00000001
00000000
,
00000020
00000000
00000230
00000000
00000000
00000010
00000300
00000000
,
00002002
00000000
00000003
00000020
00000000
00000000
00003030
00000000
,
00001000
00000100
00001200
00000000
00010300
00001000
00012000
00000000
,
02003000
00000000
03010000
00000000
10000000
00020000
02000000
00000000
,
00030000
03100000
00000000
01000000
00100000
10000000
00010000
00000000
,
20020000
00000000
00000000
00000000
,
00000000
00000000
00000000
30030000
;

//---------------dance-single - ----------------
#NOTEDATA:;
#CHARTNAME:;
#STEPSTYPE:dance-single;
#DESCRIPTION:;
#CHARTSTYLE:;
#DIFFICULTY:Challenge;
#METER:15;
#RADARVALUES:0.698664,0.748994,0.729947,0.218984,0.729947,536.000000,456.000000,80.000000,24.000000,0.000000,0.000000,0.000000,0.000000,0.000000,0.698664,0.748994,0.729947,0.218984,0.729947,536.000000,456.000000,80.000000,24.000000,0.000000,0.000000,0.000000,0.000000,0.000000;
#CREDIT:;
#NOTES:
// measure 0
0000
0000
0000
0000
,  // measure 1
0000
0000
0000
0000
,  // measure 2
1100
0000
1100
0000
1001
0000
0010
0100
0000
0100
0001
0000
1000
0000
0001
1000
,  // measure 3
0001
0000
0001
0000
1001
0000
1000
0100
0000
0100
0010
0000
0011
0000
1100
0000
,  // measure 4
1001
0000
0100
0000
0100
0000
0001
1000
0000
1000
0001
0000
0010
0100
0010
0001
,  // measure 5
0100
0000
1001
0000
0001
0100
1000
0000
0010
0000
1010
0000
0101
0000
0001
1000
,  // measure 6
0100
0000
0000
0000
1010
0000
1000
0001
0000
1000
0100
0000
0000
1100
0000
0000
,  // measure 7
0101
0000
0001
0100
1000
0000
0000
0000
0001
1000
0100
0000
0010
0000
0000
0000
,  // measure 8
1000
0000
0000
0000
0110
0000
0100
0010
0000
0010
0001
0000
0000
0101
0000
0000
,  // measure 9
1001
0000
0010
0000
1000
0000
0100
1000
0000
0001
1000
0000
0011
0000
1010
0000
,  // measure 10
0001
0000
0000
0000
1100
0000
0010
1000
0000
0001
0100
0000
0000
0110
0000
0000
,  // measure 11
1001
0000
0010
0100
1000
0000
0001
1000
0000
0000
0011
0000
1100
0000
0101
0000
,  // measure 12
0010
0000
0000
0000
1001
0000
0100
0001
0000
1000
0100
0000
0000
1010
0000
0000
,  // measure 13
0001
1000
0001
0000
0100
0000
0100
0000
0110
0000
1001
0000
1000
0100
0000
0000
,  // measure 14
1000
0100
0010
0100
0010
0100
1000
0001
0010
0100
0010
0001
0100
0001
1000
0001
,  // measure 15
0010
0001
0100
0001
0010
0100
1000
0010
1000
0001
0010
0100
0010
0100
1000
0001
,  // measure 16
0010
0001
0100
0001
0010
0100
1000
0010
1000
0100
0010
0001
1000
0001
1000
0010
,  // measure 17
1000
0100
0010
0001
1000
0100
0010
0001
1000
0000
0101
0000
0000
0100
0010
0100
,  // measure 18
0001
1000
0100
0010
0100
1000
0010
1000
0001
0010
0001
0100
0010
1000
0001
0010
,  // measure 19
0001
1000
0010
0100
0010
1000
0100
0010
0001
0100
0010
1000
0001
0010
0001
0100
,  // measure 20
0001
1000
0100
0010
0001
1000
0010
1000
0010
0100
0010
1000
0001
0010
0100
1000
,  // measure 21
0010
0100
0010
0100
0001
1000
0001
1000
0010
0100
0001
1000
0100
0000
1001
0000
,  // measure 22
0010
0000
1010
0000
0101
0000
0100
0000
0011
0000
1100
0000
0001
0000
1000
0010
,  // measure 23
0210
0000
0002
0000
0000
0000
0000
0003
0000
0000
0301
1000
0001
1000
0001
1000
,  // measure 24
0010
1000
0100
0000
0000
0000
1100
0000
0101
0000
1001
0000
0010
0100
0010
0100
,  // measure 25
0001
1000
0001
1000
0100
0000
0100
0000
0110
0000
0011
0000
0010
0001
1000
0001
,  // measure 26
0100
0100
0000
0000
1001
0000
0000
0000
0110
0000
0000
0000
1010
0000
1001
0000
,  // measure 27
0002
1000
0000
0000
0100
0000
0000
0000
1003
0000
1010
0000
1100
0000
0011
0000
,  // measure 28
1002
0000
0000
0000
0010
0000
1000
0000
1003
0000
0001
0010
0000
0010
0100
0000
,  // measure 29
2200
0000
0000
0000
0000
0000
0300
0000
0000
0000
3001
1000
0010
1000
0001
0000
,  // measure 30
2001
0000
0000
0000
0010
0000
0001
0000
3001
0000
1000
0010
0000
1000
0100
0000
,  // measure 31
0110
0000
0010
0001
0100
0000
0000
0000
1002
0000
1000
2003
0000
0001
3001
0000
,  // measure 32
1002
0000
0000
0000
0010
0000
0100
0000
0103
0000
0001
0010
0000
0001
1000
0000
,  // measure 33
2010
0000
0010
0000
0002
0000
3003
0000
1100
0000
0000
0110
0000
0000
0011
0000
,  // measure 34
2001
0000
0000
0000
0001
0000
0100
0000
3100
0000
1000
0010
0000
1000
0001
0000
,  // measure 35
0010
0020
0000
0000
0032
0000
0000
0000
2003
0000
3010
0000
1100
0000
1001
0000
,  // measure 36
0010
0000
0100
0000
0202
0000
0000
0000
0300
0000
1003
0001
1000
0001
1000
0001
,  // measure 37
0010
0000
0000
0000
0101
0000
1000
0010
0000
1000
0001
0000
0010
0100
0000
1000
,  // measure 38
0001
0100
0001
0000
0020
0000
0230
0000
1300
2000
0000
3002
0000
1003
0100
0000
,  // measure 39
1000
0000
0000
0000
0011
0000
0001
0100
0000
0100
0010
0000
0010
1000
0000
0001
,  // measure 40
1000
0100
1000
0100
0001
0100
0001
0100
1000
0100
0001
0100
1000
0000
0110
0000
,  // measure 41
0001
0000
0000
0000
1100
0000
1000
0010
0000
1000
0100
0000
0010
0001
0000
0100
,  // measure 42
0001
0001
0000
0011
0000
1000
1010
0000
0001
0101
0000
1000
1100
0000
0010
0000
,  // measure 43
0100
0000
0000
0000
1001
0000
0001
1000
0000
0001
0100
0000
0010
0000
1000
0000
,  // measure 44
1100
0000
0001
0000
0100
0000
0110
0000
0010
0000
1000
0000
0000
0001
0010
0100
,  // measure 45
1000
0001
1000
0000
0011
0000
0010
0100
1000
0001
1000
0000
0011
0000
0010
0100
,  // measure 46
1000
0001
1000
0000
0100
0000
1010
0000
0001
0000
1100
0000
0010
0000
0101
0000
,  // measure 47
1000
0001
1000
0000
0010
0000
0100
0000
0101
0000
1100
0000
0001
1000
0000
0000
,  // measure 48
0022
0000
0000
0000
,  // measure 49
0000
0000
0000
0033
;
