#VERSION:0.83;
#TITLE:Axel F;
#SUBTITLE:;
#ARTIST:Crazy Frog;
#TITLETRANSLIT:;
#SUBTITLETRANSLIT:;
#ARTISTTRANSLIT:;
#GENRE:;
#ORIGIN:;
#CREDIT:;
#BANNER:Axel F.png;
#BACKGROUND:Axel F-bg.png;
#PREVIEWVID:;
#JACKET:Axel F-jacket.png;
#CDIMAGE:;
#DISCIMAGE:;
#LYRICSPATH:;
#CDTITLE:;
#MUSIC:Axel F.ogg;
#OFFSET:0.420000;
#SAMPLESTART:48.276001;
#SAMPLELENGTH:20.000000;
#SELECTABLE:YES;
#DISPLAYBPM:138.000000;
#BPMS:0.000=138.000;
#STOPS:;
#DELAYS:;
#WARPS:;
#TIMESIGNATURES:0.000=4=4;
#TICKCOUNTS:0.000=4;
#COMBOS:0.000=1;
#SPEEDS:0.000=1.000=0.000=0;
#SCROLLS:0.000=1.000;
#FAKES:;
#LABELS:0.000=Song Start;
#BGCHANGES:;
#KEYSOUNDS:;
#ATTACKS:
;

//---------------dance-single - ----------------
#NOTEDATA:;
#CHARTNAME:;
#STEPSTYPE:dance-single;
#DESCRIPTION:;
#CHARTSTYLE:;
#DIFFICULTY:Challenge;
#METER:12;
#RADARVALUES:0.550475,0.679031,0.571733,0.140975,0.340690,492.000000,419.000000,73.000000,18.000000,0.000000,0.000000,0.000000,0.000000,0.000000,0.550475,0.679031,0.571733,0.140975,0.340690,492.000000,419.000000,73.000000,18.000000,0.000000,0.000000,0.000000,0.000000,0.000000;
#CREDIT:;
#DISPLAYBPM:138.000000;
#NOTES:
0000
0000
0000
0000
,
0000
0000
0000
0000
,
0000
0000
0000
0000
,
0000
0000
0000
0000
,
0010
0000
0000
0000
0100
0000
0000
0001
0000
1000
0001
0000
0010
0000
0100
0000
,
1000
0000
0000
0000
0010
0000
0000
0100
0000
0001
1000
0000
0100
0000
0010
0000
,
0001
0000
0001
0000
0001
0000
1000
0010
0000
1000
0010
0000
0100
0000
0200
0000
,
0000
0300
0110
0110
,
0001
0000
0000
0000
1000
0000
0000
0010
0000
1000
0100
0000
0010
0000
0001
0000
,
0100
0000
0000
0000
0010
0000
0000
1000
0000
0010
0100
0000
0001
0000
1000
0000
,
0010
0000
0010
0000
0010
0000
1000
0001
0000
1000
0001
0000
0100
0000
0100
0000
,
0110
0110
1001
1001
0220
0000
0330
0000
,
1010
0000
0000
0000
0011
0000
0000
0001
0000
1000
0010
0000
0100
0000
0001
0000
,
0011
0000
0000
0000
1100
0000
0000
0010
0000
1000
0001
0000
0100
0000
0010
0000
,
1000
0000
1000
0000
1000
0000
0001
0010
0000
0010
0001
0000
0100
0000
0200
0000
,
1000
0301
0101
0101
,
1010
0000
0000
0000
1001
0000
0000
1000
0000
0100
0010
0000
0001
0000
0100
0000
,
0110
0000
0000
0000
1010
0000
0000
1000
0000
0001
1000
0000
0100
0000
0010
0000
,
0100
0000
0100
0000
0100
0000
1000
0001
0000
1000
0001
0000
0010
0000
0020
0000
,
0000
0030
0011
0011
,
0001
0001
1000
1000
0100
0000
0100
0000
,
0001
0001
1000
1000
0100
0100
0100
0000
,
0001
0001
1000
1000
0100
0000
0100
0000
,
0001
0001
1000
1000
0010
0000
0010
0000
,
0001
0001
1000
1000
0100
0000
0100
0000
,
0001
0001
1000
1000
0100
0100
0100
0000
,
0001
0001
1000
1000
0100
0000
0100
1000
,
1001
1001
0110
0110
1001
0010
0100
0000
,
0110
0000
0000
0000
0101
0000
0000
0001
0000
0010
0100
0000
1000
0000
0010
0000
,
0110
0000
0000
0000
1001
0000
0000
0001
0000
1000
0100
0000
0010
0000
0100
0000
,
1000
0000
1000
0000
1000
0000
0010
0100
0000
0010
0100
0000
0001
0000
0002
0000
,
0010
1003
1100
1100
,
0011
0000
0000
0000
1001
0000
0000
0010
0000
1000
0100
0000
1000
0000
0001
0000
,
0101
0000
0000
0000
1100
0000
0000
1000
0000
0100
0010
0000
0001
0000
0100
0000
,
0010
0000
0010
0000
0010
0000
0100
0001
0000
0100
0001
0000
1000
0000
1000
0000
,
0000
0000
1000
0001
1000
0000
0100
0000
0000
0100
0010
0000
0010
0000
0001
0000
,
0011
0000
0000
0000
1100
0000
0000
0010
0100
0010
0100
0000
0001
0000
1000
0000
,
1100
0000
0000
0000
0101
0000
0000
0100
0001
0100
0001
0000
1000
0000
0010
0000
,
0100
0000
0100
0000
0100
0000
0001
0010
0000
0001
1000
0000
0010
0000
0020
0000
,
1000
0130
0101
0101
,
1010
0000
0000
0000
0110
0000
0000
0010
1000
0010
1000
0000
0001
0000
0001
0000
,
1001
0000
0000
0000
1100
0000
0000
0100
1000
0100
1000
0000
0010
0000
0010
0000
,
0100
0000
0100
0000
0100
0000
0001
1000
0000
1000
0010
0000
0100
0000
0100
0000
,
0110
0110
1001
1001
0220
0000
0330
0000
,
2002
0000
0000
0000
,
0000
0000
0000
0000
,
0000
0000
0000
0000
,
0000
0000
0000
0000
,
0000
0000
0000
0000
,
0000
0000
0000
0000
,
0000
0000
0000
0000
,
0000
0000
3000
0000
0100
0100
0100
0100
,
0103
0000
0010
0000
0010
0000
1000
0100
0000
1000
0000
0001
0100
0000
0110
0000
,
0000
0000
0001
0000
0001
0000
0010
0100
0000
0100
1000
0000
1010
0000
0000
0000
,
0001
0000
1000
0000
1000
0000
1000
0000
0010
1000
0000
0100
0000
0010
0000
0001
,
0100
0000
0100
0000
0010
0000
0010
0000
1000
0001
0000
1000
0001
0000
0000
0000
,
1000
0000
0010
0000
0010
0000
1000
0100
0000
0010
0000
0001
0100
0000
1001
0000
,
0000
0000
0010
0000
0010
0000
1000
0100
0000
1000
0001
0000
0011
0000
0000
0000
,
1000
0000
0001
0000
0001
0000
0001
0000
0010
0001
0000
0100
0000
0010
1000
0000
,
1001
1001
0110
0110
2002
0000
3003
0000
,
1100
0000
0000
0000
0110
0000
0000
0010
0000
0001
0100
0000
0010
0000
1000
0000
,
1100
0000
0000
0000
1001
0000
0000
1000
0000
0100
1000
0000
0001
0000
0010
0000
,
0001
0000
0001
0000
0001
0000
1000
0100
0000
1000
0100
0000
0010
0000
0020
0000
,
0100
1030
0011
0011
,
1010
0000
0000
0000
1100
0000
0000
0010
0000
1000
0001
0000
0100
0000
0010
0000
,
0101
0000
0000
0000
0011
0000
0000
0001
0000
0100
0010
0000
1000
0000
0001
0000
,
1000
0000
1000
0000
1000
0000
0001
0010
0000
0001
0010
0000
0100
0000
0200
0000
,
0000
0300
0110
0110
,
0010
0000
0000
0000
1000
0000
0000
0001
0000
1000
0001
0000
0010
0000
0100
0000
,
1000
0000
0000
0000
0010
0000
0000
0100
0000
0010
0100
0000
0001
0000
1000
0000
,
0001
0000
0001
0000
0001
0000
1000
0010
0000
1000
0010
0000
0100
0000
0200
0000
,
0000
0300
1001
2002
,
0000
3003
0000
0000
;

//---------------dance-single - ----------------
#NOTEDATA:;
#CHARTNAME:;
#STEPSTYPE:dance-single;
#DESCRIPTION:;
#CHARTSTYLE:;
#DIFFICULTY:Hard;
#METER:10;
#RADARVALUES:0.411737,0.509273,0.211463,0.172303,0.000000,368.000000,341.000000,27.000000,22.000000,0.000000,0.000000,0.000000,0.000000,0.000000,0.411737,0.509273,0.211463,0.172303,0.000000,368.000000,341.000000,27.000000,22.000000,0.000000,0.000000,0.000000,0.000000,0.000000;
#CREDIT:;
#DISPLAYBPM:138.000000;
#NOTES:
0000
0000
0000
0000
,
0000
0000
0000
0000
,
0000
0000
0000
0000
,
0000
0000
0000
0000
,
0010
0000
0100
0000
0001
0010
0100
1000
,
0001
0000
0100
0000
0010
0100
0001
1000
,
0100
0010
0100
0000
1000
0000
0001
0020
,
0000
0000
0100
0130
,
0010
0000
0001
0000
0100
0010
1000
0001
,
1000
0000
0100
0000
1000
0010
0100
0001
,
0010
0100
0010
0000
0001
1000
0001
0000
,
0100
0010
1000
0001
0220
0000
0330
0000
,
0010
0000
1010
0000
0001
0010
0100
1000
,
0001
0000
0101
0000
0010
0100
0001
1000
,
0001
0010
0001
0100
0010
1000
0001
0200
,
0020
0030
0001
0301
,
0100
0000
0110
0000
0010
0100
0001
1000
,
0001
0000
0011
0000
0010
0001
1000
0100
,
1000
0010
1000
0001
0010
0100
1000
0002
,
0000
0000
1000
1003
,
0001
1000
0100
0100
,
0001
0000
1000
0000
0100
0100
0100
0000
,
0001
1000
0100
0100
,
0001
1000
0010
0010
,
0001
1000
0100
0100
,
0001
0000
1000
0000
0100
0100
0100
0000
,
0001
1000
0100
0100
,
1000
0001
0100
0010
2002
0000
3003
0000
,
1000
0000
0101
0000
0001
1000
0100
0010
,
0100
0000
1100
0000
1000
0010
1000
0001
,
0010
0100
0010
0001
0100
0010
1000
0002
,
1000
0000
0010
0013
,
0001
0000
1010
0000
0010
0100
0001
1000
,
0010
0000
1001
0000
1000
0100
0010
0001
,
0100
0010
0100
0001
0010
0100
1000
0002
,
0000
1000
1000
0000
0000
0100
0103
0000
,
0110
0000
1001
0000
0001
1000
0010
0100
,
0101
0000
1100
0000
1000
0010
0100
0001
,
0010
0100
0010
0001
0100
0010
1000
0002
,
1000
0100
1000
1003
,
0011
0000
1010
0000
0100
1000
0001
0010
,
0110
0000
1001
0000
0010
0100
0001
1000
,
0100
1000
0001
0100
0010
1000
0001
0010
,
0001
0100
0010
1000
0220
0000
0330
0000
,
2002
0000
0000
0000
,
0000
0000
0000
0000
,
0000
0000
0000
0000
,
0000
0000
0000
0000
,
0000
0000
0000
0000
,
0000
0000
0000
0000
,
0000
0000
0000
0000
,
0000
0000
3003
0000
0100
0010
0100
0010
,
0000
1000
0001
1000
0010
0100
0001
0001
,
0000
0010
0001
0100
0010
1000
1000
0000
,
0000
0001
1000
0001
0010
0100
1000
0010
,
0100
0001
1000
0001
0100
0010
0010
0000
,
0000
1000
0001
0010
0001
1000
0100
0100
,
0000
1000
0010
0100
0001
0010
0010
0000
,
0000
0001
1000
0010
1000
0100
0010
0001
,
0100
0010
1000
0001
2002
0000
3003
0000
,
0001
0000
0011
0000
0100
0010
0001
1000
,
0010
0000
0101
0000
1000
0010
0100
0001
,
0010
0001
0100
0010
1000
0001
1000
0200
,
0001
0000
0010
0310
,
0100
0000
1100
0000
1000
0010
0100
0001
,
0010
0000
0110
0000
0100
1000
0001
1000
,
0010
0100
0010
1000
0100
0010
0001
2000
,
0000
0000
0100
3100
,
1000
0000
0001
0000
1000
0001
0010
0100
,
0010
0000
0001
0000
0100
0010
1000
0001
,
0010
0001
0100
0000
0010
0000
1000
0002
,
0000
0003
1001
2002
,
0000
3003
0000
0000
;

//---------------dance-single - ----------------
#NOTEDATA:;
#CHARTNAME:;
#STEPSTYPE:dance-single;
#DESCRIPTION:;
#CHARTSTYLE:;
#DIFFICULTY:Medium;
#METER:8;
#RADARVALUES:0.346844,0.424394,0.125311,0.140975,0.000000,310.000000,294.000000,16.000000,18.000000,0.000000,0.000000,0.000000,0.000000,0.000000,0.346844,0.424394,0.125311,0.140975,0.000000,310.000000,294.000000,16.000000,18.000000,0.000000,0.000000,0.000000,0.000000,0.000000;
#CREDIT:;
#DISPLAYBPM:138.000000;
#NOTES:
0000
0000
0000
0000
,
0000
0000
0000
0000
,
0000
0000
0000
0000
,
0000
0000
0000
0000
,
0010
0000
0100
0000
0001
1000
0001
0000
,
1000
0000
0001
0000
0100
0010
0100
0000
,
0010
0000
0100
0000
1000
0001
1000
0002
,
0000
0000
0100
0103
,
1000
0000
0010
0000
0100
0001
0100
0000
,
0001
0000
0100
0000
0010
1000
0010
0000
,
1000
0000
0010
0000
0100
0001
0100
0001
,
1000
0001
1000
0000
0220
0000
0330
0000
,
1000
0000
0010
0000
1000
0100
1000
0000
,
0001
0000
0100
0000
0001
0010
0001
0000
,
0100
0000
0010
0000
1000
0001
1000
0002
,
0000
0000
0010
0013
,
0001
0000
0100
0000
0001
1000
0001
0000
,
1000
0000
0010
0000
1000
0001
1000
0000
,
0010
0000
1000
0000
0001
0100
0001
0200
,
0000
0000
0010
0310
,
0001
0001
1000
1000
,
0001
0000
0001
0000
1000
0001
1000
0000
,
0001
0001
1000
1000
,
0001
0001
0100
0010
,
1000
1000
0001
0001
,
1000
0000
1000
0000
0001
1000
0001
0000
,
1000
1000
0001
0001
,
0100
0010
0100
0000
0001
1000
0100
0000
,
0010
0000
0100
0000
1000
0001
0100
0000
,
0001
0000
0010
0000
1000
0100
0010
0000
,
0001
0010
0001
0000
1000
0010
1000
0020
,
1000
0130
0110
0110
,
0001
0000
0010
0000
0100
1000
0001
0000
,
1000
0000
0010
0000
1000
0001
0100
0000
,
0001
0100
0001
0000
1000
0100
1000
0100
,
0000
1100
0000
0101
,
1000
0000
0001
0000
1000
0010
0100
0001
,
0010
0000
0100
0000
1000
0010
0100
0001
,
0010
0100
0010
0000
0001
1000
0001
0200
,
0000
0300
0101
0101
,
0001
0000
0010
0000
0001
1000
0010
0100
,
0010
0000
1000
0000
0001
1000
0010
0100
,
0001
1000
0001
0000
1000
0100
1000
0000
,
0010
0100
0010
0000
0220
0000
0330
0000
,
2002
0000
0000
0000
,
0000
0000
0000
0000
,
0000
0000
0000
0000
,
0000
0000
0000
0000
,
0000
0000
0000
0000
,
0000
0000
0000
0000
,
0000
0000
0000
0000
,
0000
3000
0100
0103
,
0000
0001
1000
0000
0010
1000
0100
0010
,
0000
0100
1000
0000
0010
1000
0001
0000
,
0000
0010
0001
0010
0100
0000
1000
0000
,
0001
1000
0001
0000
0100
0010
0100
0000
,
0000
0010
1000
0000
0100
0010
0001
0100
,
0000
0001
1000
0000
0100
0010
0001
0000
,
0000
1000
0010
0100
0001
0000
1000
0000
,
0001
1000
0001
0000
2002
0000
3003
0000
,
0010
0000
0001
0000
1000
0010
0100
0000
,
0001
0000
1000
0000
0100
1000
0010
0000
,
1000
0001
1000
0000
0010
0100
0001
0200
,
0000
0300
1010
1010
,
0001
0000
1000
0000
0100
1000
0010
0000
,
0100
0000
0001
0000
0010
0100
1000
0000
,
0010
1000
0001
0000
0010
0100
1000
0002
,
0000
0003
0011
0011
,
0001
0000
0001
0000
0001
1000
0100
0000
,
1000
0000
1000
0000
1000
0001
0100
0000
,
0010
0000
0100
0000
0001
0010
0100
2000
,
0000
3000
1001
2002
,
0000
3003
0000
0000
;

//---------------dance-single - ----------------
#NOTEDATA:;
#CHARTNAME:;
#STEPSTYPE:dance-single;
#DESCRIPTION:;
#CHARTSTYLE:;
#DIFFICULTY:Easy;
#METER:6;
#RADARVALUES:0.264049,0.365263,0.211463,0.062656,0.000000,236.000000,209.000000,27.000000,8.000000,0.000000,0.000000,0.000000,0.000000,0.000000,0.264049,0.365263,0.211463,0.062656,0.000000,236.000000,209.000000,27.000000,8.000000,0.000000,0.000000,0.000000,0.000000,0.000000;
#CREDIT:;
#DISPLAYBPM:138.000000;
#NOTES:
0000
0000
0000
0000
,
0000
0000
0000
0000
,
0000
0000
0000
0000
,
0000
0000
0000
0000
,
0010
0010
0010
0000
,
0100
0100
0100
0000
,
0001
1000
0001
1000
,
0000
0000
1001
1001
,
0001
0001
0001
0000
,
1000
1000
1000
0000
,
0010
0100
0010
0100
,
0110
1001
0110
0000
,
1000
0001
0010
0100
,
1000
0010
0100
0001
,
1000
0001
0010
0100
,
2000
0000
0001
3001
,
1000
0001
0100
0010
,
0100
0001
0010
1000
,
0001
0100
0010
1000
,
0002
0000
0010
0013
,
0001
1000
0100
0000
,
0001
1000
0100
0100
,
0001
1000
0100
0000
,
0001
1000
0010
0000
,
0001
1000
0100
0000
,
0001
1000
0100
0100
,
0001
1000
0100
0000
,
1001
0110
1001
0100
,
0010
1000
0100
0001
,
1000
0010
0100
0001
,
0010
0100
0001
1000
,
0200
0000
1000
1300
,
0100
1000
0010
0001
,
0100
0010
1000
0001
,
0010
0100
1000
0001
,
0000
0110
0000
1001
,
0001
1000
0010
1001
,
0100
0010
0001
0110
,
0010
1000
0100
0010
,
0002
0003
1001
1001
,
0010
0100
1000
0110
,
0001
1000
0010
1001
,
1000
0001
0100
0010
,
0110
1001
0110
0000
,
2002
0000
0000
0000
,
0000
0000
0000
0000
,
0000
0000
0000
0000
,
0000
0000
0000
0000
,
0000
0000
0000
0000
,
0000
0000
0000
0000
,
0000
0000
0000
0000
,
0000
0000
0000
3003
,
0000
1000
0001
0100
,
0000
0001
0010
0100
,
0000
1000
0010
0010
,
0100
0001
1000
1000
,
0000
0001
1000
0010
,
0000
0100
0010
1000
,
0000
0010
1000
1000
,
1001
0110
1001
0000
,
0010
0100
1000
0010
,
1000
0001
0100
0001
,
0010
0001
0100
1000
,
0020
0030
1001
1001
,
0100
0001
1000
0100
,
0010
0001
0010
1000
,
0001
1000
0010
0100
,
0002
0000
0100
0103
,
0001
0001
0001
0000
,
0100
0100
0100
0000
,
0010
1000
0001
0100
,
0000
0000
1001
1001
;

//---------------dance-single - ----------------
#NOTEDATA:;
#CHARTNAME:;
#STEPSTYPE:dance-single;
#DESCRIPTION:;
#CHARTSTYLE:;
#DIFFICULTY:Beginner;
#METER:3;
#RADARVALUES:0.132024,0.223994,0.054824,0.015664,0.000000,118.000000,111.000000,7.000000,2.000000,0.000000,0.000000,0.000000,0.000000,0.000000,0.132024,0.223994,0.054824,0.015664,0.000000,118.000000,111.000000,7.000000,2.000000,0.000000,0.000000,0.000000,0.000000,0.000000;
#CREDIT:;
#DISPLAYBPM:138.000000;
#NOTES:
// measure 0
0000
0000
0000
0000
,  // measure 1
0000
0000
0000
0000
,  // measure 2
0000
0000
0000
0000
,  // measure 3
0000
0000
0000
0000
,  // measure 4
0010
0000
0000
0000
,  // measure 5
1000
0000
0000
0000
,  // measure 6
0001
0000
0000
0000
,  // measure 7
0100
0000
0000
0000
,  // measure 8
0001
0000
0000
0000
,  // measure 9
0010
0000
0000
0000
,  // measure 10
0100
0000
0000
0000
,  // measure 11
1000
0000
1001
0000
,  // measure 12
0001
0000
0001
0000
,  // measure 13
1000
0000
1000
0000
,  // measure 14
0010
0000
1000
0000
,  // measure 15
0100
0000
0000
0000
,  // measure 16
0010
0000
0010
0000
,  // measure 17
0100
0000
0100
0000
,  // measure 18
1000
0000
0001
0000
,  // measure 19
0100
0000
0000
0000
,  // measure 20
0001
0000
0001
0000
,  // measure 21
1000
0000
1000
0000
,  // measure 22
0010
0000
0010
0000
,  // measure 23
0100
0000
0100
0000
,  // measure 24
0001
0000
0010
0000
,  // measure 25
0100
0000
1000
0000
,  // measure 26
0010
0000
0100
0000
,  // measure 27
0001
0000
1001
0000
,  // measure 28
0100
0000
0100
0000
,  // measure 29
0010
0000
0010
0000
,  // measure 30
1000
0000
0001
0000
,  // measure 31
0010
0000
0000
0000
,  // measure 32
0100
0000
0010
0000
,  // measure 33
0001
0000
1000
0000
,  // measure 34
0010
0000
1000
0000
,  // measure 35
0100
0000
0000
0000
,  // measure 36
1000
1000
1000
0000
,  // measure 37
0001
0001
0001
0000
,  // measure 38
0010
0010
0010
0000
,  // measure 39
0100
0000
0110
0000
,  // measure 40
0010
0010
0010
0000
,  // measure 41
0100
0100
0100
0000
,  // measure 42
0001
0001
0001
0000
,  // measure 43
1000
0000
0110
0000
,  // measure 44
2002
0000
0000
0000
,  // measure 45
0000
0000
0000
0000
,  // measure 46
0000
0000
0000
0000
,  // measure 47
0000
0000
0000
3003
,  // measure 48
0000
0000
0000
0000
,  // measure 49
0000
0000
0000
0000
,  // measure 50
0000
0000
0000
0000
,  // measure 51
0000
0000
0000
0000
,  // measure 52
1000
0000
0001
0000
,  // measure 53
1000
0000
0001
0000
,  // measure 54
0100
0000
0010
0000
,  // measure 55
0100
0000
0010
0000
,  // measure 56
1000
0000
0100
0000
,  // measure 57
1000
0000
0100
0000
,  // measure 58
0010
0000
0001
0000
,  // measure 59
0010
0000
0110
0000
,  // measure 60
0100
0000
1000
0000
,  // measure 61
0010
0000
1000
0000
,  // measure 62
0001
0000
1000
0000
,  // measure 63
0100
0000
0000
0000
,  // measure 64
0010
0000
0100
0000
,  // measure 65
1000
0000
0010
0000
,  // measure 66
1000
0000
0100
0000
,  // measure 67
0001
0000
0000
0000
,  // measure 68
1000
0000
0000
0000
,  // measure 69
0100
0000
0000
0000
,  // measure 70
0010
0000
0000
0000
,  // measure 71
0001
0000
1001
0000
;
