#VERSION:0.83;
#TITLE:Asteroid's Dream;
#SUBTITLE:;
#ARTIST:brz1128;
#TITLETRANSLIT:;
#SUBTITLETRANSLIT:;
#ARTISTTRANSLIT:;
#GENRE:;
#ORIGIN:;
#CREDIT:;
#BANNER:Asteroid's Dream-bn.png;
#BACKGROUND:Asteroid's Dream-bg.png;
#PREVIEWVID:;
#JACKET:Asteroid's Dream-jacket.png;
#CDIMAGE:;
#DISCIMAGE:;
#LYRICSPATH:;
#CDTITLE:;
#MUSIC:Asteroid's Dream.ogg;
#OFFSET:1.100000;
#SAMPLESTART:86.671402;
#SAMPLELENGTH:20.000000;
#SELECTABLE:YES;
#DISPLAYBPM:175.000000;
#BPMS:0.000=175.000;
#STOPS:;
#DELAYS:;
#WARPS:;
#TIMESIGNATURES:0.000=4=4;
#TICKCOUNTS:0.000=4;
#COMBOS:0.000=1;
#SPEEDS:0.000=1.000=0.000=0;
#SCROLLS:0.000=1.000;
#FAKES:;
#LABELS:0.000=Song Start;
#BGCHANGES:;
#KEYSOUNDS:;
#ATTACKS:
;

//---------------dance-single - ----------------
#NOTEDATA:;
#CHARTNAME:;
#STEPSTYPE:dance-single;
#DESCRIPTION:;
#CHARTSTYLE:;
#DIFFICULTY:Hard;
#METER:15;
#RADARVALUES:0.755236,0.951125,0.513560,0.317199,0.490903,700.000000,632.000000,68.000000,42.000000,0.000000,0.000000,0.000000,0.000000,0.000000,0.755236,0.951125,0.513560,0.317199,0.490903,700.000000,632.000000,68.000000,42.000000,0.000000,0.000000,0.000000,0.000000,0.000000;
#CREDIT:;
#DISPLAYBPM:175.000000;
#NOTES:
0000
0000
0000
0000
,
0000
0000
0000
0000
,
0000
0000
0000
0000
,
0000
0000
0000
0000
,
0000
0000
0000
0000
,
0000
0000
0000
0000
,
0000
0000
0000
0000
,
0000
0000
0000
0000
,
0000
0020
0000
2030
0000
3001
1000
0100
,
0010
0000
0000
0010
0001
0000
0000
0001
0100
0000
0000
0100
0010
0000
0000
0010
,
1000
0000
0000
1000
0100
0000
0000
0100
0010
0000
0000
0010
0001
0000
0000
0001
,
1000
0000
0000
1000
0010
0000
0000
0010
0100
0000
0000
0100
0010
0000
0000
0010
,
1000
0000
0000
1000
0001
0000
0000
0001
0010
0000
0000
0010
0001
0000
0000
0001
,
0100
0000
0000
0001
0010
0000
0100
0000
1000
0000
0000
0010
1000
0000
0001
0000
,
0010
0000
0000
0001
0100
0000
0010
0000
1000
0000
0000
0100
0010
0000
0100
0000
,
1000
0000
0010
0100
0010
0000
0100
0010
0100
0000
0001
1000
0001
0000
1000
0001
,
1000
0100
1000
0100
1000
0100
1000
0100
1000
0000
0010
0000
0110
0000
0000
0000
,
1001
0000
0010
1000
0000
0001
0010
0200
,
0000
2300
0000
3010
1000
0100
0010
0001
,
0100
0001
1000
0100
0000
0010
0000
0012
,
0000
0000
1003
0001
1000
0000
0020
0000
0000
0000
0100
0000
0130
0000
0001
0000
,
0011
0000
0000
0110
0000
0000
1100
0000
,
0000
0000
1000
0100
1000
0000
0001
0100
0001
0000
0010
0000
0010
0000
0100
0000
,
1100
0000
0000
1001
0000
0000
0101
0000
,
0000
0000
0001
0010
0001
0000
1000
0010
1000
0000
0100
0000
0100
0000
0100
0000
,
0110
0000
0001
1000
0000
0010
0100
0002
,
0000
0023
0000
0031
1000
0010
1000
0100
,
0010
0001
1000
0010
0000
0100
0000
1020
,
0000
0000
0130
0010
0100
0000
0002
0000
0000
0000
1000
0000
1003
0000
0010
0000
,
1010
0000
0000
0110
0000
0000
0101
0000
,
0000
1000
1000
1000
1000
1000
1000
1000
,
1010
0000
0000
1001
0000
0000
0011
0000
,
0000
0000
0001
0000
0001
0000
0001
0000
0010
0000
0010
0000
0001
0100
0010
1000
,
0001
0000
0010
0001
0000
0001
0100
0000
0010
1000
0000
1000
0100
0000
0010
0000
,
0011
0000
0000
0101
0000
0000
0110
0000
0000
1010
0000
0000
1100
0000
1001
0000
,
0010
0000
1000
0100
0000
0100
0010
0000
0001
0100
0000
0100
0001
0000
1000
0000
,
1100
0000
0000
1010
0000
0000
0101
0000
0011
0000
0000
0000
0001
1000
0001
1000
,
0001
0000
0100
0010
0000
0010
1000
0000
0100
0010
0000
0010
0001
0000
1000
0000
,
1010
0000
0000
1100
0000
0000
0110
0000
0000
0011
0000
0000
0101
0000
1001
0000
,
1000
0000
0001
0010
0000
0010
0100
0000
1000
0010
0000
0010
0100
0000
0001
0000
,
0011
0000
0000
1100
0000
0000
1010
0000
0101
0000
0000
0000
0100
0010
0100
0010
,
2000
0000
0000
3002
0000
0000
0023
0000
0000
0000
0031
0000
0100
0000
0010
0000
,
1000
0000
0000
0000
0002
0000
0000
0000
2003
0000
0000
0010
0000
0000
3100
0000
,
2000
0000
0000
3020
0000
0000
0230
0000
0000
0000
0301
0000
0010
0000
0001
0000
,
0100
0000
0000
0000
0020
0000
0000
0000
2030
0000
0000
0001
0000
0000
3100
0000
,
1000
0000
0000
0010
0000
0000
0100
0000
0000
0001
0000
0000
0010
0000
0100
0000
,
0010
0000
0000
0001
0000
0000
0100
0000
0000
0010
0000
0000
1000
0000
0100
0000
,
1000
0000
0010
0000
0100
0000
0001
0000
0010
0001
0010
0001
1000
0100
1000
0100
,
0010
0000
1001
0000
0100
0100
0100
0000
,
0001
0010
0100
1000
0010
1000
0100
0010
,
0001
0100
0001
0010
0001
0100
0010
1000
,
0100
0010
0100
1000
0010
0001
0010
1000
,
0010
0100
0010
0001
0010
0100
0001
0010
,
1000
0010
0100
0010
0001
0100
0010
1000
,
0100
0001
0100
1000
0010
0100
0001
0010
,
0100
0010
0001
0100
0010
1000
0001
0010
,
0001
0100
0010
1000
0100
0010
0100
1000
,
0010
1000
0001
0010
0001
0100
0010
1000
,
0100
0010
0001
0100
0010
1000
1001
0000
,
0010
1000
0100
0010
0001
0100
0001
1000
,
0010
1000
0001
0010
0100
1000
1010
0000
,
0001
0100
0101
0000
0001
0010
0110
0000
,
0100
1000
1100
0000
1000
0001
0011
0000
,
0010
0000
0001
0100
0001
0000
1000
0100
1000
0000
0001
0010
0001
0000
1000
0010
,
1000
0000
0000
0000
1001
0000
0000
0000
0100
0000
0100
0000
0100
0010
1000
0001
,
0010
0000
0001
0100
0000
0001
0100
0000
0010
1000
0000
1000
0100
0000
0010
0000
,
0001
0000
0100
0010
0000
0100
0010
0000
1000
0001
0000
1000
0001
0000
0010
0000
,
0100
0000
1000
0010
0000
0100
0010
0000
1000
0001
0000
0001
0010
0000
0100
0000
,
1000
0010
0000
0100
0001
0000
0010
0000
0011
0000
0000
0000
1000
0010
0100
0001
,
0010
0000
0100
1000
0000
1000
0010
0000
1000
0001
0000
0001
0100
0000
0010
0000
,
0100
0000
0001
0010
0000
0100
1000
0000
0001
0100
0000
0010
1000
0000
0001
0000
,
0010
0000
0100
1000
0000
0010
0100
0000
0001
1000
0000
0001
1000
0000
0100
0000
,
1000
0001
0000
0100
0010
0000
1000
0000
1100
0000
0000
0000
1000
0001
0010
0100
,
0020
0000
0000
0032
0000
0000
2003
0000
0000
0000
3010
0000
0100
0000
0001
0000
,
1000
0000
0000
0000
1010
0000
0000
0000
0101
0000
1000
0100
0000
1000
0100
0000
,
0020
0000
0000
0230
0000
0000
2300
0000
0000
0000
3010
0000
1000
0000
0001
0000
,
0010
0000
0000
0000
0011
0000
0000
0000
1100
0000
0001
0100
0000
0001
0100
0000
,
0002
0000
0000
0023
0000
0000
0230
0000
0000
2300
0000
0000
3010
0000
0100
0000
,
0020
0000
0000
2030
0000
0000
3002
0000
0000
0203
0000
0000
0301
0000
1000
0000
,
0010
0000
1000
0100
1000
0000
0001
0100
0001
0000
1000
0010
1000
0000
0001
0010
,
0001
0000
0110
0000
1000
1000
1000
0000
,
0001
0010
0100
1000
0010
0100
0001
0000
,
0000
0000
0101
1100
,
1000
0010
0100
0001
0010
0100
1000
0000
,
0000
0002
0000
0023
0000
0130
1000
0001
,
0100
0010
1000
0001
0010
0100
1000
0000
,
0000
0000
0011
1010
,
0010
1000
0001
0010
0100
1000
0001
0000
,
0000
0200
0000
0320
0000
1030
0001
0010
,
0011
0000
0000
0101
0000
0000
1001
0000
,
1000
0000
0010
0100
0000
0100
0001
0000
,
1100
0000
0000
1010
0000
0000
1001
0000
,
0000
0000
0002
0000
0000
0000
0023
0000
0000
0000
0031
0100
0010
0000
1000
0000
,
1010
0000
0000
0101
0000
0000
0110
0000
,
0000
0000
1000
0001
1000
0000
0001
1000
0001
0000
0010
0000
0010
0000
0100
0000
,
1100
0000
0000
0110
0000
0000
0011
0000
,
0000
0000
0002
0000
0000
0000
2003
0000
0000
0000
3010
1000
0100
0000
0001
0000
;

//---------------dance-single - ----------------
#NOTEDATA:;
#CHARTNAME:;
#STEPSTYPE:dance-single;
#DESCRIPTION:;
#CHARTSTYLE:;
#DIFFICULTY:Medium;
#METER:12;
#RADARVALUES:0.561032,0.621889,0.407827,0.377618,0.143495,520.000000,466.000000,54.000000,50.000000,0.000000,0.000000,0.000000,0.000000,0.000000,0.561032,0.621889,0.407827,0.377618,0.143495,520.000000,466.000000,54.000000,50.000000,0.000000,0.000000,0.000000,0.000000,0.000000;
#CREDIT:;
#DISPLAYBPM:175.000000;
#NOTES:
0000
0000
0000
0000
,
0000
0000
0000
0000
,
0000
0000
0000
0000
,
0000
0000
0000
0000
,
0000
0000
0000
0000
,
0000
0000
0000
0000
,
0000
0000
0000
0000
,
0000
0000
0000
0000
,
0000
0010
0000
0010
0000
0010
1000
0001
,
0010
0001
0100
0010
1000
0001
1000
0000
,
0100
1000
0001
0000
0101
0000
1100
0000
,
0001
1000
0010
0100
0001
0010
0100
0000
,
0000
0011
0000
1010
0000
0001
1000
0010
,
0100
0010
1000
0100
1000
0001
0010
0000
,
0001
1000
0010
0000
0110
0000
1001
0000
,
1000
0001
0010
0100
1000
0010
0100
0001
,
1000
0100
1000
0100
1000
0000
1001
0000
,
0110
0000
0010
1000
0000
0001
0010
0200
,
0000
2300
0000
3010
1000
0100
1000
0001
,
0100
0000
0010
2000
0000
3002
0000
0023
,
0000
0031
0100
0001
0000
1000
0010
0100
,
0002
0000
0000
2003
0000
0000
3200
0000
,
0000
1300
0002
0000
0100
0100
0103
0000
,
0020
0000
0000
2030
0000
0000
3002
0000
,
0000
0000
0000
0000
0000
0010
0010
0013
,
0011
0000
0001
1000
0000
0010
1000
0200
,
0000
0320
0000
0031
0010
0100
1000
0001
,
1000
0000
0100
2000
0000
3020
0000
0230
,
0000
0301
1000
0001
0000
0010
0100
0010
,
0002
0000
0000
0203
0000
0000
0320
0000
,
0000
1030
0001
1000
0001
1000
0001
1000
,
0200
0000
0000
2300
0000
0000
3002
0000
,
0000
0103
0010
0100
0020
0000
1030
0001
,
0010
0000
0000
0001
0000
0000
0100
0000
0000
0010
0000
0000
1000
0000
0001
0000
,
1000
0000
0000
0100
0000
0000
0010
0000
0000
0001
0000
0000
0100
0000
0010
0000
,
0100
0000
0000
0001
0000
0000
0010
0000
0000
0100
0000
0000
1000
0000
0010
0000
,
0100
0000
0000
0010
0000
0000
1000
0000
0001
0000
0000
0000
1100
0000
0000
0000
,
0010
0000
0000
1000
0000
0000
0001
0000
0000
0100
0000
0000
0010
0000
0100
0000
,
0001
0000
0000
0010
0000
0000
0100
0000
0000
1000
0000
0000
0001
0000
0100
0000
,
0001
0000
0000
0010
0000
0000
0001
0000
0000
1000
0000
0000
0100
0000
0010
0000
,
0100
0000
0000
1000
0000
0000
0001
0000
0010
0000
0000
0000
0001
0000
1000
0000
,
0010
0000
0000
1000
0000
0000
0001
0000
0000
0000
0100
0000
0010
0000
0100
0000
,
0002
1000
0100
1003
,
0001
0000
0000
1000
0000
0000
0010
0000
0000
0000
0100
0000
0010
0000
0100
0000
,
0002
1000
0010
1003
,
0101
0000
0000
0001
0000
0000
1000
0000
0000
0000
0010
0000
0100
0000
0000
0000
,
1010
0000
0000
1000
0000
0000
0100
0000
0000
0000
0010
0000
0001
0000
0000
0000
,
0100
0010
0100
0010
1000
0001
1000
0001
,
0011
0000
1100
0000
0100
0100
0100
0000
,
1001
0000
0001
0100
0001
0000
1000
0100
,
1000
0000
0010
0100
0000
0100
0001
0010
,
0002
0000
1003
2010
0000
3001
0201
0000
,
0310
0000
0120
0000
1030
0010
1000
0001
,
0010
0000
0001
1000
0100
0000
1000
0001
,
0100
0000
0010
1000
0000
1000
0001
0100
,
0020
0000
1030
2100
0000
3001
0201
0000
,
0310
0000
1002
0000
0103
0001
1000
0000
,
0001
0100
1000
0100
0001
0000
1010
0000
,
0001
0010
1000
0010
0001
0000
0110
0000
,
1000
0100
0001
0100
1000
0000
0011
0000
,
1000
0010
0001
0010
1000
0000
1001
0000
,
0010
1100
0100
0011
,
1000
0101
0001
1010
,
1000
0100
1000
0100
0010
0001
0010
0001
,
0100
0000
0110
0000
0001
0001
0001
0000
,
1000
0000
0000
0010
0000
0000
0100
0000
0000
0001
0000
0000
1000
0000
0100
0000
,
0010
0000
0000
0100
0000
0000
0010
0000
0000
0001
0000
0000
1000
0000
0100
0000
,
1000
0000
0000
0010
0000
0000
1000
0000
0000
0100
0000
0000
0010
0000
0001
0000
,
0100
0000
0000
0010
0000
0000
1000
0000
0001
0000
0000
0000
0010
0000
0001
0000
,
0100
0000
0000
0010
0000
0000
1000
0000
0000
0100
0000
0000
1000
0000
0001
0000
,
0010
0000
0000
0001
0000
0000
1000
0000
0000
0100
0000
0000
0010
0000
0100
0000
,
1000
0000
0000
0010
0000
0000
0100
0000
0000
0010
0000
0000
0100
0000
0001
0000
,
1000
0000
0000
0100
0000
0000
0010
0000
0001
0000
0000
0000
1000
0000
0001
0000
,
0010
0000
0000
0001
0000
0000
0100
0000
0000
0000
0001
0000
0010
0000
0100
0000
,
2000
0000
0010
0000
0100
0000
3001
1000
,
0010
0000
0000
1000
0000
0000
0100
0000
0000
0000
1000
0000
0100
0000
0010
0000
,
0002
0000
0010
0000
1000
0000
0103
0010
,
0100
0000
0000
0010
0000
0000
1000
0000
0000
0001
0000
0000
1000
0000
0100
0000
,
0010
0000
0000
0100
0000
0000
1000
0000
0000
0010
0000
0000
1000
0000
0001
0000
,
0010
0001
0010
0001
1000
0100
1000
0100
,
1100
0000
0101
0000
0010
0010
0010
0000
,
1001
0000
0000
0011
0000
0000
2020
0000
,
0000
0030
0100
3100
,
0110
0000
0000
0011
0000
0000
0101
0000
,
0000
2000
0000
3002
0000
0103
0001
1000
,
1100
0000
0000
1010
0000
0000
2002
0000
,
0000
3000
0010
0013
,
0110
0000
0000
1100
0000
0000
1010
0000
,
0000
0002
0000
2003
0000
3100
0010
0001
,
1001
0000
0000
0110
0000
0000
0101
0000
,
0001
0010
0100
1000
,
0011
0000
0000
1001
0000
0000
0110
0000
,
0000
0020
0000
0230
0000
0310
1000
0001
,
0101
0000
0000
1100
0000
0000
0011
0000
,
0000
1000
1020
0000
0100
0100
0130
0000
,
0002
0000
0000
2003
0000
0000
3002
0000
,
0000
0100
0000
0100
0000
0103
0001
1000
;

//---------------dance-single - ----------------
#NOTEDATA:;
#CHARTNAME:;
#STEPSTYPE:dance-single;
#DESCRIPTION:;
#CHARTSTYLE:;
#DIFFICULTY:Easy;
#METER:8;
#RADARVALUES:0.322594,0.402399,0.060419,0.120838,0.000000,299.000000,291.000000,8.000000,16.000000,0.000000,0.000000,0.000000,0.000000,0.000000,0.322594,0.402399,0.060419,0.120838,0.000000,299.000000,291.000000,8.000000,16.000000,0.000000,0.000000,0.000000,0.000000,0.000000;
#CREDIT:;
#DISPLAYBPM:175.000000;
#NOTES:
0000
0000
0000
0000
,
0000
0000
0000
0000
,
0000
0000
0000
0000
,
0000
0000
0000
0000
,
0000
0000
0000
0000
,
0000
0000
0000
0000
,
0000
0000
0000
0000
,
0000
0000
0000
0000
,
0000
0000
0000
0000
,
0010
0001
0010
0001
,
1000
0100
1000
0100
,
1000
0010
1000
0010
,
0100
0001
0100
0001
,
1000
0001
1000
0001
,
0100
0010
0100
0010
,
1000
0100
0010
0001
,
0100
0100
0100
0000
,
0001
0100
1000
0100
,
0001
0001
1000
0010
,
1000
0100
0010
0001
,
0100
0100
0010
1000
,
0100
0000
0000
0100
0000
0000
0200
0000
,
0000
0000
0000
0300
,
0010
0000
0000
0010
0000
0000
0020
0000
,
0000
0000
0000
0030
0000
0001
1000
0001
,
1000
0010
0001
0010
,
1000
1000
0100
0010
,
0001
0100
0010
1000
,
0100
0010
0100
1000
,
0001
0000
0000
0001
0000
0000
0002
0000
,
0000
0100
0100
0103
,
1000
0000
0000
1000
0000
0000
2000
0000
,
0000
0100
0100
3100
,
1000
1000
1000
1000
,
0001
0010
0100
1000
,
0001
0001
0001
0001
,
0100
0010
1000
0000
,
0100
0100
0100
0100
,
0001
0010
0100
1000
,
0010
0010
0010
0010
,
1000
0001
0100
0000
,
0001
1000
0010
0100
,
0002
0000
0000
0003
,
0010
0100
1000
0100
,
0020
0000
0000
0030
,
0001
0100
1000
1001
,
1000
0100
0001
1001
,
0010
0010
0010
0010
,
2002
0000
0000
3003
,
1000
0010
1000
0001
,
0010
0100
1000
0010
,
0100
0001
1000
0001
,
0010
0001
0100
0001
,
0010
0100
1000
0100
,
1000
0010
1000
0001
,
0010
0001
1000
0100
,
1000
0010
0100
0001
,
0010
0100
0010
0001
,
0100
0010
1000
0001
,
1000
0100
0010
0001
,
0100
0010
1000
0001
,
1000
0001
0100
0110
,
0001
1000
0100
0110
,
1000
1000
1000
1000
,
0220
0000
0000
0330
,
0001
1000
0010
0100
,
0001
0010
0100
1000
,
0010
1000
0100
0010
,
0001
0001
0001
0000
,
0010
0001
0100
0010
,
1000
0100
1000
0001
,
1000
0010
0100
0001
,
1000
1000
1000
0000
,
0001
0010
0001
0100
,
0020
1000
1000
1030
,
0100
1000
0001
1000
,
0200
0010
0010
0310
,
0100
1000
0001
0101
,
0010
0100
1000
1100
,
0001
1000
0001
1000
,
0010
0010
0010
0010
,
1000
0000
0000
1000
0000
0000
2000
0000
,
0000
0000
0001
3001
,
0100
0000
0000
0100
0000
0000
0200
0000
,
0000
0000
0000
0300
,
0001
0000
0000
0001
0000
0000
0002
0000
,
0000
0000
1000
1003
,
0010
0000
0000
0010
0000
0000
0020
0000
,
0000
0000
0000
0030
,
1000
0000
0000
0100
0000
0000
0001
0000
,
0000
0000
0000
0000
,
0100
0000
0000
0010
0000
0000
1000
0000
,
0000
0000
0000
0000
,
0010
0000
0000
1000
0000
0000
0001
0000
,
0000
0000
0000
0000
,
0010
0000
0000
0001
0000
0000
0100
0000
,
0000
0000
0000
0000
0000
0001
1000
0001
;

//---------------dance-single - ----------------
#NOTEDATA:;
#CHARTNAME:;
#STEPSTYPE:dance-single;
#DESCRIPTION:;
#CHARTSTYLE:;
#DIFFICULTY:Beginner;
#METER:5;
#RADARVALUES:0.203914,0.328811,0.105733,0.052866,0.000000,189.000000,175.000000,14.000000,7.000000,0.000000,0.000000,0.000000,0.000000,0.000000,0.203914,0.328811,0.105733,0.052866,0.000000,189.000000,175.000000,14.000000,7.000000,0.000000,0.000000,0.000000,0.000000,0.000000;
#CREDIT:;
#DISPLAYBPM:175.000000;
#NOTES:
// measure 0
0000
0000
0000
0000
,  // measure 1
0000
0000
0000
0000
,  // measure 2
0000
0000
0000
0000
,  // measure 3
0000
0000
0000
0000
,  // measure 4
0000
0000
0000
0000
,  // measure 5
0000
0000
0000
0000
,  // measure 6
0000
0000
0000
0000
,  // measure 7
0000
0000
0000
0000
,  // measure 8
0000
0000
0000
0000
,  // measure 9
0010
0000
0000
0010
0000
0000
0010
0000
,  // measure 10
0000
0000
1000
1000
,  // measure 11
0001
0000
0000
0001
0000
0000
0001
0000
,  // measure 12
0000
0000
0000
0000
,  // measure 13
0100
0000
0000
0100
0000
0000
0100
0000
,  // measure 14
0000
0000
0010
0010
,  // measure 15
2000
0000
0000
3000
,  // measure 16
0002
0000
0000
0003
,  // measure 17
0010
0000
0001
0000
,  // measure 18
1000
0000
0100
0100
,  // measure 19
1000
0000
0010
0000
,  // measure 20
0100
0000
0001
1000
,  // measure 21
0001
0000
0000
0001
0000
0000
0001
0000
,  // measure 22
0000
0000
0000
0000
,  // measure 23
1000
0000
0000
1000
0000
0000
1000
0000
,  // measure 24
0000
0000
0000
0000
,  // measure 25
0100
0000
0010
0000
,  // measure 26
0001
0000
1000
1000
,  // measure 27
0010
0000
1000
0000
,  // measure 28
0100
0000
0010
0001
,  // measure 29
0100
0000
0000
0100
0000
0000
0100
0000
,  // measure 30
0000
0000
0000
0000
,  // measure 31
0010
0000
0000
0010
0000
0000
0010
0000
,  // measure 32
0000
0000
0000
0000
,  // measure 33
1001
0000
0000
0000
,  // measure 34
0001
0001
0001
0000
,  // measure 35
1001
0000
0000
0000
,  // measure 36
1000
1000
1000
0000
,  // measure 37
0110
0000
0000
0000
,  // measure 38
0010
0010
0010
0000
,  // measure 39
0110
0000
0000
0000
,  // measure 40
0100
0100
0100
0000
,  // measure 41
0001
0001
0001
0001
,  // measure 42
0001
0000
0000
0000
,  // measure 43
0100
0100
0100
0100
,  // measure 44
0100
0000
0000
0000
,  // measure 45
0010
0000
0010
0000
,  // measure 46
1000
0000
1000
0000
,  // measure 47
0002
0000
0000
0003
,  // measure 48
2000
0000
0000
3000
,  // measure 49
0010
0000
0010
0000
,  // measure 50
0100
0000
0100
0000
,  // measure 51
0001
0000
0001
0000
,  // measure 52
1000
0000
1000
0000
,  // measure 53
0100
0000
0010
0000
,  // measure 54
0001
0000
0100
0000
,  // measure 55
0001
0000
1000
0000
,  // measure 56
0010
0000
1000
0000
,  // measure 57
0001
0000
0001
0000
,  // measure 58
0010
0000
0010
0000
,  // measure 59
0100
0000
0100
0000
,  // measure 60
1000
0000
1000
0000
,  // measure 61
0010
0000
1000
0000
,  // measure 62
0001
0000
0010
0000
,  // measure 63
0001
0000
0100
0000
,  // measure 64
2000
0000
0000
3000
,  // measure 65
1001
0000
0110
0000
,  // measure 66
1000
1000
1000
0000
,  // measure 67
1001
0000
0110
0000
,  // measure 68
0010
0010
0010
0000
,  // measure 69
0110
0000
1001
0000
,  // measure 70
0100
0100
0100
0000
,  // measure 71
0110
0000
1001
0000
,  // measure 72
0001
0001
0001
0000
,  // measure 73
1000
1000
1000
1000
,  // measure 74
1000
0000
0000
0000
,  // measure 75
0010
0010
0010
0010
,  // measure 76
0010
0000
0000
0000
,  // measure 77
1000
1000
1000
0000
,  // measure 78
0100
0100
0100
0000
,  // measure 79
0020
0000
0000
0030
,  // measure 80
0002
0000
0000
0003
,  // measure 81
1000
0000
0000
1000
0000
0000
1000
0000
,  // measure 82
0000
0000
1001
0000
,  // measure 83
0001
0000
0000
0001
0000
0000
0001
0000
,  // measure 84
0000
0000
0000
0000
,  // measure 85
0100
0000
0000
0100
0000
0000
0100
0000
,  // measure 86
0000
0000
0110
0000
,  // measure 87
0010
0000
0000
0010
0000
0000
0010
0000
,  // measure 88
0000
0000
0000
0000
,  // measure 89
1000
0000
0000
1000
0000
0000
1000
0000
,  // measure 90
0000
0000
0000
0000
,  // measure 91
0100
0000
0000
0100
0000
0000
0100
0000
,  // measure 92
0000
0000
0000
0000
,  // measure 93
0010
0000
0000
0010
0000
0000
0010
0000
,  // measure 94
0000
0000
0000
0000
,  // measure 95
0001
0000
0000
0001
0000
0000
0001
0000
,  // measure 96
0000
0000
0000
1000
;
