#TITLE:Ascalon;
#SUBTITLE:(GB mix);
#ARTIST:DJ Dvorak;
#TITLETRANSLIT:;
#SUBTITLETRANSLIT:;
#ARTISTTRANSLIT:;
#GENRE:;
#CREDIT:;
#BANNER:Ascalon (GB mix)-bn.png;
#BACKGROUND:Ascalon (GB mix)-bg.png;
#LYRICSPATH:;
#CDTITLE:;
#MUSIC:Ascalon (GB mix).ogg;
#OFFSET:-0.500000;
#SAMPLESTART:26.118000;
#SAMPLELENGTH:20.000000;
#SELECTABLE:YES;
#DISPLAYBPM:178.000000;
#BPMS:0.000000=178.000000
;
#STOPS:298.500000=0.337000,
305.500000=0.337000,
308.500000=0.337000,
311.500000=0.337000
;
#BGCHANGES:;
#KEYSOUNDS:;
#ATTACKS:;

//---------------dance-single - ----------------
#NOTES:
     dance-single:
     :
     Hard:
     12:
     0.627742,0.749543,0.543103,0.320924,0.082288,534.000000,468.000000,66.000000,39.000000,0.000000,0.000000,0.627742,0.749543,0.543103,0.320924,0.082288,534.000000,468.000000,66.000000,39.000000,0.000000,0.000000:
0000
0000
0000
0000
,
0000
0000
0000
0000
,
0000
0000
0000
0000
,
0000
0000
0000
0000
,
1010
0000
0000
0101
0000
0000
0000
1100
,
0000
0000
1001
1001
,
0110
0000
0000
0101
0000
1100
0000
0101
,
1001
0000
0000
0000
0010
0000
0100
0001
0100
0001
0100
0000
0010
0000
1000
0001
,
1000
0010
0100
0001
0000
0010
0001
0100
,
0000
0010
1000
0100
0000
0011
0000
1001
,
1100
0010
0100
1000
0000
0001
0010
0200
,
0000
0000
0000
0300
,
0100
0010
0001
1000
0000
0001
0010
0100
,
0000
1000
0010
1000
0000
1100
0000
0011
,
0101
0010
0100
0010
0100
0010
0100
0010
,
1000
0001
1000
0001
1000
0001
1000
0001
,
0010
0001
1000
0100
0010
0100
1000
0001
,
1000
1000
0100
0100
0010
0010
0001
0001
,
2002
0000
0000
0000
0003
0000
0000
0000
3020
0000
0000
0230
0000
0000
0320
0000
,
1030
0010
0100
0002
0000
0100
0203
0000
,
0301
0010
0100
1000
0000
0110
0000
0010
,
0100
0001
1000
0200
0000
0010
0010
0000
,
0320
0000
0000
0000
,
0031
0010
0001
2000
0000
0100
3200
0000
,
1300
0010
0100
0001
0000
1100
0000
0010
,
1000
0001
1000
0001
1000
0000
0010
0000
0100
0000
0001
0000
1000
0000
0200
0000
,
0000
0000
1300
0010
0001
0010
1000
0100
,
1000
0201
0000
0310
0100
0001
0000
1000
,
2100
0000
3010
0110
0000
1001
0000
0001
,
1000
0012
0000
1003
0001
0100
0000
0010
,
2010
0000
3100
1100
0000
0101
0000
0010
,
1000
0120
0000
1030
0100
0010
0000
0001
,
0021
0000
0031
1001
0000
1100
0000
0001
,
1000
0100
0010
0011
0000
1100
0000
1002
,
0000
0000
0013
0001
0100
0010
1000
0001
,
1000
0000
0000
1000
0000
0000
1000
0000
,
0001
0000
0000
0001
0100
0100
0010
0010
,
1000
0000
0000
1000
0000
0000
1000
0000
,
0001
0000
0000
0001
0100
0100
0010
0010
,
1000
0100
0000
0000
1100
0000
0000
0000
0001
0100
0000
0000
0101
0000
0000
0000
,
1000
0010
0000
0000
1010
0000
0000
0000
0001
0010
0000
0000
0011
0000
0000
0000
,
1000
0100
0000
0000
0001
0100
0000
0000
1000
0010
0000
0000
0001
0010
0000
0000
,
1000
0001
1000
0000
0010
0000
0100
0000
0001
0000
0001
0000
0010
0000
0100
0000
,
1000
0100
0001
0100
1000
0000
0001
0100
,
1000
0100
0001
0000
0100
0010
0100
0010
,
1000
0010
0001
0010
1000
0000
0001
0010
,
1000
0010
0001
0000
0100
0010
0100
0010
,
1000
0001
0100
0001
1000
0000
0001
1000
,
0010
1000
0001
0000
0100
0010
0100
0010
,
2000
3000
0020
0030
,
0002
0003
0200
0300
,
1000
0000
0000
0000
,
0000
0000
0000
0000
,
0000
0000
0000
0000
,
0000
0000
0000
0000
,
1001
0000
0000
0101
0000
0000
0000
1100
,
0000
0000
0011
0011
,
1100
0000
0000
0011
0000
1010
0000
1001
,
0110
0000
0000
0000
0001
0000
1000
0100
1000
0100
1000
0000
0010
0000
0100
0001
,
0100
0010
1000
0002
0000
1000
2003
0000
,
3001
0010
0100
1000
0000
0101
0000
1000
,
0010
1000
0100
0010
0000
0001
0002
0000
,
2000
0000
0000
3003
,
0010
1000
0001
0020
0000
0100
0230
0000
,
0310
0001
1000
0001
0000
1100
0000
0010
,
1000
0001
1000
0001
1000
0000
0010
0000
1000
0000
0100
0000
0010
0000
0002
0000
,
0000
0000
0103
0001
1000
0100
1000
0001
,
0010
1002
0000
0103
0010
1000
0000
0001
,
0201
0000
0310
1010
0000
0101
0000
1000
,
0010
2100
0000
3001
1000
0100
0000
0010
,
2001
0000
3100
0011
0000
1010
0000
0001
,
0010
0102
0000
0013
0001
0100
0000
1000
,
1020
0000
0130
0110
0000
1001
0000
0001
,
1000
0100
0010
0100
0001
0100
1000
0100
,
1000
0100
0010
0001
0100
0100
0001
0010
,
0100
0010
1000
0010
0100
0010
0001
1000
,
0010
0100
0001
0001
1000
0001
1000
0001
,
0100
0100
0001
1000
0001
1000
0010
0010
,
1000
0100
0010
0100
0000
0100
0001
0100
,
0000
0100
1000
0100
0000
0100
0010
0100
,
0000
0100
0001
0100
0000
0100
1000
0100
,
0000
0100
0010
0100
0000
0100
1000
0100
,
1000
0001
1000
0001
1000
0001
1000
0001
,
0100
0010
0100
0010
0100
0010
0100
0010
,
1000
0001
1000
0001
0100
0010
0100
0010
,
1000
0001
0100
0010
1100
1100
1100
2200
,
0000
0000
0000
3300
;

//---------------dance-single - ----------------
#NOTES:
     dance-single:
     :
     Challenge:
     16:
     0.931033,1.142161,1.020375,0.650077,0.419670,792.000000,668.000000,124.000000,79.000000,0.000000,0.000000,0.931033,1.142161,1.020375,0.650077,0.419670,792.000000,668.000000,124.000000,79.000000,0.000000,0.000000:
0000
0000
0000
0000
,
0000
0000
0000
0000
,
0000
0000
0000
0000
,
0000
0000
0000
0000
,
1001
0100
0010
0011
0000
0001
1000
1100
,
0000
0000
0010
0100
0110
0000
0110
0000
,
1010
1000
0001
0011
0000
0101
0010
1010
,
1100
0000
0000
0000
0010
0000
0001
1000
0001
0010
0100
1000
0010
0000
0100
0001
,
1000
0010
1000
0001
0010
0100
0010
0001
,
0100
0010
1000
0001
0000
0011
0000
1100
,
0001
1000
0010
0100
0001
0010
0100
2000
,
0000
0000
0000
0000
3001
1000
0001
1000
0001
1000
0001
1000
0001
1000
0001
1000
,
0001
0010
0100
0010
0001
1000
0100
0010
,
0001
1000
0010
0100
0000
0101
0000
1001
,
0010
0010
0100
0100
0010
0010
0100
0100
,
0001
0001
1000
1000
0001
0001
1000
1000
,
0001
0001
0010
0010
0100
0100
1000
1000
,
1001
0000
1001
0000
0110
0000
0110
0000
1000
0100
1000
0100
0010
0001
0010
0001
,
0200
0000
0000
0000
0000
0000
0000
0000
0001
0000
0000
1000
0000
0000
0301
0000
,
0011
0010
0100
1100
0001
1000
0101
0000
,
0001
1000
0100
1100
0000
0101
0000
1100
,
1010
0010
1000
1001
0001
0100
0110
0000
,
1020
0000
0000
0000
0130
0010
0100
0010
0100
0010
0100
0010
0100
0010
0100
0010
,
0100
0001
1000
1100
0010
0100
0101
0000
,
0001
1000
0100
0110
0000
1100
0000
0011
,
1000
0001
0010
0100
1000
0000
0010
0000
0110
0000
0110
0000
0000
0000
1002
0000
,
0000
0000
0000
0000
1003
0100
1000
0100
0010
0001
0010
0001
1000
0100
0010
0001
,
0100
0200
0310
2000
3002
0023
0031
0100
,
0200
0001
0310
1010
0000
1100
0000
0101
,
2001
3002
0013
0200
2300
3020
0130
0001
,
0020
1000
0031
0101
0000
1100
0000
0011
,
0201
0302
0013
0200
2300
3002
1003
0010
,
2000
0100
3001
0011
0000
1001
0000
0110
,
1010
1010
0001
0101
0000
1100
0000
1002
,
0000
0000
0000
0000
1003
0010
1000
0010
0100
0001
0100
0001
1000
0100
0010
0001
,
0100
0010
0100
0000
0001
0000
0100
0010
0100
0000
0001
0000
0100
0000
0000
0000
,
0001
0000
0001
1000
1100
1100
1100
0000
,
0010
1000
0010
0000
0100
0000
0010
1000
0010
0000
0100
0000
0010
0000
0000
0000
,
1000
0000
1000
0002
0203
0320
0230
0302
,
1003
0001
1000
0000
0001
1000
0001
0000
0100
0010
0100
0000
0010
0100
0010
0000
,
1000
0100
1000
0000
0001
0100
0001
0000
1000
0010
1000
0000
0001
0010
0001
0000
,
1000
0100
0010
0000
0100
0010
0001
0000
0010
0001
1000
0000
0001
1000
0100
0000
,
1000
0010
0100
0000
0001
0100
0010
0000
1000
0001
1000
0001
0100
0010
0100
0010
,
1000
1100
1100
0001
0101
0000
0010
1010
,
1010
0000
0001
0000
0011
0000
0000
0000
1000
0100
1000
0000
0100
1000
0100
0000
,
1000
1010
1010
0010
0101
0000
0001
0011
,
0011
0000
1000
0000
1100
0000
0000
0000
0001
0010
0001
0000
0010
0001
0010
0000
,
1000
0110
0110
0001
1001
0000
0100
1001
,
1001
0000
0010
0000
0110
0000
0000
0000
0010
1000
0100
0000
0010
0001
0100
0000
,
0002
0013
2000
3100
,
0020
1030
0200
0301
,
0010
0100
1000
0001
0000
0100
0010
1000
,
0000
0000
0001
1000
0002
0000
0203
0000
,
0310
1000
0100
0010
0000
0001
1000
0200
,
0000
0000
0000
0000
1300
0001
1000
0001
1000
0001
1000
0001
1000
0001
1000
0001
,
0010
0001
1000
1010
0000
0100
0010
0110
,
0000
0000
0001
1000
1001
0000
1001
0000
,
1100
0001
0100
0110
0000
1010
0001
1100
,
0101
0000
0000
0000
1000
0000
0010
1000
0100
0010
0100
1000
0001
0000
0010
0001
,
1000
0001
0100
0110
0010
1000
0101
0000
,
0001
1000
0100
1100
0000
0011
0000
0010
,
1010
0001
1000
1100
0100
0010
0011
0000
,
0201
0000
0000
0000
0310
0100
0010
0100
0010
0100
0010
0100
0010
0100
0010
0100
,
0010
0100
0001
1100
0010
1000
0101
0000
,
0010
1000
0100
0011
0000
0101
0000
1100
,
0001
0010
0100
1000
0001
0000
0100
0000
1100
0000
1100
0000
0000
0000
0012
0000
,
0000
0000
0000
0000
0103
0010
1000
0001
0100
0010
1000
0001
0100
0010
1000
0001
,
0010
2001
3001
2000
3020
0230
0301
1000
,
2100
0001
3100
0101
0000
0011
0000
1100
,
2001
3020
1030
0200
0320
0032
0103
0010
,
2010
0001
3010
1100
0000
0011
0000
0100
,
0210
0320
1030
0002
2003
3002
0013
0100
,
1200
0010
1300
0110
0000
0011
0000
1001
,
1000
0100
0010
0100
0001
0100
0010
0100
,
1000
0000
0100
0000
0010
0000
0001
0000
1001
0000
0110
0100
0001
0000
0010
0000
,
0100
0010
1000
0010
0100
0010
0001
1000
,
0010
0000
0100
0000
0110
0000
1001
0010
1000
0000
0001
0000
1000
0000
0001
0000
,
0110
0000
0110
0100
0001
0000
1000
0000
0001
0000
1000
0000
0110
0000
0110
1000
,
0001
0200
0320
2030
3001
0020
0230
2300
,
3010
2000
3002
0203
0301
0020
0230
2300
,
3010
2000
3002
0203
0301
0200
0302
0023
,
0031
2000
3002
0023
0130
2000
3020
0230
,
0301
0001
1000
1000
0010
0010
0100
0100
,
0001
0001
0010
0010
0100
0100
1000
1000
,
0001
0100
0001
0100
0010
0100
0010
0100
0010
1000
0010
1000
0001
1000
0001
1000
,
0001
0010
0001
0010
0001
1000
0100
0000
1100
0000
1100
0000
1100
0000
2200
0000
,
0000
0000
0000
3300
;

//---------------dance-single - ----------------
#NOTES:
     dance-single:
     :
     Medium:
     9:
     0.438479,0.535388,0.148119,0.271551,0.000000,373.000000,355.000000,18.000000,33.000000,0.000000,0.000000,0.438479,0.535388,0.148119,0.271551,0.000000,373.000000,355.000000,18.000000,33.000000,0.000000,0.000000:
0000
0000
0000
0000
,
0000
0000
0000
0000
,
0000
0000
0000
0000
,
0000
0000
0000
0000
,
1000
0000
0000
0001
0000
0000
0000
0100
,
0000
0000
1001
1001
,
0001
0000
0000
1000
0000
0000
0000
0010
,
0000
0100
1000
0001
,
1000
0002
0000
0000
1003
0100
0000
0000
,
2000
0000
3010
0100
0000
0001
0000
0000
,
0010
0001
0100
0001
1000
0010
1000
0200
,
0000
0000
0000
0300
,
0100
0020
0000
0000
0031
1000
0000
0000
,
0020
0000
1030
0001
0000
0100
0000
0010
,
0000
1000
0000
1000
0000
0001
0000
0001
,
0000
0100
0000
0100
0000
0010
0000
0010
,
0000
1000
0000
0100
0000
0010
0000
0001
,
0100
0010
1000
0000
0100
0010
0001
0000
,
0220
0300
1000
0031
,
1000
0000
0001
0100
0000
0001
0100
0000
,
0010
1000
0100
0010
0000
1001
0000
0000
,
0001
0000
1000
0100
0000
1000
0100
0000
,
0020
0000
0000
0030
,
0010
0000
1000
0001
0000
1000
0001
0000
,
0100
0010
1000
0001
0000
0011
0000
0000
,
0001
0001
0001
0100
1000
1000
0000
2200
,
0000
0000
0000
3300
,
0010
2000
0000
0000
3001
0100
0000
0010
,
2000
0000
3100
0010
0000
0001
0000
0100
,
0010
0200
0000
0301
1000
0100
0000
1000
,
0020
0000
1030
0001
0000
1000
0000
0100
,
1000
0002
0000
0013
0001
1000
0000
0100
,
2000
0000
3001
1000
0000
0100
0000
0010
,
0001
1000
0001
0100
0000
0101
0000
2200
,
3000
0001
0010
1300
,
0001
0000
0000
0001
0000
0000
0001
0000
,
0000
0000
0000
1000
0100
1000
0100
0000
,
0001
0000
0000
0001
0000
0000
0001
0000
,
0000
0000
0000
1000
0010
1000
0010
0000
,
1000
1100
0001
0101
,
1000
0000
1001
0000
0010
0100
0010
0000
,
1000
0000
0000
0001
0000
0000
0100
0000
,
0000
0000
0000
0010
1000
0001
1000
0010
,
0000
0010
0100
0001
1000
0000
0000
0001
,
0010
0100
1000
0000
0010
0100
0010
0000
,
0000
1000
0001
0100
0010
0000
0000
1000
,
0100
0010
0001
0000
1000
0100
1000
0001
,
0000
0001
0100
0010
1000
0000
0000
0010
,
1000
0001
0100
0000
0001
1000
0001
0000
,
2000
3000
0200
0300
,
0020
0030
0002
0003
,
0110
0000
0000
0000
,
0000
0000
0000
0000
,
0000
0000
0000
0000
,
0000
0000
0000
0000
,
1000
0000
0000
0010
0000
0000
0000
0100
,
0000
0000
1001
1001
,
0010
0000
0000
1000
0000
0000
0000
0001
,
0000
1000
0100
0010
,
1000
0000
0001
0010
0000
0100
1000
0000
,
0010
1000
0001
0100
0000
1010
0000
0001
,
1000
0000
0010
0100
0000
0010
0100
0000
,
0202
0000
0000
0303
,
0001
0000
1000
0001
0000
1000
0010
0000
,
1000
0010
0100
0001
0000
0110
0000
1000
,
0010
0010
0010
0100
0001
0001
0000
2002
,
0003
0010
0100
3010
,
1000
0020
0000
1030
0001
0100
0000
0001
,
0020
0000
0031
0100
0000
0010
0000
1000
,
0100
2000
0000
3001
1000
0010
0000
0100
,
0002
0000
0013
0100
0000
1000
0000
0001
,
1000
0002
0000
0013
0001
0100
0000
0010
,
2000
0000
3001
1000
0000
0010
0000
0100
,
0001
0010
0001
0000
1000
0010
1000
0000
,
0001
1000
0010
0000
0100
0100
0001
0100
,
0001
0000
1000
0100
1000
0000
0001
1000
,
0100
0000
0010
0010
0001
0000
0100
0000
,
0010
1000
1000
0000
0100
0000
0010
0001
,
0000
0010
0000
0001
0000
0100
0000
1000
,
0000
0001
0000
0010
0000
0100
0000
1000
,
0000
0100
0000
0010
0000
1000
0000
0001
,
0000
1000
0000
0010
0000
0001
0000
0100
,
0000
1000
0001
1000
0000
0001
1000
0001
,
0000
0100
0010
0100
0000
0010
0100
0010
,
0000
1000
0100
0001
0000
1000
0010
0001
,
1000
0100
1000
0100
0010
0010
0010
0020
,
0000
0000
0000
0030
;

//---------------dance-single - ----------------
#NOTES:
     dance-single:
     :
     Easy:
     6:
     0.276253,0.356925,0.082288,0.123432,0.000000,235.000000,225.000000,10.000000,15.000000,0.000000,0.000000,0.276253,0.356925,0.082288,0.123432,0.000000,235.000000,225.000000,10.000000,15.000000,0.000000,0.000000:
0000
0000
0000
0000
,
0000
0000
0000
0000
,
0000
0000
0000
0000
,
0000
0000
0000
0000
,
1000
0100
0001
0100
,
2000
0000
0001
3001
,
1000
0100
0010
0001
,
0200
0000
0000
0300
,
1000
0000
0001
0000
,
0100
0010
1000
0000
,
0001
0010
0100
1000
,
0200
0000
0000
0300
,
1000
0000
0010
0000
,
1000
0001
0100
0000
,
0000
0001
0000
0001
,
0000
1000
0000
1000
,
0000
0010
0000
0100
,
0001
0001
1000
1000
,
1001
0000
0100
0000
,
0001
1000
0100
1000
,
0001
0010
0100
0000
,
1000
0001
0010
0100
,
2000
0000
0000
3000
,
0001
0010
0001
0100
,
0010
1000
0100
0000
,
1000
0001
1000
0000
,
0020
0000
0000
0030
,
1000
0000
0001
0000
,
0010
0001
0100
0000
,
0001
0000
1000
0000
,
0010
0100
0001
1000
,
0010
0000
0100
0000
,
0001
0010
1000
0000
,
0100
1000
0100
0001
,
0020
0000
0000
0030
,
0001
0000
0000
0001
0000
0000
0001
0000
,
0000
0000
0100
0010
,
1000
0000
0000
1000
0000
0000
1000
0000
,
0000
0000
0010
0100
,
0010
0000
0000
0010
0000
0000
0010
0000
,
0000
0000
1000
0001
,
0100
0000
0000
0100
0000
0000
0100
0000
,
0000
0000
0001
1000
,
0010
1000
0001
0000
,
0100
0010
1000
1000
,
0000
0001
0010
0000
,
0001
1000
0100
0100
,
1000
0010
0001
0000
,
0100
0001
0010
0010
,
0002
0003
2000
3000
,
0020
0030
0200
0300
,
1001
0000
0010
0000
,
1000
0000
0001
0100
,
0001
0000
1000
0000
,
0001
0000
0000
0000
,
0010
1000
0001
1000
,
0020
0000
0100
0130
,
0001
0010
0100
1000
,
0002
0000
0000
0003
,
0010
0001
0100
0010
,
1000
0100
0001
0000
,
1000
0010
0100
0001
,
0200
0000
0000
0300
,
0001
1000
0010
1000
,
0100
0010
0001
0000
,
0100
0010
0100
0000
,
0002
0000
0000
0003
,
1001
0000
0110
0000
,
0010
1000
0001
0000
,
0101
0000
1100
0000
,
1000
0100
0001
0000
,
0011
0000
1010
0000
,
0010
1000
0001
0000
,
1000
0001
1000
0001
,
0100
0100
0100
0001
,
1000
0001
1000
0010
,
0010
0010
1000
1000
,
1000
0001
0001
0001
,
0000
1000
0000
1000
,
0000
0001
0000
0001
,
0000
0100
0000
0100
,
0000
0010
0000
0010
,
0000
1000
0000
0001
,
0000
0100
0000
0010
,
0000
1001
0000
0110
,
0010
0000
0100
0000
0001
1000
0001
2000
,
0000
0000
0000
3000
;

//---------------dance-single - ----------------
#NOTES:
     dance-single:
     :
     Beginner:
     2:
     0.145768,0.211687,0.016458,0.000000,0.000000,124.000000,122.000000,2.000000,0.000000,0.000000,0.000000,0.145768,0.211687,0.016458,0.000000,0.000000,124.000000,122.000000,2.000000,0.000000,0.000000,0.000000:
// measure 0
0000
0000
0000
0000
,  // measure 1
0000
0000
0000
0000
,  // measure 2
0000
0000
0000
0000
,  // measure 3
0000
0000
0000
0000
,  // measure 4
1000
0000
0001
0000
,  // measure 5
1000
0000
0000
0000
,  // measure 6
0001
0000
1000
0000
,  // measure 7
0001
0000
0000
0000
,  // measure 8
0100
0000
0100
0000
,  // measure 9
0100
0000
0000
0000
,  // measure 10
0010
0000
0010
0000
,  // measure 11
0010
0000
0000
0000
,  // measure 12
1000
0000
1000
0000
,  // measure 13
1000
0000
0000
0000
,  // measure 14
1000
0000
0000
0000
,  // measure 15
0001
0000
0000
0000
,  // measure 16
0100
0000
0000
0000
,  // measure 17
0010
0000
0100
0000
,  // measure 18
0010
0000
0000
0000
,  // measure 19
1000
0000
1000
0000
,  // measure 20
1000
0000
0000
0000
,  // measure 21
0100
0000
0100
0000
,  // measure 22
0100
0000
0000
0000
,  // measure 23
0010
0000
0010
0000
,  // measure 24
0010
0000
0000
0000
,  // measure 25
0001
0000
0001
0000
,  // measure 26
0001
0000
0000
0000
,  // measure 27
1000
0000
0001
0000
,  // measure 28
1000
0000
0000
0000
,  // measure 29
0001
0000
1000
0000
,  // measure 30
0001
0000
0000
0000
,  // measure 31
0100
0000
0010
0000
,  // measure 32
0100
0000
0000
0000
,  // measure 33
0010
0000
0100
0000
,  // measure 34
0010
0000
0000
0000
,  // measure 35
1001
0000
0000
0000
,  // measure 36
0000
0000
0000
0000
,  // measure 37
1001
0000
0000
0000
,  // measure 38
0000
0000
0000
0000
,  // measure 39
0001
0000
0000
0000
,  // measure 40
0010
0000
0000
0000
,  // measure 41
0100
0000
0000
0000
,  // measure 42
1000
0000
0000
0000
,  // measure 43
0000
0001
0001
0000
,  // measure 44
0001
0001
0000
0000
,  // measure 45
0000
1000
1000
0000
,  // measure 46
0001
0000
0100
0000
,  // measure 47
0000
0010
0010
0000
,  // measure 48
0010
0010
0000
0000
,  // measure 49
0100
0000
0000
0000
,  // measure 50
0010
0000
0000
0000
,  // measure 51
0100
0000
0000
0000
,  // measure 52
0001
0000
0000
0000
,  // measure 53
0010
0000
0000
0000
,  // measure 54
1000
0000
0000
0000
,  // measure 55
0001
0000
0100
0000
,  // measure 56
0001
0000
0000
0000
,  // measure 57
1000
0000
0010
0000
,  // measure 58
1000
0000
0000
0000
,  // measure 59
0001
0000
1000
0000
,  // measure 60
0001
0000
1000
0000
,  // measure 61
0100
0000
0100
0000
,  // measure 62
0100
0000
0000
0000
,  // measure 63
1000
0000
0001
0000
,  // measure 64
1000
0000
0001
0000
,  // measure 65
0010
0000
0010
0000
,  // measure 66
0010
0000
0000
0000
,  // measure 67
0001
0000
0100
0000
,  // measure 68
1000
0000
0100
0000
,  // measure 69
0001
0000
1000
0000
,  // measure 70
0001
0000
0000
0000
,  // measure 71
1000
0000
0100
0000
,  // measure 72
0001
0000
0100
0000
,  // measure 73
1000
0000
1000
0000
,  // measure 74
1000
0000
0000
0001
,  // measure 75
0000
0001
0000
0001
,  // measure 76
0000
0000
0010
0000
,  // measure 77
0000
0100
0000
0000
,  // measure 78
1000
0000
0000
0000
,  // measure 79
0010
0000
0000
0000
,  // measure 80
0100
0000
0000
0000
,  // measure 81
0001
0000
0000
0000
,  // measure 82
1000
0000
1000
0000
,  // measure 83
0001
0000
0001
0000
,  // measure 84
0100
0000
0010
0000
,  // measure 85
1000
1000
1000
1000
;
