#VERSION:0.83;
#TITLE:Ancient Heritage;
#SUBTITLE:;
#ARTIST:BEMANI Sound Team "Sota Fujimori";
#TITLETRANSLIT:;
#SUBTITLETRANSLIT:;
#ARTISTTRANSLIT:;
#GENRE:;
#ORIGIN:;
#CREDIT:;
#BANNER:Ancient Heritage-bn.png;
#BACKGROUND:Ancient Heritage-bg.png;
#PREVIEWVID:;
#JACKET:Ancient Heritage-jacket.png;
#CDIMAGE:;
#DISCIMAGE:;
#LYRICSPATH:;
#CDTITLE:;
#MUSIC:Ancient Heritage.ogg;
#OFFSET:0.000000;
#SAMPLESTART:70.400002;
#SAMPLELENGTH:20.000000;
#SELECTABLE:YES;
#DISPLAYBPM:150.000000;
#BPMS:0.000=150.000;
#STOPS:;
#DELAYS:;
#WARPS:;
#TIMESIGNATURES:0.000=4=4;
#TICKCOUNTS:0.000=4;
#COMBOS:0.000=1;
#SPEEDS:0.000=1.000=0.000=0;
#SCROLLS:0.000=1.000;
#FAKES:;
#LABELS:0.000=Song Start;
#BGCHANGES:;
#KEYSOUNDS:;
#ATTACKS:
;

//---------------dance-single - ----------------
#NOTEDATA:;
#CHARTNAME:;
#STEPSTYPE:dance-single;
#DESCRIPTION:;
#CHARTSTYLE:;
#DIFFICULTY:Hard;
#METER:15;
#RADARVALUES:0.782906,0.762124,0.315282,0.166914,0.783568,591.000000,557.000000,34.000000,18.000000,0.000000,0.000000,0.000000,0.000000,0.000000,0.782906,0.762124,0.315282,0.166914,0.783568,591.000000,557.000000,34.000000,18.000000,0.000000,0.000000,0.000000,0.000000,0.000000;
#CREDIT:;
#DISPLAYBPM:150.000000;
#NOTES:
0000
0000
0000
0000
,
0000
0000
0000
0000
,
0000
0000
0000
0000
,
0000
0000
0000
0000
,
0010
0000
1000
0100
1000
0000
0001
0000
0010
0000
0100
0000
1000
0000
0001
0000
,
0100
0001
0100
0000
0001
0100
0001
0000
1000
0000
0010
0000
0100
0000
0000
0000
,
0001
1000
0001
1000
0001
0000
0010
0000
0100
0000
0010
0000
0001
0000
0100
0000
,
0010
1000
0010
0000
1000
0100
1000
0100
2000
0000
0001
0000
3001
0000
0000
0000
,
0100
0000
0010
1000
0010
0000
0100
0000
0001
0000
0010
0000
0001
0000
1000
0000
,
0010
0100
0010
0000
0100
0001
0100
0000
0001
0000
1000
0010
1000
0000
0000
0000
,
0001
0010
0001
0010
0001
0000
0100
0000
0010
0000
1000
0000
0100
1000
0100
0000
,
1100
0000
0000
1001
0000
0000
0101
0000
0000
1001
0000
0000
1100
0000
0000
0000
,
0010
0000
0001
0000
0100
0000
0010
0000
1000
0100
1000
0100
1000
0000
0000
0000
,
0001
0010
0001
0000
1000
0010
1000
0000
0100
0000
1000
0000
0100
0000
0000
0000
,
1000
0001
0000
0001
0010
0000
0100
1000
0100
0000
1000
0000
0001
0000
0000
0000
,
0100
0010
0100
0000
0010
0100
0010
0000
0110
0000
0110
0000
0000
0000
0000
0000
,
0010
1000
0000
1000
0001
0000
0100
0010
0100
0000
0001
0000
1000
0000
0000
0000
,
0010
1000
0010
0000
1000
0100
1000
0000
0001
0100
0001
0000
0010
0000
0000
0000
,
0001
0100
0000
0100
0010
0000
1000
0001
1000
0000
0010
0000
0100
0000
0000
0000
,
0001
1000
0001
0000
1000
0001
1000
0000
1001
0000
1001
0000
0000
0000
0000
0000
,
1000
0010
1000
0000
0002
0000
0000
0000
1003
0100
1000
0000
0002
0000
0000
0000
,
0013
0000
0001
0000
0100
0000
0010
0000
1000
0001
1000
0000
0100
0000
0000
0000
,
0010
1000
0010
0000
0200
0000
0000
0000
0301
1000
0001
0000
0200
0000
0000
0000
,
0301
0100
0001
0000
1000
0010
1000
0010
2000
0000
0000
3001
0000
0000
0000
0000
,
0011
0000
0001
0100
0000
0000
0010
0000
0010
1000
0001
0100
,
0001
0000
1000
0001
0010
0100
1000
0000
0000
1100
0000
0000
,
1000
0001
1000
0001
0010
0001
0010
0100
1000
0010
0100
0001
,
1000
0100
1000
0100
0010
0001
0200
0000
0000
0300
0000
0000
,
0010
0000
1000
0001
0000
0010
0001
0000
0100
0010
1000
0100
,
1000
0000
0010
1000
0100
0010
0001
0000
0000
0101
0000
0000
,
0010
0001
0010
0001
0100
0010
0100
0001
1000
0100
1000
0010
,
1000
0001
1000
0001
0010
0100
2000
0000
0000
3000
0000
0000
,
1000
0100
0010
0000
0010
0000
0001
0100
0001
0000
1000
0100
1000
0000
0000
0010
,
0100
0001
1000
0000
1000
0000
0100
1000
0001
0000
0010
0001
0010
0000
0000
0100
,
0010
0001
0100
0000
0100
0000
0001
1000
0100
0000
1000
0010
1000
0000
0000
0001
,
0010
0100
1000
0000
0001
0000
0100
0000
0010
0100
0001
1000
0001
0000
0000
0000
,
0010
0001
1000
0000
1000
0000
0001
0100
0001
0000
0100
0010
0100
0000
0000
0010
,
1000
0001
0010
0000
0010
0000
0100
1000
0100
0000
1000
0001
0100
0000
0000
0001
,
1000
0010
0100
0000
0100
0000
0001
1000
0001
0000
1000
0010
1000
0000
0100
0000
,
1000
0000
0000
0000
0001
0000
0000
0000
1000
0000
0000
0000
0100
0000
0000
0000
0010
0000
0000
0000
0001
0000
0000
0000
0100
0000
0000
0000
0000
0000
0000
0000
0000
0110
0000
0000
0000
0000
0000
0000
0000
0000
0000
0000
0000
0000
0000
0000
,
0010
1000
0100
0010
0001
0100
0001
1000
,
0001
0010
0100
1000
0010
1000
0100
0010
,
0100
0010
0001
0100
0010
1000
0001
1000
,
0100
0010
0001
0100
0010
1000
0001
1000
,
2010
0000
0000
0100
0000
0000
0001
0000
3001
0000
0000
0000
1001
0000
0000
0000
,
0010
0000
1000
0100
1000
0000
0001
0100
0001
0000
0010
0100
1000
0000
0000
0000
,
0001
0100
0010
0100
0001
0000
1000
0010
1000
0000
0100
0000
0010
0000
0001
0000
,
0010
0000
0001
1000
0100
0000
1000
0000
0010
0100
0001
0000
0010
0100
1000
0000
,
1010
0000
0000
0101
0000
0000
0001
0010
0200
0000
1000
0000
1300
0000
0000
0000
,
0001
0000
1000
0100
1000
0000
0001
0100
0001
0000
0010
0100
0010
0000
0000
0000
,
0001
1000
0100
1000
0001
0000
0010
0100
0010
0000
0001
0000
1000
0000
0100
0000
,
1000
0000
0010
0100
0001
0000
0010
0100
1000
0000
0001
0000
0100
0000
0010
0000
,
0110
0000
0000
0000
0000
0000
0001
0100
1000
0000
1100
0000
1100
0000
0000
0000
,
1000
0100
0010
0001
0100
0000
0010
1000
0001
0000
1000
0100
0010
0000
0000
0000
,
0001
0100
0001
0000
1000
0010
1000
0100
0010
0000
0001
0000
1000
0000
0010
0000
,
0100
0000
0001
1000
0001
0000
0010
0100
1000
0010
1000
0010
0100
0000
0001
0000
,
0011
0000
0000
1010
0000
0000
0001
0000
1000
0000
0101
0000
0101
0000
0000
0000
,
0001
1000
0010
0100
0001
0000
0010
0100
1000
0000
0001
1000
0010
0000
0100
0000
,
0110
0000
0000
0000
1001
0000
0000
0000
1100
0000
0000
0011
0000
0000
0101
0000
,
0001
0000
0010
0100
1000
0000
0001
0100
0001
0000
1000
0010
1000
0000
0100
0000
,
1001
0000
0000
0000
0000
0000
1000
0100
0001
0000
0011
0000
0011
0000
0000
0000
,
0002
0000
0000
0023
0000
0000
0230
0000
1300
0000
0000
0000
2001
0000
0000
0000
,
3020
0000
0000
0230
0000
0000
0301
0000
1000
0100
1000
0000
0001
0010
0001
0000
,
0100
0000
0010
0000
1000
0000
0001
0000
0010
0100
1000
0010
0100
0000
0000
0000
,
0002
0000
0000
2003
0000
0000
3010
0000
0100
0001
0100
0000
0010
1000
0001
0000
,
0100
0000
0100
0000
0100
0000
0001
1000
0000
0010
0100
0000
0110
0000
0000
0000
;

//---------------dance-single - ----------------
#NOTEDATA:;
#CHARTNAME:;
#STEPSTYPE:dance-single;
#DESCRIPTION:;
#CHARTSTYLE:;
#DIFFICULTY:Medium;
#METER:12;
#RADARVALUES:0.596121,0.548730,0.204006,0.074184,0.185460,450.000000,428.000000,22.000000,8.000000,0.000000,0.000000,0.000000,0.000000,0.000000,0.596121,0.548730,0.204006,0.074184,0.185460,450.000000,428.000000,22.000000,8.000000,0.000000,0.000000,0.000000,0.000000,0.000000;
#CREDIT:;
#DISPLAYBPM:150.000000;
#NOTES:
0000
0000
0000
0000
,
0000
0000
0000
0000
,
0000
0000
0000
0000
,
0000
0000
0000
0000
,
1000
0010
0100
0001
0010
0100
1000
0001
,
0100
0001
0010
0100
1000
0001
1000
0000
,
0010
1000
0010
0100
0001
1000
0001
0100
,
0001
0010
0100
1000
1100
0000
0101
0000
,
0001
1000
0010
0100
0001
0010
0100
1000
,
0010
0100
0010
1000
0001
0100
0001
0000
,
0010
0001
0100
0010
1000
0100
1000
0001
,
0010
0100
1000
0001
0011
0000
1010
0000
,
0001
0010
0100
1000
0100
0010
0001
0000
,
0100
0010
0100
0001
1000
1000
1000
0000
,
1000
0100
0010
0001
0010
0100
1000
0000
,
0010
0100
0001
1000
1001
1001
0000
0000
,
1000
0010
0100
0001
0100
0010
1000
0000
,
0010
1000
0100
1000
0001
0001
0001
0000
,
0001
0100
0010
1000
0010
0100
0001
0000
,
1000
0001
0010
0100
0110
0110
0000
0000
,
2000
0100
3100
0000
1000
0001
0100
0000
,
0001
1000
0010
1000
0100
0010
0001
0000
,
0002
0010
0013
0000
0001
1000
0010
0000
,
1000
0000
0001
0000
0010
0000
0100
0000
1100
0000
0000
0011
0000
0000
0000
0000
,
1001
0000
1000
0001
0000
0001
0010
0000
0010
0100
0000
0100
,
1000
0000
0000
0001
0100
0001
0200
0000
0000
0300
0000
0000
,
0010
0100
0010
0100
0000
0000
0001
1000
0001
1000
0000
0000
,
1000
0010
1000
0010
0000
0100
0002
0000
0000
0003
0000
0000
,
0110
0000
0010
1000
0000
1000
0001
0000
0001
0100
0000
0100
,
0001
0000
0000
1000
0010
1000
0020
0000
0000
0030
0000
0000
,
0010
0100
0010
0100
0000
0000
0001
1000
0001
1000
0000
0000
,
0001
0010
0001
0010
0000
0100
2000
0000
0000
3000
0000
0000
,
1000
0000
0010
0000
1000
0000
0100
0000
0010
0000
0001
0000
0100
0000
0000
0001
,
0100
0000
0001
0000
0010
0000
0100
0000
1000
0000
0001
0000
1000
0000
0000
0010
,
0100
0000
0010
0000
1000
0000
0100
0000
0010
0000
0001
0000
1000
0000
0000
0001
,
0010
0001
0100
0001
1000
0010
0100
0000
,
0100
0000
0010
0000
1000
0000
0001
0000
0010
0000
0100
0000
1000
0000
0000
0001
,
1000
0000
0010
0000
0100
0000
0001
0000
0010
0000
0001
0000
1000
0000
0000
0100
,
0010
0000
0100
0000
1000
0000
0010
0000
1000
0000
0001
0000
0100
0000
0000
0001
,
0010
0000
0001
0000
0100
0000
0001
0000
0010
0000
0000
0011
0000
0000
0000
0000
,
1000
0001
1000
0010
0100
0001
0010
0100
,
1000
0010
0100
0001
0010
0001
0100
0010
,
1000
0001
0010
0100
0010
0001
1000
0100
,
1000
0001
0100
0001
0010
0100
1000
0001
,
0020
0000
0030
1001
,
1000
0010
0100
0001
0010
0100
1000
0000
,
0001
0100
0001
1000
0010
0100
0010
1000
,
0000
0100
1000
0001
1000
0010
0100
0001
,
0010
0000
0000
0010
0000
0000
0010
0000
0001
0000
1000
0000
1010
0000
0000
0000
,
0100
1000
0010
0100
0001
0010
0001
0000
,
1000
0001
1000
0010
0100
0001
0100
0010
,
0000
1000
0001
1000
0100
0010
0001
0100
,
0110
0000
0000
0001
2000
0100
3100
0000
,
1000
0010
1000
0100
0010
0001
0100
0000
,
0001
0010
0001
0100
0010
1000
0100
1000
,
0100
0010
0100
0010
0001
1000
0001
1000
,
0100
0000
0000
0100
0000
0000
0100
0000
1000
0000
0001
0000
0101
0000
0000
0000
,
0010
0100
0001
1000
0100
0010
0001
0000
,
0101
0000
0000
0000
1100
0000
0000
0000
0001
0000
0000
1000
0000
0000
0100
0000
,
1000
0010
1000
0100
0010
0001
0100
0001
,
1001
0000
0000
0001
0010
0100
1000
0000
,
0010
0000
0000
0010
0000
0000
0010
0000
0010
0000
0000
0000
1001
0000
0000
0000
,
0001
0000
0000
0001
0000
0000
0001
0000
1000
0000
0100
0000
1000
0000
0010
0000
,
1000
0100
0010
0001
0010
0100
1000
0000
,
0010
0000
0000
0010
0000
0000
0010
0000
1000
0000
0001
0000
1000
0000
0100
0000
,
0010
0001
1000
0001
0100
0010
0110
0000
;

//---------------dance-single - ----------------
#NOTEDATA:;
#CHARTNAME:;
#STEPSTYPE:dance-single;
#DESCRIPTION:;
#CHARTSTYLE:;
#DIFFICULTY:Easy;
#METER:7;
#RADARVALUES:0.353699,0.426790,0.241098,0.111276,0.000000,267.000000,241.000000,26.000000,12.000000,0.000000,0.000000,0.000000,0.000000,0.000000,0.353699,0.426790,0.241098,0.111276,0.000000,267.000000,241.000000,26.000000,12.000000,0.000000,0.000000,0.000000,0.000000,0.000000;
#CREDIT:;
#DISPLAYBPM:150.000000;
#NOTES:
0000
0000
0000
0000
,
0000
0000
0000
0000
,
0000
0000
0000
0000
,
0000
0000
0000
0000
,
1000
0001
1000
0100
,
0010
0001
0100
0100
,
0010
0100
0001
0010
,
0100
1000
0001
1001
,
1000
0010
0100
0001
,
0010
0100
1000
1000
,
0001
0100
0001
0010
,
0100
1000
0010
0110
,
0001
0010
0001
1000
,
0010
0000
0100
0000
0001
1000
0001
0000
,
1000
0010
0100
0001
,
0010
0000
0100
0000
1000
0001
0000
0000
,
0100
0001
0010
0100
,
1000
0000
0001
0000
0100
0010
0100
0000
,
0010
1000
0001
0100
,
0001
0000
1000
0000
0100
0010
0000
0000
,
0001
0001
1000
1000
,
0001
0010
0100
1000
,
0010
0010
0100
0100
,
0001
1000
2002
3003
,
1001
0110
1000
0100
,
0010
0001
2000
3000
,
0001
0101
1000
1100
,
0010
0100
0002
0003
,
0110
1001
0010
0100
,
0001
1000
0020
0030
,
1000
1010
0001
0011
,
1000
0001
0200
0300
,
0001
0010
1000
0010
,
0001
0100
1000
0100
,
0010
0001
0100
1000
,
0010
0000
1000
0000
0001
0100
0001
0000
,
1000
0010
0001
0010
,
1000
0100
0001
0100
,
1000
0010
0100
0001
,
0100
0010
0220
0330
,
1000
0010
1000
0001
,
0010
0100
1000
0010
,
0100
0010
1000
0100
,
0010
0001
1000
0001
,
0202
0000
0303
1001
,
1000
0010
1000
0001
,
0010
0100
1000
0010
,
0100
0001
0010
0100
,
1100
1100
0001
1000
,
0001
1000
0010
0100
,
0010
1000
0100
0010
,
0001
0100
0001
1000
,
2020
3030
0100
0010
,
1000
0001
0010
0100
,
0010
0001
0100
0010
,
0100
0001
1000
0100
,
0011
0011
1000
0001
,
0100
0100
0010
1000
,
1001
0110
1001
0110
,
1000
0010
0100
0001
,
0011
0000
0100
0010
,
1000
1000
1000
1001
,
0010
1000
0100
0010
,
0001
0100
0001
1000
,
0010
0100
0010
1000
,
0100
0100
0100
1001
;

//---------------dance-single - ----------------
#NOTEDATA:;
#CHARTNAME:;
#STEPSTYPE:dance-single;
#DESCRIPTION:;
#CHARTSTYLE:;
#DIFFICULTY:Beginner;
#METER:4;
#RADARVALUES:0.207980,0.243880,0.083457,0.018546,0.000000,157.000000,148.000000,9.000000,2.000000,0.000000,0.000000,0.000000,0.000000,0.000000,0.207980,0.243880,0.083457,0.018546,0.000000,157.000000,148.000000,9.000000,2.000000,0.000000,0.000000,0.000000,0.000000,0.000000;
#CREDIT:;
#DISPLAYBPM:150.000000;
#NOTES:
0000
0000
0000
0000
,
0000
0000
0000
0000
,
0000
0000
0000
0000
,
0000
0000
0000
0000
,
1000
0000
0010
0000
,
0100
0100
0100
0000
,
0001
0000
0010
0000
,
0001
0001
0001
0000
,
0010
0000
0100
0000
,
1000
1000
1000
0000
,
0001
0000
0100
0000
,
0010
0010
0010
0000
,
1000
0000
0000
0100
,
0100
0000
0000
0010
,
0010
0000
0000
0001
,
0001
0000
1001
0000
,
0001
0000
0000
0010
,
0010
0000
0000
0100
,
0100
0000
0000
1000
,
1000
0000
0110
0000
,
0001
0000
1000
0000
,
0001
0000
0100
0000
,
0010
0000
1000
0000
,
0100
0000
1001
0000
,
0001
0001
0001
0000
,
1000
1000
1000
0000
,
0010
0000
1000
0000
,
0100
0100
0100
0000
,
0010
0010
0010
0000
,
0100
0100
0100
0000
,
1000
0000
0010
0000
,
0001
0001
0001
0000
,
1000
0000
0010
0000
,
1000
0000
0010
0000
,
0100
0000
0001
0000
,
0100
0000
0001
0000
,
0010
0000
0001
0000
,
0010
0000
0001
0000
,
1000
0000
0100
0000
,
1000
0000
0110
0000
,
0001
0000
0010
0000
,
0100
0100
0100
0000
,
1000
0000
0001
0000
,
1000
1000
1000
0000
,
0020
0000
0000
0000
0000
0000
0000
0000
0030
0000
0000
0000
,
1000
1000
1000
0000
,
0001
0001
0001
0000
,
0010
0000
0100
0000
,
0010
0010
0010
0000
,
0001
0001
0001
0000
,
0100
0100
0100
0000
,
0010
0000
1000
0000
,
1001
0000
0110
0000
,
0010
0010
0010
0000
,
0100
0100
0100
0000
,
0001
0001
0001
0000
,
1000
1000
1000
0000
,
1000
1000
1000
0000
,
0010
0010
0010
0000
,
0100
0100
0100
0000
,
0110
0000
1001
0000
,
0200
0000
0000
0000
0000
0000
0000
0000
0300
0000
0000
0000
,
0001
0000
1000
0000
,
0010
0010
0010
0000
,
1000
0000
0001
0000
,
0100
0100
0000
1001
;

//---------------dance-single - ----------------
#NOTEDATA:;
#CHARTNAME:;
#STEPSTYPE:dance-single;
#DESCRIPTION:;
#CHARTSTYLE:;
#DIFFICULTY:Challenge;
#METER:17;
#RADARVALUES:0.993535,0.945034,0.278190,0.185460,1.451224,750.000000,720.000000,30.000000,20.000000,0.000000,0.000000,0.000000,0.000000,0.000000,0.993535,0.945034,0.278190,0.185460,1.451224,750.000000,720.000000,30.000000,20.000000,0.000000,0.000000,0.000000,0.000000,0.000000;
#CREDIT:;
#DISPLAYBPM:150.000000;
#NOTES:
// measure 0
0000
0000
0000
0000
,  // measure 1
0000
0000
0000
0000
,  // measure 2
0000
0000
0000
0000
,  // measure 3
0000
0000
0000
0000
,  // measure 4
0010
0000
0001
1000
0001
0000
0100
0000
0010
0000
1000
0000
0100
0001
0100
0010
,  // measure 5
0100
1000
0100
1000
0010
0100
0001
0010
0001
0010
0001
0100
0002
0000
0000
0000
,  // measure 6
1003
0010
1000
0010
1000
0100
1000
0100
0010
0001
0010
0001
0100
0001
0100
0001
,  // measure 7
1000
0010
0100
0001
1000
0100
0010
0001
1000
0100
1000
0000
0001
0100
0001
0000
,  // measure 8
1000
0000
0010
0100
0010
0000
1000
0000
0100
0000
0010
0000
0001
1000
0001
0100
,  // measure 9
0001
0010
0001
0010
0100
1000
0010
1000
0100
0010
0001
1000
0200
0000
0000
0000
,  // measure 10
1300
0001
1000
0001
0010
0100
0010
0100
0010
0001
0010
0001
1000
0100
1000
0100
,  // measure 11
1000
0001
0100
0010
1000
0100
0010
0001
1000
0010
1000
0000
0001
0010
0001
0000
,  // measure 12
1000
0100
1000
0100
1000
0010
1000
0010
1000
0001
1000
0001
1000
0000
0000
0000
,  // measure 13
0010
0100
0010
0100
0001
1000
0001
1000
0001
0010
0100
0000
1100
0000
0000
0000
,  // measure 14
0001
0010
0001
0010
0001
0100
0001
0100
0001
1000
0001
1000
0001
0000
0000
0000
,  // measure 15
1000
0100
1000
0100
0010
0001
0010
0001
0100
0000
1001
0000
0000
0000
0000
0000
,  // measure 16
0010
1000
0010
1000
0001
1000
0001
1000
0100
1000
0100
1000
0100
0000
0010
0001
,  // measure 17
0100
0001
0100
0001
1000
0010
1000
0010
1000
0100
0010
0000
0011
0000
0000
0000
,  // measure 18
0100
0001
0100
0001
0010
0001
0010
0001
1000
0001
1000
0001
1000
0000
0100
1000
,  // measure 19
0010
0100
0001
1000
0100
0010
0001
1000
0010
0000
1001
0000
0000
0000
0000
0000
,  // measure 20
1000
0001
0100
0000
0100
0000
0010
1000
0010
0100
0001
0000
1000
0010
0100
0001
,  // measure 21
1000
0010
1000
0010
0100
0010
0100
0010
0100
0001
0100
0001
2000
0000
0000
0000
,  // measure 22
3001
1000
0010
0000
0010
0000
0100
0001
0100
0010
1000
0000
0001
0100
0001
1000
,  // measure 23
0001
0010
0100
1000
0001
0100
0010
1000
0200
0000
0000
0020
0330
0000
0000
0000
,  // measure 24
0011
0000
1000
0001
0000
0010
0100
1000
0010
1000
0001
0100
,  // measure 25
0001
0010
1000
0001
0100
1000
0010
0100
0001
1000
0000
0000
,  // measure 26
1000
0100
0001
1000
0010
0001
1000
0100
0001
1000
0010
0001
,  // measure 27
0100
0010
1000
0100
0010
0001
1000
0001
1000
0100
0000
0000
,  // measure 28
1100
0000
0001
1000
0000
0010
0100
0001
0010
0001
1000
0100
,  // measure 29
1000
0010
0100
0010
0100
0001
0010
0001
1000
0100
0000
0000
,  // measure 30
1000
0010
0001
1000
0100
0001
1000
0010
0001
1000
0100
0001
,  // measure 31
0010
0100
1000
0010
0100
0001
0010
0001
1000
0100
0000
0000
,  // measure 32
1000
0001
0100
0001
1000
0000
0010
0100
0001
0000
0010
0100
1000
0000
0000
0010
,  // measure 33
0100
0001
0010
0100
1000
0010
1000
0001
0010
0000
0001
1000
0100
0000
0000
1000
,  // measure 34
0010
0100
0001
0100
0010
0000
1000
0001
1000
0000
0100
0010
0001
0000
0000
1000
,  // measure 35
0010
1000
0100
0010
0001
0000
0100
0001
0100
0010
1000
0001
2000
0000
0000
0000
,  // measure 36
3010
0100
0001
0100
0010
0000
1000
0100
1000
0000
0001
0010
0001
0000
0000
1000
,  // measure 37
0001
0010
0001
0100
0010
0100
0010
1000
0100
0000
1000
0001
1000
0000
0000
0010
,  // measure 38
0100
0001
1000
0001
0100
0000
0001
0010
0100
0000
1000
0010
1000
0000
0010
0100
,  // measure 39
0001
0000
0000
0000
0010
0000
0000
0000
1000
0000
0000
0000
0001
0000
0000
0000
0100
0000
0000
0000
1000
0000
0000
0000
0020
0000
0000
0000
0000
0000
0000
0000
0000
0200
0000
0000
0330
0000
0000
0000
0000
0000
0000
0000
0000
0000
0000
0000
,  // measure 40
0001
0010
0100
1000
0001
0000
0100
0010
1000
0100
0010
0001
1000
0000
0001
0100
,  // measure 41
0010
0100
0001
0010
0100
0000
1000
0010
0100
0000
0100
0000
0100
0001
1000
0000
,  // measure 42
0010
0000
1000
0001
1000
0100
0010
0001
0100
0010
0100
0010
1000
0000
0001
0010
,  // measure 43
0001
0100
0010
1000
0001
0000
0100
0000
0010
0000
0010
0000
0010
1000
0001
0000
,  // measure 44
0011
0000
0000
0110
0000
0000
1100
0000
1010
0000
0000
0000
0101
0000
0000
0000
,  // measure 45
1001
0000
0001
0010
0100
1000
0010
0100
0001
1000
0001
0010
0100
0000
1000
0001
,  // measure 46
0010
0001
0010
0100
1000
0010
1000
0001
0100
0000
0010
1000
0001
1000
0100
0000
,  // measure 47
0010
0000
0001
1000
0100
0000
0010
0000
0001
0100
0010
1000
0001
0010
0100
1000
,  // measure 48
0020
0000
0000
0230
0000
0000
0301
0010
0002
0000
1000
0000
2003
0000
0000
0000
,  // measure 49
3010
1000
0100
1000
0010
0100
0001
0010
0001
0100
0001
1000
0200
0000
0000
0000
,  // measure 50
1300
0010
0100
0001
0010
0100
1000
0001
0100
0000
0001
0010
0001
1000
0100
0000
,  // measure 51
1000
0000
0010
0100
0001
0000
1000
0000
0001
1000
0100
0010
0100
0010
0001
1000
,  // measure 52
0002
0000
0000
0000
0003
0000
0010
0100
1000
0000
1001
0000
0110
0000
0000
0000
,  // measure 53
1000
0010
0100
0001
0010
0000
0001
0100
0001
0010
0100
1000
0010
1000
0001
0000
,  // measure 54
1000
0000
1000
0000
1000
0100
0010
0001
0100
0000
0100
0001
0010
0001
0010
0000
,  // measure 55
0001
1000
0001
0010
0100
0010
0001
0100
0010
1000
0100
1000
0001
0000
1000
0100
,  // measure 56
0020
0000
0000
0230
0000
0000
1300
0010
2000
0000
0001
0000
3002
0000
0000
0000
,  // measure 57
0013
0001
0100
0001
0010
0000
0100
1000
0001
1000
0010
1000
0100
1000
0010
0000
,  // measure 58
1010
0000
0000
0000
0101
0000
0000
0000
0011
0000
0000
1100
0000
0000
1001
0000
,  // measure 59
0110
0000
0010
0100
0010
1000
0100
0010
0100
0010
0001
0100
0001
0000
1000
0001
,  // measure 60
2000
0000
0000
0000
3000
0000
0100
0010
0001
0000
0011
0000
1100
0000
0000
0000
,  // measure 61
0002
0000
0000
0010
0000
0000
0100
0000
1003
0000
0000
0000
1001
0000
0000
0000
,  // measure 62
0011
0000
0000
0110
0000
0000
1100
0000
1000
0010
0100
0001
1000
0100
0010
0001
,  // measure 63
0100
0000
0100
0000
0100
0000
0100
0000
0001
1000
0010
1000
0001
0000
0000
0000
,  // measure 64
0101
0000
0000
0110
0000
0000
1010
0000
1000
0100
0010
0001
1000
0010
0100
0001
,  // measure 65
1000
0001
0100
0010
1000
0001
0010
0100
0000
1000
0001
0000
1001
0000
0000
0000
;
