#VERSION:0.83;
#TITLE:Amalgamation;
#SUBTITLE:;
#ARTIST:Mystic Moon;
#TITLETRANSLIT:;
#SUBTITLETRANSLIT:;
#ARTISTTRANSLIT:;
#GENRE:;
#ORIGIN:;
#CREDIT:;
#BANNER:Amalgamation-bn.png;
#BACKGROUND:Amalgamation-bg.png;
#PREVIEWVID:;
#JACKET:Amalgamation-jacket.png;
#CDIMAGE:;
#DISCIMAGE:;
#LYRICSPATH:;
#CDTITLE:;
#MUSIC:Amalgamation.ogg;
#OFFSET:0.000000;
#SAMPLESTART:39.029999;
#SAMPLELENGTH:20.000000;
#SELECTABLE:YES;
#DISPLAYBPM:166.000000;
#BPMS:0.000=165.300,
4.000=166.000;
#STOPS:182.000=1.807;
#DELAYS:;
#WARPS:;
#TIMESIGNATURES:0.000=4=4;
#TICKCOUNTS:0.000=4;
#COMBOS:0.000=1;
#SPEEDS:0.000=1.000=0.000=0;
#SCROLLS:0.000=1.000;
#FAKES:;
#LABELS:0.000=Song Start;
#BGCHANGES:;
#KEYSOUNDS:;
#ATTACKS:
;

//---------------dance-single - ----------------
#NOTEDATA:;
#CHARTNAME:;
#STEPSTYPE:dance-single;
#DESCRIPTION:;
#CHARTSTYLE:;
#DIFFICULTY:Beginner;
#METER:3;
#RADARVALUES:0.207224,0.264177,0.067245,0.067245,0.000000,151.000000,144.000000,7.000000,7.000000,0.000000,0.000000,0.000000,0.000000,0.000000,0.207224,0.264177,0.067245,0.067245,0.000000,151.000000,144.000000,7.000000,7.000000,0.000000,0.000000,0.000000,0.000000,0.000000;
#CREDIT:;
#DISPLAYBPM:166.000000;
#NOTES:
0000
0000
0000
0000
,
0000
0000
0000
0000
,
0000
0000
0000
0000
,
0000
0000
0000
0000
,
0000
0000
0000
0000
,
1000
1000
1000
0000
,
0010
0010
0010
0000
,
0001
0001
0001
0000
,
0010
0010
0010
0000
,
0100
0000
0010
0000
,
1001
0000
0000
0000
,
1000
1000
1000
1000
,
1000
0000
0001
0000
,
0010
0010
0010
0010
,
0010
0000
0100
0000
,
1000
0000
1000
0000
,
0001
0000
0001
0000
,
0100
0000
0100
0000
,
0010
0000
0010
0000
,
0001
0001
0001
0001
,
0001
0000
1000
0000
,
0010
0010
0010
0010
,
0010
0000
0100
0000
,
0001
0000
0001
0000
,
1000
0000
1000
0000
,
0100
0000
0100
0000
,
2002
0000
3003
0000
,
0001
0001
0001
0000
,
0010
0010
0010
0000
,
1000
1000
1000
0000
,
0100
0100
0100
0000
,
1000
1000
1000
0000
,
0010
0010
0010
0000
,
0001
0001
0001
0000
,
0100
0100
0100
0000
,
0010
0000
1001
0000
,
0100
0000
1001
0000
,
0010
0000
1001
0000
,
0000
0000
0000
0000
,
0001
0001
0001
0000
,
0010
0010
0010
0000
,
0100
0100
0100
0000
,
2000
0000
3000
0002
,
0000
0003
0020
0000
,
0000
0000
0000
0000
,
0000
0030
0100
0000
,
0000
0000
0001
0000
,
0000
0000
1000
0000
,
0000
0000
0001
0000
,
0000
0000
1000
0000
,
0010
0000
0001
0000
,
0010
0000
1000
0000
,
0100
0000
0001
0000
,
0100
0000
1000
1000
,
0000
0010
0000
0100
,
0100
0100
0100
0100
,
0000
0001
0000
0010
,
0010
0010
0010
0010
,
0000
0100
0000
1000
,
0000
0001
0000
0010
,
0000
1000
0000
1001
,
0000
0000
0000
0010
,
0010
0010
0000
1000
,
1000
1000
0000
0100
,
0100
0100
0000
0001
,
0001
0001
0000
0010
,
0000
0100
0000
1000
,
0000
0000
0000
2002
,
0000
0000
0000
3003
,
0000
0000
0000
0000
;

//---------------dance-single - ----------------
#NOTEDATA:;
#CHARTNAME:;
#STEPSTYPE:dance-single;
#DESCRIPTION:;
#CHARTSTYLE:;
#DIFFICULTY:Easy;
#METER:7;
#RADARVALUES:0.389746,0.429287,0.336225,0.326618,0.028819,284.000000,249.000000,35.000000,34.000000,0.000000,0.000000,0.000000,0.000000,0.000000,0.389746,0.429287,0.336225,0.326618,0.028819,284.000000,249.000000,35.000000,34.000000,0.000000,0.000000,0.000000,0.000000,0.000000;
#CREDIT:;
#DISPLAYBPM:166.000000;
#NOTES:
0000
0000
0000
0000
,
0000
0000
0000
0000
,
0000
0000
0000
0000
,
0000
0000
0000
0000
,
0000
0000
0000
0000
,
0010
0010
0001
0001
,
0100
0100
0110
0110
,
0001
0001
1000
1000
,
0100
0100
0110
0110
,
0001
0000
1000
0000
0000
0010
0100
0000
,
2002
0000
0000
3003
,
0010
0001
0100
0001
,
0010
0000
0001
0000
1000
0100
0010
0000
,
0001
1000
0010
1000
,
0001
0000
0100
0000
0010
0100
0010
0000
,
2001
0100
0001
3100
,
1002
0100
1000
0103
,
2010
3001
0012
1003
,
0001
0100
1000
0001
,
0010
1000
0100
1000
,
0010
0000
1000
0000
0001
0100
0010
0000
,
1000
0001
0010
0001
,
1000
0000
0100
0000
0010
0100
0010
0000
,
1002
0100
1000
0103
,
2001
0100
0001
3100
,
0012
1003
2010
3001
,
1000
0100
0001
1000
,
0001
0001
0101
0101
,
0010
0010
1100
1100
,
0001
0010
0100
1000
,
0001
0000
0000
0000
0100
0100
0100
0000
,
1000
1000
1100
1100
,
0010
0010
0101
0101
,
1000
0010
0100
0001
,
1000
0000
0000
0000
0100
0100
0100
0000
,
0022
0033
2200
3300
,
2020
3030
0202
0303
,
0220
0330
2002
3003
,
0000
0010
0000
0010
0000
1000
0000
0001
,
0010
0001
0010
0010
,
0100
1000
0100
0100
,
1000
0010
0100
0100
,
0010
0001
0101
0010
,
1000
1100
0010
0100
,
0001
0001
0001
1000
1000
1000
,
0100
0000
0000
0000
0100
0000
0000
0000
0100
0000
0000
0000
2002
3003
0000
0000
0000
0000
0010
0000
0000
0000
0000
0000
,
0001
0100
0001
0010
,
0001
0000
1000
0100
1000
0000
0010
0000
,
1000
0001
0100
0010
,
0000
0000
0100
0010
0100
0000
0001
0000
,
0100
1000
0100
0001
,
0010
1000
0010
2000
,
0010
0001
3100
0002
,
0010
1000
0103
0010
,
0001
0010
0100
1002
,
0103
2001
3100
0010
,
1000
0010
0100
2001
,
3100
1002
0103
0001
,
0010
1000
0100
1000
,
0010
0001
0100
0010
,
1000
0000
0100
0000
0010
0100
0020
0000
,
0000
0000
0030
0100
,
0100
1000
1000
0010
,
0010
0001
0001
1000
,
1000
0100
0100
0001
,
0001
0010
0010
0100
,
0010
0000
0000
0001
1000
0000
0020
0000
,
0030
0100
0100
0000
0010
0000
2002
0000
,
0000
0000
0000
3003
,
0000
0000
0000
0000
;

//---------------dance-single - ----------------
#NOTEDATA:;
#CHARTNAME:;
#STEPSTYPE:dance-single;
#DESCRIPTION:;
#CHARTSTYLE:;
#DIFFICULTY:Medium;
#METER:10;
#RADARVALUES:0.470715,0.495331,0.134490,0.163309,0.067245,343.000000,329.000000,14.000000,17.000000,0.000000,0.000000,0.000000,0.000000,0.000000,0.470715,0.495331,0.134490,0.163309,0.067245,343.000000,329.000000,14.000000,17.000000,0.000000,0.000000,0.000000,0.000000,0.000000;
#CREDIT:;
#DISPLAYBPM:166.000000;
#NOTES:
0000
0000
0000
0000
,
0000
0000
0000
0000
,
0000
0000
0000
0000
,
0000
0000
0000
0000
,
0000
0000
0000
0000
,
0010
0010
1000
1000
,
0100
0100
0011
1100
,
0010
0010
0001
0001
,
0100
0100
1100
0101
,
0010
0000
0000
0000
0100
0000
0000
0001
0000
0000
0010
0000
0100
0000
2000
0000
,
0002
0000
0000
3003
,
0010
0000
1000
0001
0100
0000
0010
1000
,
0100
0000
1000
0000
0001
0100
0010
0000
,
1000
0001
0010
0100
1000
0000
0001
0000
,
1000
0100
0001
0100
,
1000
0010
0100
0010
1000
0010
0100
0000
,
0001
0010
0100
0010
0001
0010
0100
0000
,
1000
0010
0100
0010
1000
0010
0100
0000
,
0001
1000
0100
0001
,
0010
0000
0001
1000
0100
0000
0010
0001
,
0100
0000
0001
0000
1000
0100
0010
0000
,
0001
1000
0010
0100
0001
0000
1000
0000
,
0001
0100
1000
0100
,
0001
0010
0100
0010
0001
0010
0100
0000
,
1000
0010
0100
0010
1000
0010
0100
0000
,
0001
0010
0100
0010
0001
0010
0100
0000
,
1000
0001
0100
0100
,
1000
0010
1000
0000
0100
1000
0100
0000
,
0010
0100
1000
0000
0010
1000
0100
0000
,
1000
0001
1000
0100
,
0001
0000
0010
0000
0100
0100
0010
0000
,
0001
0010
0001
0000
0100
0001
0100
0000
,
0010
0100
0001
0000
0010
0001
0100
0000
,
0001
1000
0001
0100
,
1000
0000
0010
0000
0100
0100
0010
0000
,
2020
0000
0000
0000
3030
0000
0000
0000
0001
0000
0000
0001
0000
0000
0001
0000
,
0220
0000
0000
0000
0330
0000
0000
0000
1000
0000
0000
1000
0000
0000
1000
0000
,
0202
0000
0000
0000
0303
0000
0000
0000
0010
0000
0000
0010
0000
0000
0010
0000
,
0000
0100
0000
0001
0000
1000
0000
0100
,
0010
0000
0000
0000
0001
0000
1000
0000
0010
0000
0000
0010
0000
0000
0010
0000
,
0100
0000
0000
0000
0001
0000
1000
0000
0100
0000
0000
0100
0000
0000
0100
0000
,
1000
0000
0000
0000
0001
0000
0100
0000
1000
0000
0000
1000
0000
0000
1000
0000
,
0010
1000
1100
0010
,
0001
0101
0010
0100
,
1000
0010
0100
0001
0010
0100
,
1000
0000
0000
0000
0001
0000
0000
0000
0100
0000
0000
0000
2002
3003
0000
0000
0000
0000
0010
0000
0000
0000
0000
0000
,
1000
0001
0100
0000
0010
1000
0100
0000
,
1000
0000
0001
0100
0010
0000
1000
0001
,
0010
0100
1000
0000
0001
0000
1000
0000
,
0100
0000
0001
0000
0100
0000
1000
0010
,
0100
0000
0001
0010
0100
0000
1000
0001
,
0100
0000
0010
1000
0100
0000
0010
0001
,
0010
0001
0100
0001
0010
0001
1000
0000
,
0010
0000
0001
0000
0100
0000
0010
1000
,
0100
1000
0010
0000
0100
0000
1020
0000
,
0130
0000
0021
0000
0130
0000
0010
0001
,
0100
0001
0010
0000
0100
0000
0021
0000
,
0130
0000
1020
0000
0130
0000
1000
0100
,
0001
0000
0001
0100
1000
0000
1000
0010
,
0001
0000
0001
0010
1000
0000
0010
0100
,
0001
1000
0100
0000
0010
0100
1000
0000
,
0000
0001
0001
0010
,
0010
0001
0001
0100
,
0100
0000
0010
0001
1000
0001
0010
0000
,
0010
1000
1000
0100
,
0100
0000
0010
1000
0001
1000
0010
0000
,
0100
0000
0000
0001
0000
0000
0010
0000
0100
0000
2000
0000
0002
0000
0000
0000
,
3003
0100
0010
1000
0100
0010
0200
0000
,
0000
0000
0000
0300
,
0000
0000
0000
0000
;

//---------------dance-single - ----------------
#NOTEDATA:;
#CHARTNAME:;
#STEPSTYPE:dance-single;
#DESCRIPTION:;
#CHARTSTYLE:;
#DIFFICULTY:Hard;
#METER:13;
#RADARVALUES:0.629907,0.792530,0.220948,0.124884,0.345831,459.000000,436.000000,23.000000,13.000000,0.000000,0.000000,0.000000,0.000000,0.000000,0.629907,0.792530,0.220948,0.124884,0.345831,459.000000,436.000000,23.000000,13.000000,0.000000,0.000000,0.000000,0.000000,0.000000;
#CREDIT:;
#DISPLAYBPM:166.000000;
#NOTES:
0000
0000
0000
0000
,
0000
0000
0000
0000
,
0000
0000
0000
0000
,
0000
0000
0000
0000
,
0000
0000
0000
0000
,
0010
0010
0001
0001
,
0100
0100
1010
0011
,
0100
0100
1000
1000
,
0010
0010
0101
1100
,
0010
0000
0000
0000
0100
0000
0000
1000
0000
0000
0010
0000
0100
0000
0002
0000
,
2000
0000
0000
3003
,
0010
1000
0001
1000
0100
0000
0010
0001
,
0100
0000
0001
0000
1000
0100
0010
0001
,
1000
0001
1000
0000
0010
0000
0100
0000
0001
0000
1000
0000
0100
0000
0010
0000
,
0001
0100
1000
0100
,
0001
0000
0010
0000
0100
0000
0010
0000
0001
0000
0010
0000
0100
0000
1000
0001
,
1000
0000
0010
0000
0100
0000
0010
0000
1000
0000
0010
0000
0100
0000
0001
1000
,
0001
0000
0010
0000
0100
0000
0010
0000
0001
0000
0010
0000
0100
0000
0010
0001
,
1000
0000
0001
0000
0100
0010
1000
0001
,
0010
0001
1000
0001
0100
0000
0010
1000
,
0100
0000
1000
0000
0001
0100
0010
1000
,
0001
1000
0001
0000
0010
0000
0100
0000
1000
0000
0001
0000
0100
0000
0010
0000
,
1000
0100
0001
0100
,
1000
0000
0010
0000
0100
0000
0010
0000
1000
0000
0010
0000
0100
0000
0001
1000
,
0001
0000
0010
0000
0100
0000
0010
0000
0001
0000
0010
0000
0100
0000
1000
0001
,
1000
0000
0010
0000
0100
0000
0010
0000
1000
0000
0010
0000
0100
0000
0010
1000
,
0001
0000
1000
0000
0100
0010
0100
0010
,
0001
0000
0000
0001
0010
0000
0000
0010
0100
0000
0000
0100
1000
0000
0000
1000
,
0001
0000
0000
0001
0100
0000
0000
0100
0010
0000
0000
0010
1000
0000
0000
1000
,
0001
0100
0001
0000
1000
0000
0100
0000
0001
0000
0000
0000
0100
0000
1000
0001
,
1000
0000
0010
0000
0100
0100
0010
0010
,
1000
0000
0000
1000
0010
0000
0000
0010
0100
0000
0000
0100
0001
0000
0000
0001
,
1000
0000
0000
1000
0100
0000
0000
0100
0010
0000
0000
0010
0001
0000
0000
0001
,
1000
0100
1000
0000
0001
0000
0100
0000
1000
0000
0000
0000
0100
0000
0001
1000
,
0001
0000
0010
0000
0100
0100
0010
0010
,
0022
0000
0000
0000
0033
0000
0000
0000
1000
0000
0000
0010
0000
0000
0100
0000
,
0220
0000
0000
0000
0330
0000
0000
0000
0001
0000
0000
1000
0000
0000
0100
0000
,
2200
0000
0000
0000
3300
0000
0000
0000
0010
0000
0000
0001
0000
0000
1000
0000
,
0000
0110
0000
1001
0000
0110
0001
1000
,
0100
0000
0010
0001
0010
0000
0100
0000
1010
0000
0000
0110
0000
0000
0101
0000
,
0010
0000
1000
0001
1000
0000
0100
0000
0110
0000
0000
1100
0000
0000
0101
0000
,
0010
0000
0100
0001
0100
0000
0010
0000
1010
0000
0000
1001
0000
0000
0011
0000
,
0100
1000
0100
0010
0001
0100
0010
0000
0000
1000
0001
1000
,
0010
0100
0001
1000
0000
0000
0001
0010
0001
1000
0100
1000
,
0001
0010
1100
0010
1000
0101
,
0010
0000
0000
0000
0100
0000
0000
0000
1001
0000
0000
0000
0220
0330
0000
0000
0000
0000
0010
0000
0000
1000
0000
0000
,
0001
1000
0100
0000
0010
0001
0100
0000
,
0001
0000
0000
0000
1000
0000
0100
0000
0010
0000
0001
0000
1000
0001
1000
0000
,
0010
0100
0001
0000
1000
0100
0010
0000
,
0100
0000
1000
0000
0100
0000
0001
0010
,
0100
0000
1000
0000
0010
0000
0100
0000
0001
0000
0010
0001
1000
0000
0010
0000
,
0100
0000
0001
0000
1000
0000
0100
0000
0010
0000
0001
1000
0100
0000
0010
0000
,
0100
0000
0010
0000
0001
0000
0010
0000
0100
0000
1000
0010
0100
0000
0000
0000
,
0001
0000
0100
0010
1000
0001
0010
0001
,
0100
0000
0001
0000
0010
0000
0100
0000
1000
0000
0001
0000
0100
0000
0010
0100
,
0010
0000
1000
0100
1000
0000
0001
0010
0001
0000
0100
0001
0100
0000
0010
0000
,
1000
0000
0001
0000
0010
0000
0100
0000
1000
0000
0001
0000
0100
0000
0010
1000
,
0010
0000
0100
0001
0100
0000
0010
0100
0010
0000
1000
0000
0001
0000
0100
0000
,
1000
0100
0001
0100
1000
0100
0001
0010
,
1000
0000
0010
0000
0001
0000
0010
0000
1000
0000
0010
0001
0010
0000
0100
0000
,
1000
0001
0100
0000
0010
0100
0001
0000
,
0000
0000
1000
1000
1000
1000
0010
0000
,
0010
0000
0000
0000
1000
0000
0000
0000
1000
0000
0000
0001
0100
0000
0000
0000
,
0100
0000
0010
1000
0001
1000
0010
0000
,
0010
0000
0000
0000
0001
0000
0000
0000
0001
0000
0000
1000
0100
0000
0000
0000
,
0100
0000
0010
0001
1000
0001
0010
0000
,
0100
0000
0000
1000
0000
0000
0010
0000
0100
0000
0002
0000
2000
0000
0000
0000
,
3003
0000
0100
0010
0100
0000
1000
0000
0010
0000
0100
0000
0020
0000
0000
0000
,
0000
0000
0000
0030
,
0000
0000
0000
0000
;

//---------------dance-single - ----------------
#NOTEDATA:;
#CHARTNAME:;
#STEPSTYPE:dance-single;
#DESCRIPTION:;
#CHARTSTYLE:;
#DIFFICULTY:Challenge;
#METER:15;
#RADARVALUES:0.730088,0.990663,0.403470,0.134490,0.581189,532.000000,490.000000,42.000000,14.000000,0.000000,0.000000,0.000000,0.000000,0.000000,0.730088,0.990663,0.403470,0.134490,0.581189,532.000000,490.000000,42.000000,14.000000,0.000000,0.000000,0.000000,0.000000,0.000000;
#CREDIT:;
#DISPLAYBPM:166.000000;
#NOTES:
0000
0000
0000
0000
,
0000
0000
0000
0000
,
0000
0000
0000
0000
,
0000
0000
0000
0000
,
0000
0000
0000
0000
,
0010
0010
1000
1000
,
0100
0100
0011
1010
,
0100
0100
0001
0001
,
0010
0010
1100
0101
,
0010
0000
0000
0000
0100
0000
0000
0001
0000
0010
0100
0000
1000
0000
0002
0000
,
2000
0000
0000
3003
,
0010
0000
0001
1000
0001
0000
0100
0000
0010
0000
1000
0000
0001
0000
1000
0000
,
0100
0000
0000
0000
1000
0000
0000
0000
0001
1000
0100
0000
0010
0000
0001
0000
,
1000
0001
0100
0000
0010
0000
1000
0000
0001
0000
0100
0000
0010
0000
1000
0000
,
0100
0001
0010
0100
,
1000
0000
0010
1000
0001
0000
1000
0000
0100
0000
0010
0100
1000
0000
0001
0000
,
0100
0000
0001
1000
0100
0000
0010
0000
0001
0000
1000
0010
0100
0000
0001
0000
,
1000
0000
0010
0100
0001
0000
1000
0000
0100
0000
0010
0001
1000
0000
0100
0000
,
1000
0000
0100
0000
0010
0001
0100
0001
,
0010
0000
1000
0001
1000
0000
0100
0000
0010
0000
0001
0000
1000
0000
0001
0000
,
0100
0000
0000
0000
0001
0000
0000
0000
1000
0001
0100
0000
0010
0000
1000
0000
,
0001
1000
0100
0000
0010
0000
0001
0000
1000
0000
0100
0000
0010
0000
0001
0000
,
0100
1000
0010
0100
,
0001
0000
0010
0001
1000
0000
0001
0000
0100
0000
0010
0100
0001
0000
1000
0000
,
0100
0000
1000
0001
0100
0000
0010
0000
1000
0000
0001
0010
0100
0000
1000
0000
,
0001
0000
0010
0100
1000
0000
0001
0000
0100
0000
0010
1000
0001
0000
0100
0000
,
1000
0000
0100
0000
0010
0100
0010
0100
,
1001
0000
0000
1000
0010
0000
0000
0010
0001
0000
0000
0001
1000
0000
0000
1000
,
0100
0000
0000
0100
0001
0000
0000
0001
1000
0000
0000
1000
0100
0000
0000
0100
,
1000
0100
1000
0000
0001
0000
0100
0000
1000
0000
0000
0000
0100
0000
0001
1000
,
0001
0000
0010
0000
1100
0110
0011
0101
,
1001
0000
0000
0001
0010
0000
0000
0010
1000
0000
0000
1000
0001
0000
0000
0001
,
0100
0000
0000
0100
1000
0000
0000
1000
0001
0000
0000
0001
0100
0000
0000
0100
,
0001
0100
0001
0000
1000
0000
0100
0000
0001
0000
0000
0000
0100
0000
1000
0001
,
1000
0000
0010
0000
0101
0110
1010
1100
,
2020
0000
0000
0000
3030
0000
0000
0000
0001
0000
0000
0010
0000
0000
0100
0000
,
0220
0000
0000
0000
0330
0000
0000
0000
1000
0000
0000
0001
0000
0000
0100
0000
,
0202
0000
0000
0000
0303
0000
0000
0000
0010
0000
0000
1000
0000
0000
0001
0000
,
0000
0110
0000
1001
0000
0110
1000
0001
,
0100
0000
0010
1000
0010
0100
0010
1000
0001
0000
0000
0110
0000
0000
1100
0000
,
0010
0000
0001
1000
0001
0100
0010
1000
0100
0000
0000
0101
0000
0000
1100
0000
,
0010
0000
0100
1000
0100
0010
0100
0010
0001
0000
0000
1001
0000
0000
1010
0000
,
0100
0001
0100
0010
1000
0100
0110
0000
0000
0001
1000
0001
,
0010
0100
1000
1001
0000
0000
1000
0010
1000
0001
0100
0001
,
1010
0110
0101
0011
0110
1100
,
1010
0000
0000
0000
0011
0000
0000
0000
1001
0000
0000
0000
0220
0330
0000
0000
0000
0000
0010
0000
0000
0001
0000
0000
,
1000
0001
0100
0000
0010
1000
0100
0000
,
1000
0000
0000
0000
0001
0000
0100
0000
0010
0000
1000
0000
0001
1000
0001
0000
,
0010
0100
1000
0000
0001
0100
0010
0000
,
0100
0000
0000
0000
0001
0000
0000
0000
0100
0000
0000
0000
1000
0000
0010
1000
,
0100
0000
0010
0001
0100
0000
0010
0100
0001
0000
0010
0001
1000
0000
0010
1000
,
0100
0000
1000
0001
0010
0000
0100
1000
0010
0000
1000
0001
0100
0000
0010
1000
,
0100
0000
0010
0100
1000
0000
0010
1000
0001
0000
0100
0001
0010
0000
0100
1000
,
0001
0000
0100
0000
0101
0000
0110
0000
1010
0000
1001
0000
0010
0000
1000
0100
,
1000
0000
0001
0000
0010
0000
0100
1000
0100
0000
1000
0000
0100
0000
0010
0001
,
1000
0000
0001
1000
0100
0000
1000
0001
0100
0000
0010
1000
0010
0000
0100
0001
,
0100
0000
0010
0000
1000
0000
0001
1000
0001
0000
1000
0000
0100
0000
0010
0001
,
0100
0000
0010
1000
0100
0000
0010
0100
0010
0000
0001
0000
1000
0001
0100
0001
,
1000
0100
0010
0000
0001
0100
0010
0100
0001
1000
0100
0000
1000
0001
0010
0001
,
1000
0001
0100
0000
0010
1000
0100
0010
0001
0100
0010
1000
0010
0000
0100
0000
,
0001
0000
1000
0000
0100
0000
0010
0100
0010
0000
0100
0000
2000
0000
0000
0000
,
0000
0000
0001
0001
0001
3001
0010
0000
,
0010
0000
0000
0000
0001
0000
0000
0000
0001
0000
0000
1000
0100
0000
0000
0000
,
0100
0000
0010
0001
1000
0001
0010
0000
,
0010
0000
0000
0000
1000
0000
0000
0000
1000
0000
0000
0001
0100
0000
0000
0000
,
0100
0000
0010
1000
0001
1000
0010
0000
,
0100
0000
0000
0001
0000
0010
0100
0000
1000
0000
0002
0000
2000
0000
0000
0000
,
3003
0000
0100
0010
0100
1000
0001
0100
0010
1000
0100
0010
0200
0000
0000
0000
,
0000
0000
0000
0300
,
0000
0000
0000
0000
;

//---------------dance-double - ----------------
#NOTEDATA:;
#CHARTNAME:;
#STEPSTYPE:dance-double;
#DESCRIPTION:;
#CHARTSTYLE:;
#DIFFICULTY:Easy;
#METER:7;
#RADARVALUES:0.366416,0.462309,0.182522,0.163309,0.028819,267.000000,248.000000,19.000000,17.000000,0.000000,0.000000,0.000000,0.000000,0.000000,0.366416,0.462309,0.182522,0.163309,0.028819,267.000000,248.000000,19.000000,17.000000,0.000000,0.000000,0.000000,0.000000,0.000000;
#CREDIT:;
#DISPLAYBPM:166.000000;
#NOTES:
00000000
00000000
00000000
00000000
,
00000000
00000000
00000000
00000000
,
00000000
00000000
00000000
00000000
,
00000000
00000000
00000000
00000000
,
00000000
00000000
00000000
00000000
,
00000010
00000010
00001000
00001000
,
00000100
00000100
00000110
00001001
,
00000100
00000100
00001000
00001000
,
00010000
00010000
00011000
00110000
,
00010000
00000000
10000000
00000000
00000000
00100000
01000000
00000000
,
20020000
00000000
00000000
30030000
,
00100000
10000000
01000000
10000000
,
00100000
00000000
00010000
00000000
00001000
00010000
00001000
00000000
,
00000100
00000001
00001000
00000100
,
00000010
00000000
00000001
00000000
00001000
00000001
00001000
00000000
,
00000001
00000100
00001000
00000100
,
00001000
00010000
00100000
00010000
,
00100000
10000000
00010000
10000000
,
01000000
00100000
00010000
10000000
,
01000000
00010000
00001000
00000100
,
00000010
00000000
00001000
00000000
00000001
00000010
00000100
00000000
,
00000010
00000001
00001000
00000010
,
00000100
00000000
00001000
00000000
00010000
00001000
00010000
00000000
,
00002000
00103000
00002000
01003000
,
00002000
00103000
00002000
01003000
,
00001000
00010000
01000000
10000000
,
10100000
00000000
01000000
01000000
,
10010000
10010000
00100000
00100000
,
00011000
00011000
00000100
00000100
,
00001001
00001001
00000100
00000001
,
00001000
00000000
00000000
00000000
00000100
00000100
00000100
00000000
,
00001001
00001001
00000010
00000010
,
00011000
00011000
01000000
01000000
,
10010000
10010000
01000000
10000000
,
00010000
00000000
00000000
00000000
01000000
01000000
01000000
00000000
,
00200000
00300000
02000000
03000000
,
00002000
00003000
00020000
00030000
,
00000020
00000030
00000200
00000300
,
00000000
00000010
00000000
00000010
00000000
00001000
00000000
00000001
,
00000010
00001000
00010000
00010000
,
01000000
10000000
00010000
00010000
,
01000000
00100000
10000000
10000000
,
00010000
10000000
01000000
00010000
,
00001000
00010000
00000100
00001000
,
00000010
00000010
00000010
00000100
00000100
00000100
,
00000001
00000000
00000000
00000000
00000001
00000000
00000000
00000000
00000001
00000000
00000000
00000000
00002000
00003000
00000000
00000000
00000000
00000000
00000010
00000000
00000000
00000000
00000000
00000000
,
00001000
00000100
00001000
00000010
,
00000100
00000000
00001000
00010000
00001000
00000000
00010000
00000000
,
00100000
01000000
00010000
00100000
,
00000000
00000000
01000000
00100000
01000000
00000000
10000000
00000000
,
01000000
00010000
00001000
00000010
,
00000001
00000010
00001000
00010000
,
00001000
00000100
00000001
00000010
,
00000100
00000010
00001000
00010000
,
00001000
01000000
00100000
10000000
,
10000000
01000000
01000000
00100000
,
00001000
01000000
00010000
00100000
,
00010000
00001000
00000100
00000010
,
00000100
00001000
00000010
00000100
,
00000001
00000010
00001000
00010000
,
01000000
00000000
10000000
00000000
00100000
01000000
00200000
00000000
,
00000000
00000000
00300000
01000000
,
01000000
00010000
00010000
00001000
,
00001000
00000100
00000100
00000001
,
00000001
00000010
00000010
00001000
,
00001000
00010000
00010000
01000000
,
00100000
00000000
00000000
00010000
10000000
00000000
00200000
00000000
,
00300000
01000000
01000000
00000000
00001000
00000000
00022000
00000000
,
00000000
00000000
00000000
00033000
,
00000000
00000000
00000000
00000000
;

//---------------dance-double - ----------------
#NOTEDATA:;
#CHARTNAME:;
#STEPSTYPE:dance-double;
#DESCRIPTION:;
#CHARTSTYLE:;
#DIFFICULTY:Medium;
#METER:10;
#RADARVALUES:0.454247,0.495331,0.096064,0.163309,0.067245,331.000000,321.000000,10.000000,17.000000,0.000000,0.000000,0.000000,0.000000,0.000000,0.454247,0.495331,0.096064,0.163309,0.067245,331.000000,321.000000,10.000000,17.000000,0.000000,0.000000,0.000000,0.000000,0.000000;
#CREDIT:;
#DISPLAYBPM:166.000000;
#NOTES:
00000000
00000000
00000000
00000000
,
00000000
00000000
00000000
00000000
,
00000000
00000000
00000000
00000000
,
00000000
00000000
00000000
00000000
,
00000000
00000000
00000000
00000000
,
00100000
00100000
10000000
10000000
,
01000000
01000000
01010000
00011000
,
00000010
00000010
00000001
00000001
,
00000100
00000100
00001100
00011000
,
00100000
00000000
00000000
00000000
01000000
00000000
00000000
10000000
00000000
00000000
00100000
00000000
01000000
00000000
00020000
00000000
,
20000000
00000000
00000000
30030000
,
00100000
00000000
10000000
00010000
01000000
00000000
00001000
00010000
,
00001000
00000000
00000100
00000000
00000001
00000010
00000100
00000000
,
00000010
00000001
00000100
00000010
00001000
00000000
00010000
00000000
,
01000000
00000000
00100000
01000000
,
00100000
10000000
01000000
00000000
00100000
00010000
01000000
00000000
,
00100000
00010000
00001000
00000000
00000100
00000010
00001000
00000000
,
00000001
00000010
00000100
00000010
00000001
00000010
00000100
00000000
,
00010000
00001000
01000000
00010000
,
00100000
00000000
00010000
10000000
01000000
00000000
00100000
00010000
,
01000000
00000000
00100000
00000000
00010000
00001000
00010000
00000000
,
00001000
00000100
00000010
00001000
00000100
00000000
00000010
00000000
,
00000001
00000000
00001000
00000010
,
00000100
00000001
00000010
00000000
00000100
00001000
00000010
00000000
,
00000100
00001000
00010000
00000000
00001000
00010000
01000000
00000000
,
00100000
00010000
10000000
00100000
01000000
00000000
00100000
01000000
,
00100000
00000000
01000000
01000000
,
00100000
10000000
00100000
00000000
10000000
01000000
10000000
00000000
,
01000000
00010000
01000000
00000000
00010000
00001000
00010000
00000000
,
00001000
00000100
00000001
00000010
,
00000001
00000000
00001000
00000000
00000100
00000100
00000100
00000000
,
00000010
00000001
00000010
00000000
00000001
00000100
00000001
00000000
,
00000100
00001000
00000100
00000000
00001000
00010000
00001000
00000000
,
00010000
01000000
10000000
00100000
,
10000000
00000000
00010000
00000000
01000000
01000000
01000000
00000000
,
20200000
00000000
00000000
00000000
30300000
00000000
00000000
00000000
00010000
00000000
00000000
00010000
00000000
00000000
00010000
00000000
,
02200000
00000000
00000000
00000000
03300000
00000000
00000000
00000000
00001000
00000000
00000000
00001000
00000000
00000000
00001000
00000000
,
00022000
00000000
00000000
00000000
00033000
00000000
00000000
00000000
00000010
00000000
00000000
00000010
00000000
00000000
00000010
00000000
,
00000000
00000100
00000000
00000001
00000000
00001000
00000000
00000100
,
00000010
00000000
00000000
00000000
00000001
00000000
00000100
00000000
00000010
00000000
00000000
00000010
00000000
00000000
00000010
00000000
,
00010000
00000000
00000000
00000000
00001000
00000000
01000000
00000000
00100000
00000000
00000000
00100000
00000000
00000000
00100000
00000000
,
10000000
00000000
00000000
00000000
00010000
00000000
00100000
00000000
01000000
00000000
00000000
01000000
00000000
00000000
01000000
00000000
,
00100000
00001000
00011000
00000100
,
00010000
00011000
00000100
00000001
,
00000010
00000100
00001000
00000010
00000100
00000001
,
00000100
00000000
00000000
00000000
00001000
00000000
00000000
00000000
00010000
00000000
00000000
00000000
00022000
00033000
00000000
00000000
00000000
00000000
00100000
00000000
00000000
00000000
00000000
00000000
,
10000000
00010000
01000000
00000000
00001000
00010000
00001000
00000000
,
00000100
00000000
00000001
00000010
00000100
00000000
00000010
00000001
,
00000100
00000010
00001000
00000000
00010000
00000000
01000000
00000000
,
00000000
00000000
00100000
00000000
01000000
00000000
00100000
10000000
,
01000000
00000000
00100000
00001000
00010000
00000000
00000010
00000100
,
00000001
00000000
00000010
00000100
00001000
00000000
00000010
00000100
,
00000010
00000100
00001000
00010000
00001000
00100000
00010000
00000000
,
10000000
00000000
00100000
00000000
01000000
00000000
00100000
10000000
,
01000000
10000000
00100000
00000000
00010000
00000000
00002000
00000000
,
00103000
00000000
00002000
00000000
01003000
00000000
00100000
00010000
,
00001000
00000100
00000010
00000000
00001000
00000000
00000002
00000000
,
00000013
00000000
00000002
00000000
00001003
00000000
00000001
00001000
,
00000100
00000000
00001000
00000001
00000100
00000000
00001000
00010000
,
00001000
00000000
00100000
00010000
10000000
00000000
00100000
01000000
,
00010000
10000000
01000000
00000000
00010000
01000000
10000000
00000000
,
00000000
00010000
00010000
00100000
,
00100000
01000000
01000000
00010000
,
00010000
00000000
00001000
00010000
00001000
00010000
00001000
00000000
,
00001000
00000100
00000100
00000001
,
00000001
00000000
00000010
00000100
00000010
00000100
00000010
00000000
,
00000001
00000000
00000000
00001000
00000000
00000000
00000010
00000000
00000100
00000000
00002000
00000000
00020000
00000000
00000000
00000000
,
00033000
01000000
00100000
00010000
01000000
00100000
20000000
00000000
,
00000000
00000000
00000000
30000000
,
00000000
00000000
00000000
00000000
;

//---------------dance-double - ----------------
#NOTEDATA:;
#CHARTNAME:;
#STEPSTYPE:dance-double;
#DESCRIPTION:;
#CHARTSTYLE:;
#DIFFICULTY:Hard;
#METER:13;
#RADARVALUES:0.616184,0.693464,0.134490,0.124884,0.345831,449.000000,435.000000,14.000000,13.000000,0.000000,0.000000,0.000000,0.000000,0.000000,0.616184,0.693464,0.134490,0.124884,0.345831,449.000000,435.000000,14.000000,13.000000,0.000000,0.000000,0.000000,0.000000,0.000000;
#CREDIT:;
#DISPLAYBPM:166.000000;
#NOTES:
00000000
00000000
00000000
00000000
,
00000000
00000000
00000000
00000000
,
00000000
00000000
00000000
00000000
,
00000000
00000000
00000000
00000000
,
00000000
00000000
00000000
00000000
,
00000010
00000010
00001000
00001000
,
00000001
00000001
00001100
00011000
,
01000000
01000000
10000000
10000000
,
00100000
00100000
01010000
00011000
,
00000010
00000000
00000000
00000000
00000100
00000000
00000000
00000001
00000000
00000000
00000010
00000000
00000100
00000000
00002000
00000000
,
00000002
00000000
00000000
00003003
,
00000010
00000001
00001000
00000001
00000100
00000000
00001000
00010000
,
00001000
00000000
01000000
00000000
00100000
10000000
00010000
00100000
,
01000000
10000000
01000000
00000000
00100000
00000000
00001000
00000000
00010000
00000000
00000100
00000000
00000010
00000000
00000001
00000000
,
00001000
00000010
00000100
00000001
,
00001000
00000000
00000010
00000000
00000100
00000000
00000010
00000000
00010000
00000000
00000100
00000000
00001000
00000000
00000100
00010000
,
00001000
00000000
00100000
00000000
00010000
00000000
00100000
00000000
01000000
00000000
10000000
00000000
00010000
00000000
10000000
00100000
,
01000000
00000000
00100000
00000000
10000000
00000000
00100000
00000000
01000000
00000000
00001000
00000000
00010000
00000000
00001000
00010000
,
00001000
00000000
00000100
00000000
00000001
00000010
00000100
00001000
,
00000010
00001000
00000001
00001000
00000100
00000000
00000010
00001000
,
00010000
00000000
01000000
00000000
00100000
00010000
10000000
00100000
,
01000000
00100000
01000000
00000000
00010000
00000000
10000000
00000000
01000000
00000000
00010000
00000000
00001000
00000000
00000010
00000000
,
00000100
00001000
00000010
00001000
,
00000001
00000000
00000010
00000000
00000100
00000000
00000010
00000000
00000001
00000000
00000100
00000000
00001000
00000000
00010000
00001000
,
00010000
00000000
01000000
00000000
10000000
00000000
01000000
00000000
00100000
00000000
00010000
00000000
10000000
00000000
00010000
01000000
,
00010000
00000000
10000000
00000000
00100000
00000000
01000000
00000000
00001000
00000000
00010000
00000000
00000100
00000000
00000010
00000100
,
00001000
00000000
00000001
00000000
00000100
00000010
00000100
00000010
,
00001000
00000000
00000000
00001000
00000010
00000000
00000000
00000010
00010000
00000000
00000000
00010000
00001000
00000000
00000000
00001000
,
00100000
00000000
00000000
00100000
01000000
00000000
00000000
01000000
10000000
00000000
00000000
10000000
00010000
00000000
00000000
00010000
,
01000000
00100000
01000000
00000000
00010000
00000000
10000000
00000000
01000000
00000000
00000000
00000000
00100000
00000000
01000000
00100000
,
01000000
00000000
00010000
00000000
00001000
00000010
00000001
00000100
,
00000001
00000000
00000000
00000001
00000010
00000000
00000000
00000010
00000100
00000000
00000000
00000100
00000010
00000000
00000000
00000010
,
00001000
00000000
00000000
00001000
00010000
00000000
00000000
00010000
01000000
00000000
00000000
01000000
10000000
00000000
00000000
10000000
,
00010000
01000000
00010000
00000000
00100000
00000000
00010000
00000000
01000000
00000000
00000000
00000000
00100000
00000000
10000000
01000000
,
10000000
00000000
01000000
00000000
00010000
00001000
00000100
00000010
,
00002002
00000000
00000000
00000000
00003003
00000000
00000000
00000000
00000001
00000000
00000000
00000010
00000000
00000000
00000100
00000000
,
00000220
00000000
00000000
00000000
00000330
00000000
00000000
00000000
00010000
00000000
00000000
00001000
00000000
00000000
01000000
00000000
,
02020000
00000000
00000000
00000000
03030000
00000000
00000000
00000000
00100000
00000000
00000000
01000000
00000000
00000000
00010000
00000000
,
00000000
11000000
00000000
01010000
00000000
01100000
10000000
01000000
,
00100000
00000000
00001000
00010000
00001000
00000000
00010000
00000000
00000100
00000000
00000000
00000010
00000000
00000000
00000001
00000000
,
00001000
00000000
00000010
00000100
00000010
00000000
00000100
00000000
00001000
00000000
00000000
00010000
00000000
00000000
00100000
00000000
,
10000000
00000000
00010000
01000000
00010000
00000000
00100000
00000000
00010000
00000000
00000000
10000000
00000000
00000000
01000000
00000000
,
00100000
01000000
10000000
01000000
00100000
01000000
10000000
00000000
00000000
00010000
01000000
00100000
,
01000000
00010000
01000000
00100000
00000000
00000000
00010000
00000010
00001000
00000010
00010000
00000010
,
00001000
00000010
00000101
00000010
00000001
00001100
,
00010000
00000000
00000000
00000000
00001000
00000000
00000000
00000000
00011000
00000000
00000000
00000000
02020000
03030000
00000000
00000000
00000000
00000000
00100000
00000000
00000000
10000000
00000000
00000000
,
00010000
10000000
01000000
00000000
00010000
00001000
00010000
00000000
,
00000100
00000000
00000000
00000000
00000010
00000000
00000001
00000000
00001000
00000000
00000010
00000000
00000100
00000001
00000100
00000000
,
00000010
00010000
00001000
00000000
01000000
00100000
10000000
00000000
,
00010000
00000000
00100000
00000000
01000000
00000000
00100000
00010000
,
10000000
00000000
00100000
00000000
00010000
00000000
00001000
00000000
00000100
00000000
00000010
00001000
00000001
00000000
00000010
00000000
,
00000100
00000000
00001000
00000000
00000001
00000000
00000100
00000000
00001000
00000000
00010000
00001000
00010000
00000000
01000000
00000000
,
10000000
00000000
01000000
00000000
00100000
00000000
01000000
00000000
00010000
00000000
01000000
00100000
00010000
00000000
00000000
00000000
,
10000000
00000000
00100000
01000000
00001000
00010000
00000010
00001000
,
00000100
00000000
00001000
00000000
00000001
00000000
00000010
00000000
00000100
00000000
00001000
00000000
00000100
00000000
00010000
00001000
,
00010000
00000000
00000010
00001000
00000010
00000000
00010000
00001000
00010000
00000000
00000100
00001000
00000100
00000000
00000010
00000000
,
00001000
00000000
00010000
00000000
01000000
00000000
00100000
00000000
00010000
00000000
01000000
00000000
00100000
00000000
10000000
00010000
,
10000000
00000000
00100000
01000000
00100000
00000000
10000000
00010000
10000000
00000000
01000000
00000000
00100000
00000000
00001000
00000000
,
00010000
00001000
00010000
00000100
00001000
00000100
00001000
00000001
,
00000100
00000000
00000001
00000000
00001000
00000000
00000100
00000000
00000010
00000000
00000001
00000010
00000001
00000000
00000100
00000000
,
00000001
00001000
00000100
00000000
00010000
00001000
00010000
00000000
,
00000000
00000000
01000000
01000000
01000000
00000000
00100000
00000000
,
00100000
00000000
00000000
00000000
00010000
00000000
00000000
00000000
00010000
00000000
00000000
01000000
00100000
00000000
00000000
00000000
,
00100000
00000000
10000000
01000000
00010000
01000000
00100000
00000000
,
00100000
00000000
00000000
00000000
00001000
00000000
00000000
00000000
00001000
00000000
00000000
00010000
00000100
00000000
00000000
00000000
,
00000100
00000000
00000010
00000001
00001000
00000010
00000100
00000000
,
00000100
00000000
00000000
00000001
00000000
00000000
00000010
00000000
00000100
00000000
00020000
00000000
00002000
00000000
00000000
00000000
,
00033000
00000000
00100000
01000000
00100000
00000000
00010000
00000000
01000000
00000000
00100000
00000000
20000000
00000000
00000000
00000000
,
00000000
00000000
00000000
30000000
,
00000000
00000000
00000000
00000000
;

//---------------dance-double - ----------------
#NOTEDATA:;
#CHARTNAME:;
#STEPSTYPE:dance-double;
#DESCRIPTION:;
#CHARTSTYLE:;
#DIFFICULTY:Challenge;
#METER:15;
#RADARVALUES:0.660099,0.825552,0.134490,0.134490,0.518747,481.000000,467.000000,14.000000,14.000000,0.000000,0.000000,0.000000,0.000000,0.000000,0.660099,0.825552,0.134490,0.134490,0.518747,481.000000,467.000000,14.000000,14.000000,0.000000,0.000000,0.000000,0.000000,0.000000;
#CREDIT:;
#DISPLAYBPM:166.000000;
#NOTES:
00000000
00000000
00000000
00000000
,
00000000
00000000
00000000
00000000
,
00000000
00000000
00000000
00000000
,
00000000
00000000
00000000
00000000
,
00000000
00000000
00000000
00000000
,
00100000
00100000
00010000
00010000
,
01000000
01000000
10100000
00110000
,
00001000
00001000
00000100
00000100
,
00000001
00000001
00001010
00011000
,
00100000
00000000
00000000
00000000
01000000
00000000
00000000
10000000
00000000
00100000
01000000
00000000
00010000
00000000
20000000
00000000
,
00020000
00000000
00000000
30030000
,
00100000
00000000
00001000
00010000
00001000
00000000
01000000
00000000
00100000
00000000
00010000
00000000
00001000
00000000
00000100
00000000
,
00000001
00000000
00000000
00000000
00001000
00000000
00000000
00000000
00000100
00000010
00000001
00000000
00000100
00000000
00000010
00000000
,
00010000
00001000
00010000
00000000
00001000
00000000
00100000
00000000
00010000
00000000
01000000
00000000
00100000
00000000
10000000
00000000
,
01000000
10000000
00100000
10000000
,
00010000
00000000
00100000
00010000
01000000
00000000
00001000
00000000
00010000
00000000
00000010
00001000
00000100
00000000
00000010
00000000
,
00000001
00000000
00001000
00000100
00000010
00000000
00001000
00000000
00010000
00000000
01000000
00100000
00010000
00000000
01000000
00000000
,
00100000
00000000
10000000
00010000
00100000
00000000
00010000
00000000
01000000
00000000
00100000
10000000
01000000
00000000
00010000
00000000
,
00001000
00000000
00000010
00000000
00000001
00001000
00000010
00000100
,
00000010
00000000
00010000
00001000
00010000
00000000
00000100
00000000
00000010
00000000
00001000
00000000
00010000
00000000
01000000
00000000
,
10000000
00000000
00000000
00000000
00010000
00000000
00000000
00000000
01000000
00100000
10000000
00000000
01000000
00000000
00100000
00000000
,
00001000
00010000
00001000
00000000
00010000
00000000
00000010
00000000
00001000
00000000
00000100
00000000
00000010
00000000
00000001
00000000
,
00000100
00000001
00000010
00000001
,
00001000
00000000
00000010
00001000
00000100
00000000
00010000
00000000
00001000
00000000
00100000
00010000
01000000
00000000
00100000
00000000
,
10000000
00000000
00010000
01000000
00100000
00000000
00010000
00000000
00001000
00000000
00000100
00000010
00001000
00000000
00000100
00000000
,
00000010
00000000
00000001
00001000
00000010
00000000
00001000
00000000
00000100
00000000
00000010
00000001
00000100
00000000
00001000
00000000
,
00010000
00000000
00100000
00000000
01000000
00100000
01000000
00100000
,
10000000
00000000
00000000
10000000
01000000
00000000
00000000
01000000
00010000
00000000
00000000
00010000
00001000
00000000
00000000
00001000
,
00000100
00000000
00000000
00000100
00000001
00000000
00000000
00000001
00000010
00000000
00000000
00000010
00000100
00000000
00000000
00000100
,
00010000
00001000
00010000
00000000
00000010
00000000
00001000
00000000
00000100
00000000
00000000
00000000
00010000
00000000
01000000
00100000
,
01000000
00000000
00010000
00000000
00001000
00000010
00000100
00001000
,
00000001
00000000
00000000
00000001
00000100
00000000
00000000
00000100
00001000
00000000
00000000
00001000
00010000
00000000
00000000
00010000
,
01000000
00000000
00000000
01000000
10000000
00000000
00000000
10000000
00100000
00000000
00000000
00100000
01000000
00000000
00000000
01000000
,
00001000
00010000
00001000
00000000
00100000
00000000
00010000
00000000
01000000
00000000
00000000
00000000
00001000
00000000
00000100
00000010
,
00000100
00000000
00001000
00000000
00010000
00100000
01000000
00010000
,
00220000
00000000
00000000
00000000
00330000
00000000
00000000
00000000
10000000
00000000
00000000
00100000
00000000
00000000
01000000
00000000
,
02020000
00000000
00000000
00000000
03030000
00000000
00000000
00000000
00001000
00000000
00000000
00010000
00000000
00000000
00000010
00000000
,
00002020
00000000
00000000
00000000
00003030
00000000
00000000
00000000
00000100
00000000
00000000
00000001
00000000
00000000
00000010
00000000
,
00000000
00001100
00000000
00011000
00000000
00110000
00010000
10000000
,
01000000
00000000
00100000
00001000
00010000
00001000
00100000
00000000
00010000
00000000
00000000
10000000
00000000
00000000
00100000
00000000
,
01000000
00000000
00001000
00100000
00010000
00100000
00001000
00000000
00010000
00000000
00000000
00001000
00000000
00000000
00000100
00000000
,
00000001
00000000
00001000
00000100
00000010
00000100
00001000
00000000
00000010
00000000
00000000
00000100
00000000
00000000
00000001
00000000
,
00000001
00000100
00001000
00010000
00100000
10000000
00010000
00000000
00000000
10000000
01000000
00010000
,
00001000
00000010
00000001
00001000
00000000
00000000
00000001
00000100
00001000
00010000
00100000
10000000
,
00010000
00100000
11000000
00100000
00001000
00011000
,
00000010
00000000
00000000
00000000
00000000
00000000
00000000
00000000
00000100
00000000
00000000
00000000
00000000
00000000
00000000
00000000
00000110
00000000
00000000
00000000
00000000
00000000
00000000
00000000
00002002
00000000
00000000
00003003
00000000
00000000
00000000
00000000
00000000
00000000
00000000
00000000
00000010
00000000
00000000
00000000
00000000
00000000
00000001
00000000
00000000
00000000
00000000
00000000
,
00001000
00000001
00000100
00000000
00001000
00010000
00001000
00000000
,
01000000
00000000
00000000
00000000
00100000
00000000
10000000
00000000
00010000
00000000
00100000
00000000
01000000
10000000
01000000
00000000
,
00100000
00001000
00010000
00000000
00000100
00000010
00000001
00000000
,
00001000
00000000
00000010
00000000
00000100
00000000
00000001
00000100
,
00001000
00000000
00010000
00100000
01000000
00000000
00010000
00000000
10000000
00000000
01000000
00100000
00010000
00000000
01000000
00000000
,
00001000
00000000
00010000
00000100
00001000
00000000
00000001
00000000
00000100
00000000
00000010
00001000
00000100
00000000
00000010
00000000
,
00001000
00000000
00010000
01000000
00100000
00000000
00010000
00000000
01000000
00000000
00100000
01000000
00100000
00000000
00000000
00000000
,
10000000
00000000
00000000
00000000
01000000
00000000
00010000
00000000
00001000
00000000
00000100
00000000
00000010
00000000
00000000
00000010
,
00001000
00000000
00000000
00001000
00000100
00000000
00000000
00000100
00001000
00000000
00000000
00001000
00000010
00000000
00001000
00000100
,
00010000
00000000
00001000
01000000
00010000
00000000
10000000
01000000
00100000
00000000
00010000
01000000
00001000
00000000
00000000
00001000
,
00000100
00000000
00000000
00000100
00000010
00000000
00000000
00000010
00001000
00000000
00000000
00001000
00000100
00000000
00000010
00000001
,
00001000
00000000
00000100
00010000
00001000
00000000
01000000
00100000
01000000
00000000
00010000
00000000
10000000
01000000
00100000
01000000
,
10000000
00000000
00010000
00000000
01000000
00100000
00010000
00100000
01000000
00000000
00001000
00000000
00100000
00010000
00100000
01000000
,
00100000
00000000
00010000
00000000
00001000
00000100
00000010
00000100
00001000
00000000
00000001
00000000
00000010
00000000
00000100
00000000
,
00001000
00000000
00000001
00000000
00000100
00000000
00001000
00010000
00001000
00000000
01000000
00000000
00200000
00000000
00000000
00000000
,
00000000
00000000
01000000
01000000
01000000
01300000
00100000
00000000
,
00100000
00000000
00000000
00000000
10000000
00000000
00000000
00000000
10000000
00000000
00000000
01000000
00010000
00000000
00000000
00000000
,
00010000
00000000
00001000
00000010
00000001
00001000
00000010
00000000
,
00000010
00000000
00000000
00000000
00000100
00000000
00000000
00000000
00000100
00000000
00000000
00000001
00001000
00000000
00000000
00000000
,
00001000
00000000
00000010
00010000
00100000
01000000
00100000
00000000
,
10000000
00000000
00000000
01000000
00000000
00100000
00010000
00000000
01000000
00000000
00200000
00000000
02000000
00000000
00000000
00000000
,
03300000
00000000
00001000
00010000
00001000
00000000
00000100
00000000
00000001
00001000
00000100
00000010
00000002
00000000
00000000
00000000
,
00000000
00000000
00000000
00000003
,
00000000
00000000
00000000
00000000
;

//---------------dance-solo - ----------------
#NOTEDATA:;
#CHARTNAME:;
#STEPSTYPE:dance-solo;
#DESCRIPTION:;
#CHARTSTYLE:;
#DIFFICULTY:Hard;
#METER:13;
#RADARVALUES:0.704014,0.792530,0.758908,0.422683,0.211341,513.000000,434.000000,79.000000,44.000000,0.000000,0.000000,0.000000,0.000000,0.000000,0.704014,0.792530,0.758908,0.422683,0.211341,513.000000,434.000000,79.000000,44.000000,0.000000,0.000000,0.000000,0.000000,0.000000;
#CREDIT:;
#DISPLAYBPM:166.000000;
#NOTES:
000000
000000
000000
000000
,
000000
000000
000000
000000
,
000000
000000
000000
000000
,
000000
000000
000000
000000
,
000000
000000
000000
000000
,
010010
000010
001000
000000
001100
100000
000001
000000
,
000110
000010
010000
000000
101000
000000
001001
000000
,
011000
010000
000100
000000
001010
000001
010000
000000
,
100001
000100
001000
000000
100100
000000
000101
000000
,
210000
000000
000000
000000
300020
000000
000000
000230
000000
000000
000302
000000
002003
000000
003200
000000
,
020300
000010
000010
000010
000010
000010
000010
030010
,
001000
000100
010000
000001
001010
000000
101000
000000
,
000011
000000
100100
000000
000010
000100
001000
010000
,
000001
000100
000001
000000
001000
000000
000100
000000
200000
000000
000000
000000
300001
000000
000000
000000
,
000110
011000
000200
002300
,
003010
001000
100000
001000
000001
000100
010000
000100
,
000010
010000
001000
000001
001000
100000
001000
000100
,
010000
000100
001000
000100
100000
000100
000001
001000
,
000100
100000
010010
000000
000001
000001
100000
100000
,
000100
010000
001000
000100
000010
001000
100000
000000
,
101000
000000
100100
000000
000001
010000
001000
000100
,
000010
010000
000010
000000
001000
000000
000100
000000
100000
000000
001000
000000
000001
000000
000000
000000
,
000110
110000
000002
200003
,
300010
001000
000100
001000
100000
001000
000001
000100
,
010000
000100
001000
100000
000100
000010
000100
100000
,
000010
000000
100000
000000
000001
000000
001000
000000
000100
000000
010000
000001
010000
000000
001000
000000
,
200000
000000
300100
001000
000100
100000
000001
000100
,
000010
000000
010000
000100
000000
010000
000100
000000
100020
000000
000000
000000
000001
000000
000000
000000
,
002030
000000
000100
000000
003002
100000
100003
000001
,
001000
000100
001000
000000
000010
000000
000000
000000
010000
000000
000000
001000
000000
000000
100000
000000
,
100000
000000
000010
000000
000100
000001
000000
000000
011000
000000
011000
000000
011000
000000
011000
000000
,
100000
000000
000010
001000
000000
000010
001000
000000
020001
000000
000000
000000
100000
000000
000000
000000
,
030200
000000
001000
000000
200300
000001
300001
100000
,
000010
001000
000010
000000
010000
000000
000000
000000
000100
000000
000000
100000
000000
000000
000001
000000
,
000001
000000
010000
000000
000010
000100
000000
000000
001001
000000
001001
000000
001001
000000
001001
000000
,
000100
000000
100000
000000
001000
000000
000001
000000
000101
000000
000000
010010
000000
000000
001100
000000
,
100000
000000
000001
000000
000100
000000
001000
000000
101000
000000
000000
010010
000000
000000
000011
000000
,
000100
000000
000010
000000
001000
000000
100000
000000
011000
000000
000000
100001
000000
000000
001100
000000
,
000000
100100
000000
001010
000000
000101
000000
110000
,
000001
000000
001000
000100
001000
000000
000010
000000
010010
000000
000000
100100
000000
000000
010001
000000
,
000100
000000
001000
100000
001000
000000
000100
000000
001100
000000
000000
000011
000000
000000
101000
000000
,
000100
000000
100000
000001
100000
000000
001000
000000
101000
000000
000000
000110
000000
000000
010100
000000
,
000001
000000
000001
100000
000000
100000
001000
000000
000000
010000
000100
010000
,
000100
000000
000100
001000
000000
000000
000010
010000
000010
010000
000000
000000
,
100001
000000
010010
000000
001100
000000
100100
000000
010010
000000
000110
000000
,
101000
000000
000000
000000
000011
000000
000000
000000
110000
000000
000000
000000
002002
000000
000000
000003
000000
000000
003100
000000
000000
100000
000000
000000
,
001000
000100
000002
000000
020003
000000
030020
000000
,
002030
000000
000000
000000
003100
000000
001000
000000
000010
000000
010000
000000
000100
100000
000100
000000
,
010000
000001
000200
000000
002300
000000
203000
000000
,
300020
000000
020000
000000
030030
000000
010010
000010
,
001000
000100
001100
000100
100000
000010
000110
000100
,
000001
010000
011000
001000
100000
000001
000101
000100
,
001000
010000
000100
000100
000100
000100
100100
000000
,
101000
000000
000011
100000
010000
000010
001000
000001
,
001000
000000
100000
000000
001000
000010
001000
000000
000001
000000
100000
000000
002000
000000
000000
000000
,
003200
000000
000000
000000
000301
000000
001000
000000
100000
000000
001000
000000
000001
010000
000001
000000
,
001000
000000
000100
000000
100000
001000
100000
000000
000010
000000
010000
000000
000100
000000
001000
000000
,
000001
100000
001000
000010
001000
100000
000100
000100
,
100000
100000
000010
000010
010000
010000
000001
000001
,
000100
000100
000010
000010
001000
001000
000010
000100
,
010000
000000
000100
000000
000010
000000
100000
000001
100000
000000
001000
000000
000200
000000
000000
000000
,
000302
000000
010003
000010
010000
001000
100001
000100
,
001000
000000
010100
000100
100000
000000
011000
000001
,
000100
000000
000001
000001
100000
100000
101000
100000
,
000010
000000
001100
000001
100000
000000
010100
000100
,
001000
000001
000020
010000
010000
000000
002030
000000
,
003002
000000
000000
200003
000000
000000
300020
000000
000230
000000
002300
000000
023000
000000
000000
000000
,
030000
000000
000001
000100
000001
000000
100000
000100
100000
000000
000010
000000
020020
000000
000000
000000
,
000000
000000
000000
030030
;

//---------------dance-solo - ----------------
#NOTEDATA:;
#CHARTNAME:;
#STEPSTYPE:dance-solo;
#DESCRIPTION:;
#CHARTSTYLE:;
#DIFFICULTY:Medium;
#METER:10;
#RADARVALUES:0.513258,0.561375,0.489928,0.230554,0.086458,374.000000,323.000000,51.000000,24.000000,0.000000,0.000000,0.000000,0.000000,0.000000,0.513258,0.561375,0.489928,0.230554,0.086458,374.000000,323.000000,51.000000,24.000000,0.000000,0.000000,0.000000,0.000000,0.000000;
#CREDIT:;
#DISPLAYBPM:166.000000;
#NOTES:
000000
000000
000000
000000
,
000000
000000
000000
000000
,
000000
000000
000000
000000
,
000000
000000
000000
000000
,
000000
000000
000000
000000
,
010010
000100
000100
000100
,
000100
000100
001001
101000
,
010010
001000
001000
001000
,
001000
001000
100100
000101
,
100000
000000
000000
000000
000010
000000
000000
000010
000000
000000
010000
000000
001000
000000
000100
000000
,
000002
000000
000000
000003
,
001000
000001
100000
000001
001000
000000
000100
000000
,
010100
000000
001010
000000
000001
010000
001000
100000
,
000100
001000
000010
001000
000100
000000
100000
000000
,
110000
000011
001000
000100
,
000000
100000
001000
000010
000000
010000
001000
000001
,
000000
000100
000010
001000
000000
000100
010000
001000
,
000000
100000
000100
000010
000000
010000
001000
000001
,
100000
000000
010001
000000
000100
000010
001000
000000
,
000000
000001
000100
001000
100000
000000
000010
000000
,
000110
000000
011000
000000
000001
100000
001000
010000
,
000100
100000
000000
100000
000001
000000
000100
000000
,
000101
101000
000010
010000
,
000000
001000
100000
000001
000000
000100
000010
010000
,
000000
000001
000100
000010
000000
010000
001000
100000
,
000010
000100
000010
000100
000001
000000
000001
001000
,
200000
000100
000001
301000
,
200100
300100
010020
000130
,
002001
003100
100020
000130
,
001000
000000
001000
000000
000000
010000
000000
000000
000010
000000
000000
000100
000000
000000
100000
000000
,
100000
000000
010000
000000
000000
001000
000000
000000
000100
000000
000010
000000
000100
000000
000001
000000
,
000102
001003
200010
301000
,
021000
031000
001200
001300
,
010000
000000
010000
000000
000000
000001
000000
000000
000100
000000
000000
001000
000000
000000
100000
000000
,
100000
000000
000001
000000
000000
000100
000000
000000
000010
000000
010000
000000
000010
000000
010000
000000
,
020020
000000
000000
000000
030030
000000
000000
000000
100000
000000
000000
000010
000000
000000
000100
000000
,
002200
000000
000000
000000
003300
000000
000000
000000
001000
000000
000000
100000
000000
000000
000001
000000
,
002002
000000
000000
000000
003003
000000
000000
000000
001000
000000
000000
000100
000000
000000
010000
000000
,
000000
011000
000000
000110
000000
100100
000000
001001
,
000001
000010
000001
000010
002000
000000
003000
000000
,
100000
000100
100000
000100
002000
000000
003000
000000
,
000010
000000
010000
000000
000010
000000
010000
000000
000100
000000
000000
001000
000000
000000
000001
000000
,
001001
001001
001001
101000
,
101000
101000
010010
100001
,
000100
000000
000100
000000
000100
000000
001000
000000
001000
000000
001000
000000
,
000010
000000
000000
000000
010000
000000
000000
000000
001000
000000
000000
000000
020020
000000
000000
000030
000000
000000
030010
000000
000000
000000
000000
000000
,
001000
000100
100000
001000
,
001000
000000
010000
000100
000010
000100
010000
000000
,
000001
000100
000100
000010
,
001000
000000
200000
000000
300000
000000
000100
100000
,
000100
000000
001000
000001
001000
000000
000010
000100
,
000010
000000
010000
001000
010000
000000
000001
000100
,
000010
010000
001000
000100
000001
100000
100100
000000
,
001001
000000
100001
000000
001100
000000
000100
010000
,
001000
100000
000001
000100
000010
010000
001000
000000
,
001000
000000
100000
000100
000001
000100
100000
100000
,
000000
000001
000100
001000
000000
010000
000010
000000
,
001010
000000
001000
000100
001000
000100
100000
001000
,
010000
000000
000001
000100
000010
000000
001000
000100
,
100000
000000
000010
010000
000001
000000
000100
000010
,
000100
001000
010000
000000
010000
000001
200000
000000
,
000100
000001
301000
010010
,
000100
000100
000100
000100
,
000100
100100
000101
010010
,
001000
001000
001000
001000
,
001000
011000
001010
000001
,
000100
000000
000000
000010
000000
000000
010000
000000
000100
000000
100000
000000
001000
000000
000000
000000
,
000000
001000
100000
000001
100000
000100
020020
000000
,
000000
000000
000000
030030
;

//---------------dance-solo - ----------------
#NOTEDATA:;
#CHARTNAME:;
#STEPSTYPE:dance-solo;
#DESCRIPTION:;
#CHARTSTYLE:;
#DIFFICULTY:Easy;
#METER:7;
#RADARVALUES:0.319757,0.462309,0.470715,0.124884,0.000000,233.000000,184.000000,49.000000,13.000000,0.000000,0.000000,0.000000,0.000000,0.000000,0.319757,0.462309,0.470715,0.124884,0.000000,233.000000,184.000000,49.000000,13.000000,0.000000,0.000000,0.000000,0.000000,0.000000;
#CREDIT:;
#DISPLAYBPM:166.000000;
#NOTES:
000000
000000
000000
000000
,
000000
000000
000000
000000
,
000000
000000
000000
000000
,
000000
000000
000000
000000
,
000000
000000
000000
000000
,
010010
000000
001000
000000
,
001000
000000
001100
001100
,
010010
000000
000100
000000
,
000100
000000
100001
100001
,
000100
000010
001000
000100
,
200000
000000
000000
300000
,
000001
001000
000100
000100
,
100000
100000
000010
000000
,
000001
001000
000100
000100
,
010000
000010
001000
000000
,
000000
001001
000000
101000
,
000000
001001
000000
101000
,
000000
001001
000000
101000
,
010000
010000
000010
000000
,
000100
000001
100000
100000
,
000100
010000
001000
000000
,
010000
000100
100000
000001
,
001000
001000
000100
000000
,
000000
100100
000000
000101
,
000000
100100
000000
000101
,
010000
000010
010000
001000
,
000200
000000
000000
000300
,
000002
000000
200003
000000
,
300200
000000
002300
000000
,
003010
000100
010000
000100
,
000001
001000
100000
001000
,
000002
000000
000203
000000
,
000320
000000
020030
000000
,
030001
000100
100000
000100
,
000010
001000
010000
001000
,
100001
000000
001100
000000
,
010010
000000
001100
000000
,
100010
000000
010001
000000
,
000000
000100
000000
010000
000000
001000
000000
000000
,
010010
000000
001100
000000
,
100001
000000
001100
000000
,
010001
000000
100010
000000
,
000100
000100
000100
001000
,
001000
001000
001100
100001
,
000010
000010
010000
010000
,
011000
001010
010010
000010
,
000000
000100
000000
100000
,
000000
001000
000000
010000
,
000000
000010
000000
100000
,
100000
100000
000000
001000
,
001000
100000
100000
001000
,
001000
000001
000001
000100
,
000010
000100
001000
100001
,
001100
100001
001100
010000
,
010000
000010
000010
000100
,
000010
001000
000001
100100
,
000000
001001
000000
101000
,
000000
000001
000100
000010
,
000010
010000
010000
000001
,
000001
001000
000100
100000
,
000100
001000
000010
020000
,
000000
000000
030000
010010
,
000000
000100
000000
001000
,
000000
100001
100001
010010
,
000000
000010
000000
010000
,
000000
001100
001100
000100
,
100000
001000
000100
000001
,
000000
000110
010100
020020
,
000000
000000
000000
030030
;

//---------------dance-solo - ----------------
#NOTEDATA:;
#CHARTNAME:;
#STEPSTYPE:dance-solo;
#DESCRIPTION:;
#CHARTSTYLE:;
#DIFFICULTY:Beginner;
#METER:3;
#RADARVALUES:0.146841,0.330221,0.201735,0.096064,0.000000,107.000000,86.000000,21.000000,10.000000,0.000000,0.000000,0.000000,0.000000,0.000000,0.146841,0.330221,0.201735,0.096064,0.000000,107.000000,86.000000,21.000000,10.000000,0.000000,0.000000,0.000000,0.000000,0.000000;
#CREDIT:;
#DISPLAYBPM:166.000000;
#NOTES:
000000
000000
000000
000000
,
000000
000000
000000
000000
,
000000
000000
000000
000000
,
000000
000000
000000
000000
,
000000
000000
000000
000000
,
010010
000000
000000
000000
,
000000
000000
010000
000000
,
010010
000000
000000
000000
,
000000
000000
000010
000000
,
001000
000000
001000
000000
,
001000
000000
000000
000000
,
000010
000000
000010
000000
,
001000
000000
000100
000000
,
010000
000000
010000
000000
,
000001
000000
000000
000000
,
001100
000000
000000
000000
,
010010
000000
000000
000000
,
100001
000000
000000
000000
,
001000
000000
001000
000000
,
000100
000000
100000
000000
,
000100
000000
001000
000000
,
000010
000000
010000
000000
,
000001
000000
000000
000000
,
100001
000000
000000
000000
,
001100
000000
000000
000000
,
010000
000000
010000
000000
,
000010
000000
000000
000000
,
002000
000000
003000
000000
,
000200
000000
000300
000000
,
001100
000000
000000
000000
,
010010
000000
000000
000000
,
000002
000000
000003
000000
,
200000
000000
300000
000000
,
100001
000000
000000
000000
,
001100
000000
000000
000000
,
020000
000000
030000
000000
,
000020
000000
000030
000000
,
010000
000000
000010
000000
,
000000
000000
000000
000000
,
200000
000000
300000
000000
,
000002
000000
000003
000000
,
000100
000000
001000
000000
,
100000
000000
000000
000000
,
000001
000000
000000
000000
,
000100
000000
000100
000000
,
000100
000000
010010
000010
,
000000
000000
000000
000000
,
000000
000000
000000
100000
,
000000
000000
000000
000000
,
000000
000000
000000
001100
,
000000
001100
000000
010010
,
000000
010010
000000
100001
,
000000
100001
000000
001000
,
001000
001000
000000
000001
,
000000
000100
000000
000010
,
000000
000100
000000
001000
,
000000
001000
000000
010000
,
000000
000000
000000
100000
,
000000
000010
000000
000100
,
000000
000001
000000
010000
,
000000
000100
000000
001000
,
000000
000000
000000
010010
,
000000
000000
000000
000000
,
000000
000010
000000
010010
,
000000
000000
000000
000000
,
000000
010000
000000
000100
,
000000
000100
000000
000100
,
000000
000000
000000
020020
,
000000
000000
000000
030030
;

//---------------dance-solo - ----------------
#NOTEDATA:;
#CHARTNAME:;
#STEPSTYPE:dance-solo;
#DESCRIPTION:;
#CHARTSTYLE:;
#DIFFICULTY:Challenge;
#METER:16;
#RADARVALUES:0.927706,0.924618,0.566779,0.211341,0.792530,676.000000,617.000000,59.000000,22.000000,0.000000,0.000000,0.000000,0.000000,0.000000,0.927706,0.924618,0.566779,0.211341,0.792530,676.000000,617.000000,59.000000,22.000000,0.000000,0.000000,0.000000,0.000000,0.000000;
#CREDIT:;
#DISPLAYBPM:166.000000;
#NOTES:
// measure 0
000000
000000
000000
000000
,  // measure 1
000000
000000
000000
000000
,  // measure 2
000000
000000
000000
000000
,  // measure 3
000000
000000
000000
000000
,  // measure 4
000000
000000
000000
000000
,  // measure 5
010010
000000
000010
000000
001000
000100
001000
000100
100000
000000
001000
000000
010000
000010
010000
000010
,  // measure 6
000100
000000
001000
000000
100000
000100
100000
000100
001000
000000
000001
000000
001000
000000
000010
000000
,  // measure 7
010010
000000
010000
000000
001000
100000
001000
100000
000001
000000
000100
000000
000010
001000
000010
001000
,  // measure 8
000100
000000
010000
000000
000001
100000
000001
100000
000100
000000
010000
000000
000100
000000
100000
000000
,  // measure 9
100100
000000
000000
000000
010010
000000
000000
000110
000000
000000
110000
000000
001100
000000
000011
000000
,  // measure 10
100001
000000
001000
000000
001000
000000
001000
000000
001000
000100
001000
000100
001000
000100
001000
000100
,  // measure 11
001000
000010
000100
100000
000100
000001
001000
000100
,  // measure 12
200000
301000
000002
001003
000100
010000
000100
000010
,  // measure 13
000100
100000
001000
000000
010000
000000
000010
000000
001000
000000
100000
000000
001000
000000
000001
000000
,  // measure 14
000200
000000
000310
000000
020000
000000
030010
000000
001000
000001
100000
000000
000010
000000
000100
000000
,  // measure 15
001100
000000
001000
000000
100000
000000
000010
000100
000001
000000
001000
000000
000100
000000
100000
000001
,  // measure 16
010000
000000
000010
000000
000100
000000
001000
100000
000100
000000
001000
000000
000001
000000
000100
000010
,  // measure 17
010000
000000
000100
000000
000001
000000
000100
100000
000010
000000
001000
000000
000100
000000
100000
000000
,  // measure 18
101000
000001
001001
100000
101000
001100
000110
010010
,  // measure 19
000100
000000
100000
000000
001000
000100
000001
000000
001000
000000
010000
000000
001000
000000
000100
000000
,  // measure 20
002000
003001
200000
300010
010000
001000
000001
001000
,  // measure 21
010000
000010
100000
000000
000001
000000
001000
000000
100000
000000
001000
000000
000001
000000
000100
000000
,  // measure 22
000020
010030
002000
103000
000100
001000
000100
010000
,  // measure 23
011000
000000
001000
000000
100000
000000
000001
000100
001000
000000
010000
000000
000100
000000
100000
001000
,  // measure 24
010000
000000
000010
000000
100000
000000
000001
010000
000100
000000
001000
000000
000010
000000
100000
000000
,  // measure 25
000100
000000
010000
000000
001000
000000
100000
000000
000001
000100
000010
010000
001000
000000
100000
000000
,  // measure 26
100001
000000
000000
000000
000100
000000
010000
001000
010000
000000
000010
000000
100000
000000
000001
000000
,  // measure 27
000100
000010
000100
001000
100000
000000
000001
001000
000002
000000
010000
000000
010000
000000
010000
000000
,  // measure 28
001003
000000
000100
100000
000010
000000
000100
001000
020000
000000
000010
000000
000010
000000
000010
000000
,  // measure 29
031000
010000
000001
000000
000100
000010
000000
000010
010000
000000
010000
001000
000000
001000
100000
000000
,  // measure 30
100000
000010
010000
000000
000001
001000
000000
001000
000100
000000
001100
000000
010100
000000
100100
000000
,  // measure 31
000100
010000
001000
100000
000001
000000
000100
000010
002000
000000
000001
000000
000001
000000
000001
000000
,  // measure 32
003100
000000
100000
000001
001000
000000
000010
010000
000200
000000
100000
000000
100000
000000
100000
000000
,  // measure 33
001300
000100
010000
000000
000001
000100
000000
000100
001000
000000
001000
100000
000000
100000
000010
000000
,  // measure 34
000010
001000
000001
000000
000100
001000
000000
001000
010000
000000
011000
000000
010100
000000
010010
000000
,  // measure 35
010001
000000
010000
001000
100000
000010
000100
000001
002000
000000
000000
000100
000000
000000
003010
000000
,  // measure 36
001100
000000
000100
100000
001000
010000
000001
000010
000002
000000
000000
100000
000000
000000
000103
000000
,  // measure 37
001001
000000
000010
000100
000010
010000
001000
100000
000002
000000
000000
000203
000000
000000
000310
000000
,  // measure 38
000000
000110
010000
101000
000001
110000
000100
010001
,  // measure 39
100010
000000
000100
001000
000100
010000
001000
000100
000001
000000
100000
000010
000000
000010
001000
000000
,  // measure 40
010010
000000
000001
100000
000100
010000
001000
000100
000010
000000
001000
000100
000000
000100
100000
000000
,  // measure 41
100100
000000
000100
100000
001000
000100
001000
010000
000010
000000
000100
000001
000000
000001
100000
000000
,  // measure 42
000001
001000
000001
100000
000100
001000
000010
000000
000000
000010
000100
001000
,  // measure 43
010000
000010
100000
001000
000000
000000
010000
001000
100000
000100
001000
000001
,  // measure 44
000100
000001
010000
000100
100000
010000
100000
001000
000100
000010
010000
000001
,  // measure 45
000010
000000
100000
000000
000010
000000
001000
000000
000100
000000
100000
000000
020002
000000
000000
000003
000000
000000
031000
000000
000000
100000
000000
000000
,  // measure 46
000010
000100
001000
000000
100000
000000
110000
000000
,  // measure 47
000011
000000
000000
000000
000100
000000
000010
000000
010000
000000
000100
000000
001000
000001
001000
000000
,  // measure 48
000001
100000
000010
000000
001000
000000
010010
000000
,  // measure 49
100001
000000
000000
000000
100000
000010
100000
000010
100000
000010
100000
000010
100000
001000
100000
000000
,  // measure 50
000001
001000
000001
000000
010000
000100
010000
000000
000010
000100
000010
000000
010000
001000
010000
000000
,  // measure 51
000010
001000
000010
000000
100000
000100
100000
000000
000001
000100
000001
000000
000100
000010
001000
000000
,  // measure 52
000100
100000
001000
000000
000100
000001
001000
000000
000100
010000
001000
000000
101000
000000
000001
000000
,  // measure 53
001001
100000
100100
010100
001010
000110
100001
000100
,  // measure 54
010000
001000
100000
000000
000001
000100
000010
000000
010000
000000
000100
100000
001000
000000
000100
000001
,  // measure 55
000010
000000
000000
000000
000001
000000
100000
000000
000010
000000
000100
000000
001000
010000
000100
000000
,  // measure 56
001000
000000
000010
000100
001000
010000
000001
000000
100000
000000
000010
001000
000100
000000
100000
001000
,  // measure 57
100000
000000
000100
001000
000001
000000
000100
000010
010000
000000
001000
000000
100000
000100
100000
000000
,  // measure 58
000010
000100
000010
000000
010000
000100
010000
000000
000001
000100
000001
000000
010000
001000
010000
000000
,  // measure 59
000001
001000
000001
000000
100000
001000
100000
000000
000010
001000
000010
000000
000100
000000
001000
000000
,  // measure 60
100000
000000
000001
000000
001000
000010
000100
001000
100000
000010
001000
000000
000002
000000
000000
000000
,  // measure 61
200003
000000
300010
000010
010000
010000
010010
000100
,  // measure 62
100000
000000
001000
000000
010000
000000
000010
000000
000100
000000
000001
001000
000001
000000
000100
000000
,  // measure 63
000010
001000
001100
001100
001100
001100
010010
000100
,  // measure 64
100000
001000
100000
001000
000100
000000
000001
000000
010000
000010
010000
000010
100000
000000
000100
000000
,  // measure 65
001000
000001
001000
000001
000100
001000
010000
000010
001000
000100
100000
000001
010000
000000
000000
000000
,  // measure 66
010100
000000
000000
000101
000000
000000
101000
000000
010001
000000
001100
000000
100010
000000
000000
000000
,  // measure 67
000000
000000
001000
000001
000010
000100
000001
100000
000100
001000
000010
010000
020020
000000
000000
000000
,  // measure 68
000000
000000
000000
030030
;
