#VERSION:0.83;
#TITLE:All About That Bass;
#SUBTITLE:;
#ARTIST:Meghan Trainor;
#TITLETRANSLIT:;
#SUBTITLETRANSLIT:;
#ARTISTTRANSLIT:;
#GENRE:;
#ORIGIN:;
#CREDIT:;
#BANNER:All About That Bass-bn.png;
#BACKGROUND:All About That Bass-bg.png;
#PREVIEWVID:;
#JACKET:All About That Bass-jacket.png;
#CDIMAGE:;
#DISCIMAGE:;
#LYRICSPATH:;
#CDTITLE:;
#MUSIC:All About That Bass.ogg;
#OFFSET:0.672000;
#SAMPLESTART:0.000000;
#SAMPLELENGTH:20.000000;
#SELECTABLE:YES;
#DISPLAYBPM:134.000000;
#BPMS:0.000=134.000;
#STOPS:;
#DELAYS:;
#WARPS:;
#TIMESIGNATURES:0.000=4=4;
#TICKCOUNTS:0.000=4;
#COMBOS:0.000=1;
#SPEEDS:0.000=1.000=0.000=0;
#SCROLLS:0.000=1.000;
#FAKES:;
#LABELS:0.000=Song Start;
#BGCHANGES:;
#KEYSOUNDS:;
#ATTACKS:
;

//---------------dance-single - ----------------
#NOTEDATA:;
#CHARTNAME:;
#STEPSTYPE:dance-single;
#DESCRIPTION:;
#CHARTSTYLE:;
#DIFFICULTY:Hard;
#METER:11;
#RADARVALUES:0.482659,0.532889,0.311872,0.095294,0.108289,390.000000,354.000000,36.000000,11.000000,0.000000,0.000000,0.000000,0.000000,0.000000,0.482659,0.532889,0.311872,0.095294,0.108289,390.000000,354.000000,36.000000,11.000000,0.000000,0.000000,0.000000,0.000000,0.000000;
#CREDIT:;
#DISPLAYBPM:134.000000;
#NOTES:
0000
0000
0000
0000
,
0000
0000
0000
0000
,
0000
0000
0000
0000
,
0000
0000
0000
0000
,
0000
0000
0000
0000
,
0000
0000
0000
0000
,
0000
0000
0000
0000
,
0000
0000
0000
0000
,
0000
0000
0000
0000
,
1000
0010
0100
0010
1000
0100
0001
0000
,
0010
0001
0100
0010
0100
0001
1000
0000
,
0001
0010
0100
1000
0010
0100
0010
0100
,
0000
0000
0001
0000
0010
0000
0100
0000
1000
0000
0000
0001
1000
0000
0000
0000
,
0000
1000
0100
0000
0010
0000
0010
0000
0010
0000
0000
0001
0000
0000
1000
0000
,
0001
0100
0010
0000
1100
0000
0010
0102
,
0000
1000
1003
0000
0011
0000
0001
1020
,
0000
0100
0130
0000
0110
0000
1001
0000
,
0010
1000
0100
0010
0001
0100
1000
0020
,
0130
0001
0010
0100
1000
0001
1000
0020
,
0130
0000
0001
0000
1000
0000
0100
0000
1100
0000
0000
1001
0000
0000
0101
0000
,
0000
0001
0001
0100
1000
1000
1010
0000
,
0010
1000
0001
0100
1000
0100
0001
0020
,
0130
0000
1000
0000
0001
0000
1000
0000
0010
0000
0000
0100
0001
0000
1000
0000
,
0001
0001
0010
0010
0100
0100
1000
1000
,
0001
0010
1000
0010
0002
0000
0103
0010
,
1000
0000
0000
0100
0000
0000
1000
0000
0001
0000
0000
0100
0000
0000
0001
0000
,
0010
0000
0000
0001
0000
0000
1000
0000
0010
0000
0000
0000
1000
0000
0100
0000
,
1002
0000
0013
0011
0000
1100
0000
0001
,
0210
0000
0301
0101
0000
1010
1000
0001
,
0010
0000
0000
0001
0000
0000
1000
0000
0010
0000
0000
0100
0000
0000
0001
0000
,
1000
0000
0000
0100
0000
0000
0010
0000
0001
0000
0000
0000
1000
0000
1000
0000
,
0000
1100
0000
1000
0001
0100
0010
1000
,
0000
0011
0000
0100
0001
0010
1000
0010
,
0001
0000
0000
0100
0000
0000
0010
0000
1000
0000
0000
0001
0000
0000
1000
0000
,
0001
0000
0000
0010
0000
0000
0100
0000
1000
0000
0000
0000
0001
0000
0010
0000
,
0012
0000
1003
0101
0000
0110
0000
0010
,
1020
0000
1030
1100
0000
1001
0100
0010
,
0001
0000
0000
0100
0000
0000
0001
0000
1000
0000
0000
0100
0000
0000
1000
0000
,
0010
0000
0000
0100
0000
0000
0001
0000
1000
0000
0000
0000
0010
0000
0100
0000
,
0001
0000
0000
0010
0010
0001
0000
0100
,
0100
0000
0000
0001
0010
1000
0010
0001
,
1000
0010
0001
0010
1000
0010
0001
0010
,
1000
0000
1100
0000
0101
1000
0000
0010
,
1000
0100
0001
0100
1000
0100
0001
0100
,
1000
0000
0011
0000
1010
0001
0000
0100
,
0001
0010
1000
0010
0001
0010
1000
0010
,
0001
0000
0110
0000
1001
0100
0000
1000
,
0001
0100
1000
0100
0001
0100
1000
0100
,
0001
0000
0000
0001
0100
1000
0100
0001
,
1000
0010
0001
0010
1000
0100
0001
0100
,
1000
0000
0101
0000
1100
0010
0000
0100
,
0001
0010
1000
0010
0001
0100
1000
0100
,
0001
0000
1010
0000
0011
1000
0000
0010
,
1000
0100
0001
0100
1000
0010
0001
0010
,
1000
0000
1001
0000
0110
0001
0000
0010
,
0001
0100
1000
0100
0001
0010
1000
0010
,
0001
0000
0100
0100
0100
0010
1000
1000
,
1000
0000
0000
0010
0000
0000
0100
0000
0001
0000
0000
0010
0000
0000
0100
0000
,
1000
0000
0000
0001
0000
0000
0100
0000
0010
0000
0000
1000
0000
0000
0001
0000
,
0100
0001
1000
0010
0000
0010
1000
0100
,
0010
0001
1000
0100
0000
0100
1000
0010
,
0100
0000
0000
0010
0000
0000
1000
0000
0001
0000
0000
1000
0000
0000
0100
0000
,
0010
0000
0000
0001
0000
0000
1000
0000
0001
0000
0000
1000
0000
0000
0010
0000
,
0100
0000
0000
0100
0001
1000
0000
0001
,
0002
0000
0000
0003
;

//---------------dance-single - ----------------
#NOTEDATA:;
#CHARTNAME:;
#STEPSTYPE:dance-single;
#DESCRIPTION:;
#CHARTSTYLE:;
#DIFFICULTY:Medium;
#METER:9;
#RADARVALUES:0.389840,0.420702,0.415829,0.060642,0.004332,315.000000,267.000000,48.000000,7.000000,0.000000,0.000000,0.000000,0.000000,0.000000,0.389840,0.420702,0.415829,0.060642,0.004332,315.000000,267.000000,48.000000,7.000000,0.000000,0.000000,0.000000,0.000000,0.000000;
#CREDIT:;
#DISPLAYBPM:134.000000;
#NOTES:
0000
0000
0000
0000
,
0000
0000
0000
0000
,
0000
0000
0000
0000
,
0000
0000
0000
0000
,
0000
0000
0000
0000
,
0000
0000
0000
0000
,
0000
0000
0000
0000
,
0000
0000
0000
0000
,
0000
0000
0000
0000
,
0000
0001
0000
1000
0100
1000
0100
0000
,
0000
0010
0001
1000
0100
0000
1001
0000
,
0000
0010
1000
0010
1000
0001
1000
0001
,
0000
1000
0100
0010
0001
0000
0101
0000
,
0000
0010
1000
0010
1000
0000
1100
0000
,
0001
1000
0001
0000
0011
0000
0000
0002
,
0000
1000
1003
0000
0010
0000
0000
2000
,
0000
0001
3001
0000
1010
0000
0110
0000
,
0000
1000
0100
1000
0001
0100
0001
0000
,
0000
0010
0001
0100
0001
1000
0100
0000
,
0000
0000
1000
0000
0100
0000
1000
0000
0001
0000
0000
0001
0000
0000
0001
0000
,
0000
0010
0001
0100
0010
1000
0001
0000
,
0000
1000
0001
1000
0010
0100
0010
0100
,
0000
0001
0010
0100
1000
0000
0110
0000
,
0001
0100
0001
0000
1000
0100
1000
0000
,
0010
0100
0010
0100
0010
0000
1001
0000
,
1000
1100
0001
0101
,
1000
1010
0001
0011
,
0200
0000
0000
0010
0000
1000
0000
0301
,
0020
0000
0000
0100
0000
0001
0000
1030
,
0010
0011
1000
1100
,
0001
0101
0100
1010
,
0000
1001
0000
0010
0100
0001
0100
0001
,
0000
0110
0000
0010
1000
0100
1000
0100
,
1000
1010
0001
0011
,
0100
1100
0010
0101
,
2001
0000
0000
0010
0000
0001
0000
3100
,
0210
0000
0000
0001
0000
1000
0000
0310
,
0100
1001
0010
1100
,
0001
0011
0100
1010
,
0001
0000
0000
0000
1000
0100
0000
1000
,
0001
0000
0101
0110
,
0001
0000
1000
0100
0001
0000
1000
0100
,
0001
1100
0101
0000
,
0010
0000
1000
0001
0010
0000
1000
0001
,
0010
0011
1010
0000
,
1000
0000
0010
0100
1000
0000
0010
0100
,
1000
0110
1001
0000
,
0100
0000
0010
0001
0100
0000
0010
0001
,
0100
0000
0000
0000
0001
1000
0001
1000
,
0010
0000
1000
0100
0010
0000
1000
0100
,
0010
1100
1010
0000
,
0100
0000
1000
0001
0100
0000
1000
0001
,
0100
0101
0011
0000
,
0001
0000
0010
0100
0001
0000
0010
0100
,
0001
1001
0110
0000
,
1000
0000
0001
0010
1000
0000
0001
0010
,
1000
0000
0010
0100
0010
0000
1000
0001
,
1000
1010
0001
0011
,
1000
1100
0001
0101
,
0010
0000
1000
0001
0000
0100
0100
0000
,
0001
0000
0100
0010
0000
1000
1000
0000
,
0010
0110
1000
1001
,
0010
1000
0010
1000
0001
0100
0001
0100
,
0010
0000
0000
0000
1000
0100
0000
1000
,
0002
0000
0000
0003
;

//---------------dance-single - ----------------
#NOTEDATA:;
#CHARTNAME:;
#STEPSTYPE:dance-single;
#DESCRIPTION:;
#CHARTSTYLE:;
#DIFFICULTY:Easy;
#METER:4;
#RADARVALUES:0.220290,0.249498,0.000000,0.069305,0.000000,178.000000,178.000000,0.000000,8.000000,0.000000,0.000000,0.000000,0.000000,0.000000,0.220290,0.249498,0.000000,0.069305,0.000000,178.000000,178.000000,0.000000,8.000000,0.000000,0.000000,0.000000,0.000000,0.000000;
#CREDIT:;
#DISPLAYBPM:134.000000;
#NOTES:
0000
0000
0000
0000
,
0000
0000
0000
0000
,
0000
0000
0000
0000
,
0000
0000
0000
0000
,
0000
0000
0000
0000
,
0000
0000
0000
0000
,
0000
0000
0000
0000
,
0000
0000
0000
0000
,
0000
0000
0000
0000
,
0000
0001
1000
0100
,
0000
1000
0001
0010
,
0000
0001
0100
0010
,
0000
1000
0010
0100
,
0000
0001
0100
0100
,
1000
1000
1000
0000
,
0010
1000
0001
0000
,
0010
0001
1000
0000
,
0000
0100
0010
0100
,
0000
0001
1000
0001
,
0000
1000
0100
1000
,
0000
0001
0100
0001
,
0000
0010
1000
0010
,
0000
0001
0010
0001
,
1000
1000
0001
0001
,
0100
0010
0100
0000
,
0001
0001
1000
1000
,
0001
0001
1000
1000
,
0020
0000
0130
0000
,
0020
0000
0130
0000
,
0010
0010
1000
1000
,
0010
0010
1000
1000
,
0002
0000
0100
1003
,
0002
0000
0100
1003
,
0010
0010
0100
0100
,
0010
0010
0100
0100
,
2000
0000
3001
0000
,
2000
0000
3001
0000
,
0100
0100
0001
0001
,
0100
0100
0001
0001
,
1000
0000
0010
0000
,
0100
0000
0000
0000
,
0001
0100
1000
0100
,
0001
1000
1000
0000
,
1000
0100
0001
0100
,
1000
0001
0001
0000
,
0001
0010
1000
0010
,
0001
1000
1000
0000
,
1000
0010
0001
0010
,
1000
0000
0001
0001
,
0010
0001
0010
1000
,
0010
0100
0100
0000
,
0010
1000
0010
0001
,
0010
0100
0100
0000
,
0100
0001
0100
1000
,
0100
0010
0010
0000
,
0100
0001
0100
1000
,
0100
0010
1000
0001
,
1000
1000
0100
0100
,
0010
0010
0001
0001
,
0200
0000
0310
0000
,
0200
0000
0310
0000
,
0001
0001
0010
0010
,
0100
0100
1000
1000
,
0010
0000
1000
0000
,
0001
0000
0000
0000
;

//---------------dance-single - ----------------
#NOTEDATA:;
#CHARTNAME:;
#STEPSTYPE:dance-single;
#DESCRIPTION:;
#CHARTSTYLE:;
#DIFFICULTY:Beginner;
#METER:1;
#RADARVALUES:0.110145,0.166332,0.000000,0.000000,0.000000,89.000000,89.000000,0.000000,0.000000,0.000000,0.000000,0.000000,0.000000,0.000000,0.110145,0.166332,0.000000,0.000000,0.000000,89.000000,89.000000,0.000000,0.000000,0.000000,0.000000,0.000000,0.000000,0.000000;
#CREDIT:;
#DISPLAYBPM:134.000000;
#NOTES:
// measure 0
0000
0000
0000
0000
,  // measure 1
0000
0000
0000
0000
,  // measure 2
0000
0000
0000
0000
,  // measure 3
0000
0000
0000
0000
,  // measure 4
0000
0000
0000
0000
,  // measure 5
0000
0000
0000
0000
,  // measure 6
0000
0000
0000
0000
,  // measure 7
0000
0000
0000
0000
,  // measure 8
0000
0000
0000
0000
,  // measure 9
0010
0000
0000
0000
,  // measure 10
0100
0000
0000
0000
,  // measure 11
0001
0000
0000
0000
,  // measure 12
1000
0000
0000
0000
,  // measure 13
0001
0000
0001
0000
,  // measure 14
0001
0000
0000
0000
,  // measure 15
1000
0000
1000
0000
,  // measure 16
1000
0000
0000
0000
,  // measure 17
0001
0000
0000
0000
,  // measure 18
0100
0000
0000
0000
,  // measure 19
0010
0000
0000
0000
,  // measure 20
1000
0000
0000
0000
,  // measure 21
0010
0000
0000
0000
,  // measure 22
0100
0000
0000
0000
,  // measure 23
0001
0000
1000
0000
,  // measure 24
0010
0010
0010
0000
,  // measure 25
1000
0000
1000
0000
,  // measure 26
0001
0000
0001
0000
,  // measure 27
0010
0000
0000
0000
,  // measure 28
0010
0000
0000
0000
,  // measure 29
0001
0000
0001
0000
,  // measure 30
1000
0000
1000
0000
,  // measure 31
0100
0000
0000
0000
,  // measure 32
0100
0000
0000
0000
,  // measure 33
0010
0000
0010
0000
,  // measure 34
0100
0000
0100
0000
,  // measure 35
0001
0000
0000
0000
,  // measure 36
0001
0000
0000
0000
,  // measure 37
0100
0000
0100
0000
,  // measure 38
0010
0000
0010
0000
,  // measure 39
1000
0000
0000
0000
,  // measure 40
1000
0000
0000
0000
,  // measure 41
0001
0000
0100
0000
,  // measure 42
0001
0000
0000
0000
,  // measure 43
1000
0000
0100
0000
,  // measure 44
1000
0000
0000
0000
,  // measure 45
0001
0000
0010
0000
,  // measure 46
0001
0000
0000
0000
,  // measure 47
1000
0000
0010
0000
,  // measure 48
1000
0000
0000
0000
,  // measure 49
0010
0010
0010
0010
,  // measure 50
0010
0000
0000
0000
,  // measure 51
0100
0100
0100
0100
,  // measure 52
0100
0000
0000
0000
,  // measure 53
0001
0001
0001
0001
,  // measure 54
0001
0000
0000
0000
,  // measure 55
1000
1000
1000
1000
,  // measure 56
1000
0000
0000
0000
,  // measure 57
0001
0000
0010
0000
,  // measure 58
0100
0000
1000
0000
,  // measure 59
0010
0000
0000
0000
,  // measure 60
0100
0000
0000
0000
,  // measure 61
0010
0000
1000
0000
,  // measure 62
0001
0000
0100
0000
,  // measure 63
1000
0000
0000
0000
,  // measure 64
0001
0000
0000
0000
;
