#VERSION:0.83;
#TITLE:Across the nightmare (TRILL Special);
#SUBTITLE:;
#ARTIST:Jimmy Weckl;
#TITLETRANSLIT:;
#SUBTITLETRANSLIT:;
#ARTISTTRANSLIT:;
#GENRE:;
#ORIGIN:;
#CREDIT:;
#BANNER:Across the nightmare (TRILL Special)-bn.png;
#BACKGROUND:Across the nightmare (TRILL Special)-bg.png;
#PREVIEWVID:;
#JACKET:Across the nightmare (TRILL Special)-jacket.png;
#CDIMAGE:;
#DISCIMAGE:;
#LYRICSPATH:;
#CDTITLE:;
#MUSIC:Across the nightmare (TRILL Special).ogg;
#OFFSET:0.000000;
#SAMPLESTART:34.396000;
#SAMPLELENGTH:15.000000;
#SELECTABLE:YES;
#DISPLAYBPM:300.000000;
#BPMS:0.000=300.000;
#STOPS:;
#DELAYS:;
#WARPS:;
#TIMESIGNATURES:0.000=4=4;
#TICKCOUNTS:0.000=4;
#COMBOS:0.000=1;
#SPEEDS:0.000=1.000=0.000=0;
#SCROLLS:0.000=1.000;
#FAKES:;
#LABELS:0.000=Song Start;
#BGCHANGES:;
#KEYSOUNDS:;
#ATTACKS:
;

//---------------dance-single - ----------------
#NOTEDATA:;
#CHARTNAME:;
#STEPSTYPE:dance-single;
#DESCRIPTION:;
#CHARTSTYLE:;
#DIFFICULTY:Challenge;
#METER:15;
#RADARVALUES:1.031937,1.045898,0.576923,0.144231,0.084135,601.000000,553.000000,48.000000,12.000000,0.000000,0.000000,0.000000,0.000000,0.000000,1.031937,1.045898,0.576923,0.144231,0.084135,601.000000,553.000000,48.000000,12.000000,0.000000,0.000000,0.000000,0.000000,0.000000;
#CREDIT:;
#DISPLAYBPM:300.000000;
#NOTES:
// measure 0
0000
0000
0000
0000
,  // measure 1
0000
0000
0000
0000
,  // measure 2
0000
0000
0000
0000
,  // measure 3
0000
0000
0000
0000
,  // measure 4
0000
0000
0000
0000
,  // measure 5
0000
0000
0000
0000
,  // measure 6
0000
0000
0000
0000
,  // measure 7
0000
0000
0000
0000
,  // measure 8
0000
0000
0000
0000
,  // measure 9
0000
0000
0000
0000
,  // measure 10
0000
0000
0000
0000
,  // measure 11
1000
0000
0001
0100
0000
0001
0010
0100
,  // measure 12
1000
0000
0001
0010
0000
0001
0100
0010
,  // measure 13
1000
0000
0010
0100
0000
0001
1000
0010
,  // measure 14
1000
0000
0100
0010
0000
0000
0000
0000
,  // measure 15
0001
0000
1000
0100
0000
1000
0010
0100
,  // measure 16
0001
0000
1000
0010
0000
1000
0100
0010
,  // measure 17
0001
0000
0100
0010
0000
0100
0010
1000
,  // measure 18
0001
0000
0000
1100
0000
0000
0101
0000
,  // measure 19
1000
0100
1000
0100
1000
0100
1000
0100
,  // measure 20
0010
0100
0010
0100
0010
0100
0010
0100
,  // measure 21
1000
0001
1000
0001
1000
0001
1000
0001
,  // measure 22
1000
0001
1000
0001
1000
0001
1000
0001
,  // measure 23
0010
1001
0010
1001
,  // measure 24
0010
0000
1000
0100
0000
1000
0001
0000
,  // measure 25
2100
0000
0001
0002
0000
0000
3003
0000
,  // measure 26
0102
0000
1000
2000
0000
0000
3003
0000
,  // measure 27
0100
1001
0100
1001
,  // measure 28
0100
0000
0010
1000
0000
0001
0100
0000
,  // measure 29
0012
0000
1000
2000
0000
0000
3003
0000
,  // measure 30
2010
0000
0001
0002
0000
0000
3003
0000
,  // measure 31
0010
1001
0100
1001
,  // measure 32
0010
0000
1000
0001
0000
1000
0100
0000
,  // measure 33
0012
0000
0100
0200
0000
0000
0303
0000
,  // measure 34
2100
0000
0010
0020
0000
0000
3030
0000
,  // measure 35
1000
0001
1000
0001
1000
0001
1000
0001
,  // measure 36
0010
0001
0010
0001
0100
0001
0100
0001
,  // measure 37
1000
0001
1000
0001
1000
0001
1000
0001
,  // measure 38
0100
0000
0000
1010
0000
0000
0011
0000
,  // measure 39
0100
0010
0100
0010
0100
0010
0100
0010
,  // measure 40
1000
0010
1000
0010
1000
0010
1000
0010
,  // measure 41
0100
0001
0100
0001
0100
0001
0100
0001
,  // measure 42
1000
0100
1000
0100
0010
0100
1000
0000
,  // measure 43
0001
1000
0001
1000
0001
1000
0001
1000
,  // measure 44
0001
1000
0001
1000
0001
1000
0001
0000
,  // measure 45
1000
0100
1000
0100
1000
0100
1000
0100
,  // measure 46
1000
0100
1000
0100
1000
0000
0000
0000
,  // measure 47
0010
1000
0010
1000
0010
1000
0010
1000
,  // measure 48
0010
1000
0010
1000
0010
1000
0010
1000
,  // measure 49
0100
1000
0100
1000
0100
1000
0100
1000
,  // measure 50
0100
0001
0100
1000
0100
0000
0000
0000
,  // measure 51
0010
0001
0010
0001
0010
0001
0010
0001
,  // measure 52
0010
0001
0010
0001
0010
0001
0010
0000
,  // measure 53
0001
1000
0001
1000
0001
1000
0001
1000
,  // measure 54
0001
1000
0001
1000
0001
0000
0000
0000
,  // measure 55
0100
0001
0100
0001
0100
0001
0100
0001
,  // measure 56
0100
0001
0100
0001
0100
0001
0100
0001
,  // measure 57
0100
0010
0100
0010
0100
0010
0100
0010
,  // measure 58
1000
0100
1000
0001
0100
0001
0000
0000
,  // measure 59
1100
0000
0000
0000
0110
0000
0000
0000
0011
0000
0000
0000
,  // measure 60
0101
0000
0000
0000
0110
0000
0000
0000
1001
0000
0000
0000
,  // measure 61
0011
0000
0000
0000
1100
0000
0000
0000
0101
0000
0000
0000
,  // measure 62
1100
0000
0000
0000
0110
0000
0000
0000
0011
0000
0000
0000
,  // measure 63
1010
0000
0000
0000
1001
0000
0000
0000
0011
0000
0000
0000
,  // measure 64
1100
0000
0000
0000
0110
0000
0000
0000
1001
0000
0000
0000
,  // measure 65
0101
0000
0000
0000
0011
0000
0000
0000
1100
0000
0000
0000
,  // measure 66
1001
0100
1001
0100
,  // measure 67
1001
0000
0100
0010
0100
0010
0100
0000
,  // measure 68
0001
0010
0001
0010
0001
0010
0001
0000
,  // measure 69
1000
0100
1000
0100
1000
0010
1000
0010
,  // measure 70
0100
0000
0000
0110
0000
0000
0000
0000
,  // measure 71
1001
0000
0010
0001
0010
0001
0010
0000
,  // measure 72
1000
0001
1000
0001
1000
0001
1000
0000
,  // measure 73
0100
0001
0100
0001
0100
0010
0100
0010
,  // measure 74
1000
0000
0000
1100
0000
0000
0000
0000
,  // measure 75
0110
0000
0001
0010
0001
0010
0001
0000
,  // measure 76
0100
1000
0100
1000
0100
1000
0100
0000
,  // measure 77
1000
0010
1000
0010
0100
0010
0100
0010
,  // measure 78
1000
0000
0000
0101
0000
0000
0000
0000
,  // measure 79
0110
0000
0001
1000
0001
1000
0001
0000
,  // measure 80
1000
0100
1000
0100
1000
0100
1000
0000
,  // measure 81
0010
1000
0010
1000
0100
1000
0100
1000
,  // measure 82
0010
0000
0000
0101
0000
0000
1100
0000
,  // measure 83
0010
0100
0010
0100
0010
0100
0010
0100
,  // measure 84
0001
1000
0001
1000
0001
1000
0001
1000
,  // measure 85
0010
0100
0010
0100
0010
0100
0010
0100
,  // measure 86
0001
1000
0001
1000
0001
1000
0001
0000
,  // measure 87
1000
0100
1000
0100
1000
0100
1000
0100
,  // measure 88
1000
0100
1000
0100
1000
0100
1000
0100
,  // measure 89
1000
0100
1000
0100
1000
0100
1000
0100
,  // measure 90
1000
0100
1000
0100
0000
0000
0000
0000
,  // measure 91
0001
0010
0001
0010
0001
0010
0001
0010
,  // measure 92
0001
0010
0001
0010
0001
0010
0001
0010
,  // measure 93
0001
0010
0001
0010
0001
0010
0001
0010
,  // measure 94
0001
0010
0001
0010
0000
0000
0000
0000
,  // measure 95
0100
0001
0100
0001
0100
0001
0100
0001
,  // measure 96
0100
0001
0100
0001
0100
0001
0100
0001
,  // measure 97
0100
0001
0100
0001
0100
0001
0100
0001
,  // measure 98
0100
0001
0100
0001
0000
0000
0000
0000
,  // measure 99
0010
1000
0010
1000
0010
1000
0010
1000
,  // measure 100
0010
1000
0010
1000
0010
1000
0010
1000
,  // measure 101
0010
1000
0010
1000
0010
1000
0010
1000
,  // measure 102
0010
1000
0010
1000
0000
0000
0000
0000
;
