#TITLE:Acetone;
#SUBTITLE:;
#ARTIST:Sho Fish;
#TITLETRANSLIT:;
#SUBTITLETRANSLIT:;
#ARTISTTRANSLIT:;
#GENRE:;
#CREDIT:;
#BANNER:Acetone-bn.png;
#BACKGROUND:Acetone-bg.png;
#LYRICSPATH:;
#CDTITLE:;
#MUSIC:Acetone.ogg;
#OFFSET:0.000000;
#SAMPLESTART:79.058998;
#SAMPLELENGTH:20.000000;
#SELECTABLE:YES;
#DISPLAYBPM:170.000000;
#BPMS:0.000000=170.000000
;
#STOPS:
;
#BGCHANGES:;
#KEYSOUNDS:;
#ATTACKS:;

//---------------dance-single - ----------------
#NOTES:
     dance-single:
     :
     Hard:
     13:
     0.549224,0.706102,0.134897,0.505864,0.324596,456.000000,440.000000,16.000000,60.000000,0.000000,0.000000,0.549224,0.706102,0.134897,0.505864,0.324596,456.000000,440.000000,16.000000,60.000000,0.000000,0.000000:
0000
0000
0000
0000
,
0000
0000
0000
0000
,
0000
0000
0000
0000
,
0000
0000
0000
0000
,
0001
0000
0000
0000
0010
0000
0100
0000
1000
0000
0000
0010
0100
0000
0001
0000
,
0010
0000
0000
0000
0100
0000
1000
0000
0001
0000
0000
0100
0010
0000
1000
0000
,
0001
0010
0100
1000
0010
0100
0001
1000
,
2002
0000
0000
3003
,
0010
0000
1000
0000
0010
0000
0100
0010
0000
0000
1000
0000
0000
0000
0001
0000
,
0000
0000
0010
0000
0100
0000
1000
0010
0000
0000
1000
0000
0000
0000
0001
0000
,
0000
0000
1000
0000
0001
0000
0010
0100
0000
0000
0010
0000
0000
0000
0100
0000
,
0000
0000
1000
0000
0010
0000
1000
0001
0000
0000
0100
0000
0000
0000
0010
0000
,
0000
0000
1000
0000
0001
0000
1000
0100
0000
0000
0010
0000
0000
0000
0001
0000
,
0000
0000
0100
0000
0001
0000
0010
0100
0000
0000
1000
0000
0000
0000
0010
0000
,
0000
0000
0100
0000
0010
0000
0100
0001
0000
0000
0010
0000
0000
0000
1000
0000
,
0000
0000
0001
0000
0100
0000
0001
0010
0000
0000
1000
0000
0000
0000
0010
0000
,
0000
0000
0100
0000
0001
0000
1000
0100
0000
0000
0010
0000
0000
0000
0001
0000
,
0000
0000
0010
0000
0001
0000
1000
0001
0000
0000
1000
0000
0000
0000
0100
0000
,
0000
0000
0010
0000
0001
0000
0100
0001
0000
0000
1000
0000
0000
0000
0010
0000
,
0000
0000
1000
0000
0100
0000
0010
0001
0000
0000
1000
0000
0000
0000
0100
0000
,
1000
0000
0000
0100
1000
0000
0010
0000
0001
0000
0000
1000
0001
0000
0010
0000
,
0100
0000
0000
0010
0001
0000
0100
0000
0010
0000
0000
1000
0001
0000
0100
0000
,
0001
0010
0100
1000
0010
0100
0001
1000
,
0220
0000
0000
0330
,
2001
0000
0000
0020
0000
3000
0200
0030
,
2000
0000
0300
0200
0000
3000
0002
0300
,
0020
0000
0003
2000
0000
0030
0020
3000
,
0200
0000
0030
2000
0000
0300
0002
3000
,
2000
0000
0003
0020
0000
3000
0002
0030
,
0020
0000
0003
0200
0000
0030
2000
0300
,
0200
0000
3000
0002
0000
0300
0020
0003
,
0200
0000
0030
0002
0000
0300
0200
0003
,
2000
0000
0300
0002
0000
3000
2000
0003
,
0020
0000
3000
0002
0000
0030
0020
0003
,
2000
0000
0030
0002
0000
3000
0200
0003
,
0020
0000
0300
0002
0000
0030
0020
0003
,
2000
0000
0030
0200
0003
3000
0002
0300
,
0200
0000
0003
0020
0000
0300
0002
0030
,
2000
0000
0003
0002
0000
3000
0200
0003
,
0020
0000
0000
0330
,
1001
0000
1000
0000
0010
0000
1000
0001
,
0010
0000
0100
0000
1000
0010
0100
0001
,
0010
0000
0000
0100
0000
0000
2000
0000
0002
0000
0000
0000
3003
0000
0100
0000
,
0001
0000
0000
0010
0000
0000
0100
0000
1000
0000
0000
0001
0000
0000
1000
0000
,
0020
0000
0000
0200
0000
0030
0000
0000
0301
0000
0010
0000
0001
0000
1000
0000
,
0100
0000
0000
1000
0000
0000
0001
0000
1000
0000
0010
0000
0100
0000
0001
0000
,
0010
0000
0000
0001
0000
0000
0100
0000
0010
0000
0000
1000
0000
0000
0100
0000
,
1000
0000
0000
0001
0000
0000
0100
0000
0001
0000
0000
0010
0000
0000
1000
0000
,
1100
0000
0000
0001
0000
0000
1000
0000
0010
0000
0000
0100
0000
0000
0001
0000
,
0011
0000
0000
0010
0000
0000
0100
0000
1000
0000
0000
0001
0000
0000
0100
0000
,
0101
0000
0000
0001
0000
0000
1000
0000
0100
0000
0000
1000
0000
0000
0010
0000
,
1010
0000
0000
0100
0000
0000
0010
0000
0100
0000
0000
0001
0000
0000
1000
0000
,
0010
1000
0001
0100
1000
0010
0100
0001
,
1000
0100
0010
0001
1000
0010
0001
0100
,
1000
0001
0100
1000
0001
0010
0100
0010
,
0220
0000
0000
0330
,
0011
0000
0000
0001
0000
0000
1000
0000
0010
0000
0100
0000
0010
0000
1000
0000
,
0100
0000
0000
0010
0000
0000
0001
0000
0100
0000
0010
0000
1000
0000
0001
0000
,
0010
0000
0000
0010
0001
0000
1000
0000
0100
0000
0010
0000
0001
0000
1000
0000
,
0010
0000
0000
0010
1000
0000
0100
0000
0001
0000
0000
1000
0000
0000
0001
0000
,
0010
0000
0000
0100
0000
0000
1000
0000
0001
0000
1000
0000
0001
0000
0010
0000
,
0100
0000
0000
0010
0000
0000
0001
0000
0100
0000
0001
0000
1000
0000
0010
0000
,
1000
0000
0000
0100
0000
0000
0001
0000
0010
0000
0000
0100
0000
0000
1000
0000
,
0001
0000
0000
1000
0000
0000
0010
0000
0100
0000
0000
0010
0000
0000
1000
0000
,
0100
0000
0000
1000
0001
0000
1000
0000
0010
0000
0100
0000
0001
0000
0010
0000
,
0100
0000
0000
0010
0001
0000
0100
0000
0001
0000
1000
0000
0010
0000
0100
0000
,
0001
0000
0000
1000
0100
0000
0010
0000
0001
0000
0000
0100
0010
0000
1000
0000
,
0100
0000
0000
1000
0001
0000
0010
0000
0100
0000
0000
1000
0000
0000
0010
0000
,
1000
0000
0000
0010
0100
0000
0010
0000
1000
0000
0001
0000
0010
0000
0100
0000
,
1000
0000
0000
0001
0100
0000
0001
0000
0010
0000
0100
0300
1000
0000
0001
0000
,
1000
0000
0000
0010
0000
0000
0100
0000
0001
0000
0000
0010
0000
0000
1000
0000
,
0100
0000
0000
1000
0000
0000
0001
0000
0010
0000
0000
0001
0000
0000
0100
0000
,
1010
0000
0000
0010
0100
0000
0000
0100
0001
0000
0000
0010
0100
0000
1000
0000
,
0101
0000
0000
0001
1000
0000
0000
1000
0010
0000
0100
0000
0001
0000
0010
0000
,
1100
0000
0000
0001
1000
0000
0010
0000
0100
0000
0000
0001
1000
0000
0100
0000
,
0010
0000
0000
0100
1000
0000
0001
0000
1000
0000
0000
0010
0100
0000
0001
0000
,
0011
0000
0000
0001
0100
0000
0000
0010
1000
0000
0000
0100
0010
0000
0001
0000
,
1100
0000
0000
0010
1000
0000
0000
0001
0010
0000
0000
0001
0100
0000
0010
0000
,
1000
0100
0010
0001
0100
0010
1000
0001
,
0020
0000
0000
0001
0000
0000
1030
0000
0020
0000
0000
0100
0000
0000
0031
0000
,
2002
0000
0000
0000
,
0000
0000
0000
0000
,
0000
0000
0000
0000
,
0000
0000
0000
3003
;

//---------------dance-single - ----------------
#NOTES:
     dance-single:
     :
     Medium:
     10:
     0.443233,0.564881,0.236070,0.455277,0.000000,368.000000,340.000000,28.000000,54.000000,0.000000,0.000000,0.443233,0.564881,0.236070,0.455277,0.000000,368.000000,340.000000,28.000000,54.000000,0.000000,0.000000:
0000
0000
0000
0000
,
0000
0000
0000
0000
,
0000
0000
0000
0000
,
0000
0000
0000
0000
,
0001
0000
0001
0000
0001
0000
0001
0100
,
1000
0000
1000
0000
1000
0000
1000
0100
,
0001
0010
0100
0000
1000
0010
0100
0000
,
2002
0000
0000
3003
,
0001
1000
0000
0010
0000
0100
0000
0001
,
0000
0010
0000
0100
0000
1000
0000
0001
,
0000
1000
0000
0010
0000
0100
0000
0001
,
0000
0010
0000
0001
0000
0100
0000
1000
,
0000
0001
0000
0100
0000
0010
0000
0100
,
0000
0010
0000
1000
0000
0100
0000
0010
,
0000
0100
0000
1000
0000
0001
0000
0100
,
0000
0001
0000
0010
0000
0100
0000
1000
,
0001
0000
0010
0001
1000
0000
1100
0000
,
0010
0000
0100
0001
0010
0000
0110
0000
,
0100
0000
1000
0010
0100
0000
0101
0000
,
0001
0000
0010
0001
0100
0000
1010
0000
,
0001
0011
1000
1010
,
0001
0101
1000
1100
,
0001
0100
1000
0000
0010
0100
0001
0000
,
0220
0000
0000
0330
,
1002
0000
0000
2033
0000
0000
3002
0000
,
0023
0000
0000
0230
0000
0000
2300
0000
,
3002
0000
0000
2003
0000
0000
3200
0000
,
0320
0000
0000
0230
0000
0000
2300
0000
,
3002
0000
0000
0203
0000
0000
0302
0000
,
0023
0000
0000
0230
0000
0000
2300
0000
,
3020
0000
0000
0230
0000
0000
0302
0000
,
0023
0000
0000
0032
0000
0000
2003
0000
,
3002
0000
0000
0023
0003
0000
0230
0000
,
0320
0000
0000
0032
0000
0000
2003
0000
,
3200
0000
0000
2300
0000
0000
3020
0000
,
2030
0000
0000
3002
0000
0000
0203
0000
,
0302
0000
0000
0023
0000
0000
0230
0000
,
2300
0000
0000
3020
0000
0000
0230
0000
,
0320
0000
0000
2030
0000
0000
3002
0000
,
0200
0000
0000
0303
,
1001
0010
1000
0001
,
0010
0100
0010
0001
,
0100
1000
0010
0001
,
1000
0010
0100
0001
,
0010
0000
0100
0000
1000
0000
0010
0100
,
0001
0000
0010
0000
0100
0000
1000
0001
,
1000
0010
0001
0100
,
0001
0000
0010
0100
1000
0000
0010
0000
,
0010
0000
0001
0100
1000
0000
0110
0000
,
0001
0000
1000
0100
0010
0000
1100
0000
,
0001
0000
0010
0100
1000
0000
1010
0000
,
0010
0000
0100
0001
1000
0000
0101
0000
,
0001
0100
1000
0000
0010
1000
0100
0000
,
1000
0010
0001
0000
0100
0001
0010
0000
,
0001
0100
1000
0010
0100
0010
1000
0001
,
2002
0000
0000
3003
,
0011
0000
0001
0100
1000
3000
0010
0100
,
0001
0000
0010
0100
1000
0000
0001
1000
,
0010
0000
1000
0100
0001
0000
1100
0000
,
0001
0000
1000
0100
1000
0000
0010
0100
,
0001
0000
0010
0001
1000
0000
0100
0010
,
0100
0000
1000
0010
0001
0000
1000
0100
,
0010
0000
1000
0001
0100
0000
1010
0000
,
0001
0000
0010
0001
1000
0000
0100
0010
,
1000
0000
0001
0010
1000
0000
0100
0010
,
0001
0000
1000
0001
0100
0000
0100
0010
,
1000
0000
0001
0010
0100
0000
1001
0000
,
0001
0000
0010
0001
0100
0000
0011
0000
,
1000
0000
0001
1000
0100
0000
0010
0001
,
0100
0000
0001
0010
1000
0000
0100
0001
,
1000
0000
0010
0100
0010
0000
1000
0001
,
0010
0000
0001
0100
0001
0000
1000
0100
,
0110
0000
0001
0000
1000
0000
0100
0010
,
0100
0000
1000
0000
0010
0000
1000
0001
,
0100
0000
0001
0010
0001
0000
1000
0100
,
0010
0000
0001
1000
0010
0000
0100
0001
,
1000
0000
0001
0100
1000
0000
0011
0000
,
0100
0000
0010
1000
0001
0000
1100
0000
,
0010
1001
0100
1001
,
0001
0010
0100
1000
,
0220
0000
0000
0000
,
0000
0000
0000
0000
,
0000
0000
0000
0000
,
0000
0000
0000
0330
;

//---------------dance-single - ----------------
#NOTES:
     dance-single:
     :
     Easy:
     7:
     0.295087,0.353051,0.084311,0.202346,0.000000,245.000000,235.000000,10.000000,24.000000,0.000000,0.000000,0.295087,0.353051,0.084311,0.202346,0.000000,245.000000,235.000000,10.000000,24.000000,0.000000,0.000000:
0000
0000
0000
0000
,
0000
0000
0000
0000
,
0000
0000
0000
0000
,
0000
0000
0000
0000
,
0001
0001
1000
1000
,
0010
0010
0100
0100
,
0001
0010
0100
1000
,
2002
0000
0000
3003
,
0001
0010
0100
1000
,
0010
0100
0001
1000
,
0100
0010
0100
1000
,
0010
0100
0010
1000
,
0100
0001
0010
1000
,
0001
1000
0010
0100
,
0010
1000
0100
0010
,
0100
1000
0001
0100
,
0010
0010
0010
0010
,
0001
0001
0001
0001
,
1000
1000
1000
1000
,
0100
0100
0100
0100
,
1000
1000
0001
0001
,
0100
0100
0010
0010
,
1000
0001
0010
0100
,
0220
0000
0000
0330
,
2000
0000
0000
3000
,
0020
0000
0000
0030
,
0200
0000
0000
0300
,
0002
0000
0000
0003
,
0020
0000
0000
0030
,
0002
0000
0000
0003
,
0203
0000
0000
0300
,
2000
0000
0000
3000
,
0002
0000
0000
0003
,
0200
0000
0000
0300
,
0020
0000
0000
0030
,
2000
0000
0000
3000
,
0200
0000
0000
0300
,
0020
0000
0000
0030
,
0002
0000
0000
0003
,
2000
0000
0000
3000
,
1001
0010
1000
0000
,
0100
0010
0001
0000
,
1000
0001
1000
0000
,
0010
0100
0001
1000
,
0100
1000
0001
0000
,
0010
0001
1000
0000
,
0001
0100
0010
0000
,
0100
0010
1000
0001
,
0110
1000
0001
0000
,
1001
1000
0100
0000
,
0110
0001
0010
0000
,
1001
0010
0100
0000
,
0001
0001
1000
1000
,
0010
0010
0100
0100
,
0010
1000
0100
0001
,
0220
0000
0000
0330
,
1001
0010
1000
0100
,
1000
0010
0100
0001
,
0010
0100
1000
0010
,
1000
0001
1000
0100
,
0010
0001
0100
0001
,
0010
0100
1000
0010
,
1000
0100
0010
0001
,
0100
0010
0100
0001
,
0010
1000
0100
0010
,
0001
0100
1000
0010
,
1000
0001
0010
0001
,
0100
0010
1000
0100
,
1000
0010
0100
0001
,
0010
0100
0010
0001
,
1000
0010
1000
0001
,
0010
0100
0010
0001
,
0100
1000
0010
0001
,
1000
0010
0100
0001
,
1000
0001
0010
0100
,
1000
0010
0001
0100
,
0001
0010
0100
1000
,
0010
0100
0001
1000
,
0100
0010
0100
1000
,
0001
0000
0000
3003
,
0220
0000
0000
0000
,
0000
3003
0000
0000
,
0000
0000
0000
0000
,
0000
0000
0000
0330
;

//---------------dance-single - ----------------
#NOTES:
     dance-single:
     :
     Beginner:
     4:
     0.137306,0.202346,0.042155,0.000000,0.000000,114.000000,109.000000,5.000000,0.000000,0.000000,0.000000,0.137306,0.202346,0.042155,0.000000,0.000000,114.000000,109.000000,5.000000,0.000000,0.000000,0.000000:
// measure 0
0000
0000
0000
0000
,  // measure 1
0000
0000
0000
0000
,  // measure 2
0000
0000
0000
0000
,  // measure 3
0000
0000
0000
0000
,  // measure 4
0001
0000
0001
0000
,  // measure 5
1000
0000
1000
0000
,  // measure 6
0001
0000
1000
0000
,  // measure 7
1001
0000
0000
0000
,  // measure 8
0000
0010
0000
0000
,  // measure 9
0000
0100
0000
0000
,  // measure 10
0000
0010
0000
0000
,  // measure 11
0000
0100
0000
0000
,  // measure 12
0000
0001
0000
0000
,  // measure 13
0000
1000
0000
0000
,  // measure 14
0000
0001
0000
0000
,  // measure 15
0000
1000
0000
0000
,  // measure 16
0001
0000
0001
0000
,  // measure 17
0010
0000
0010
0000
,  // measure 18
0100
0000
0100
0000
,  // measure 19
1000
0000
1000
0000
,  // measure 20
0010
0000
0010
0000
,  // measure 21
0100
0000
0100
0000
,  // measure 22
0010
0000
0100
0000
,  // measure 23
0110
0000
0000
0000
,  // measure 24
0001
0000
0000
0000
,  // measure 25
0000
0000
0000
0000
,  // measure 26
1000
0000
0000
0000
,  // measure 27
0000
0000
0000
0000
,  // measure 28
0010
0000
0000
0000
,  // measure 29
0000
0000
0000
0000
,  // measure 30
0100
0000
0000
0000
,  // measure 31
0000
0000
0000
0000
,  // measure 32
0001
0000
0000
0000
,  // measure 33
0000
0000
0000
0000
,  // measure 34
0010
0000
0000
0000
,  // measure 35
0000
0000
0000
0000
,  // measure 36
0100
0000
0000
0000
,  // measure 37
0000
0000
0000
0000
,  // measure 38
1000
0000
0000
0000
,  // measure 39
0000
0000
0000
0000
,  // measure 40
1001
0000
0000
0000
,  // measure 41
0010
0000
0000
0000
,  // measure 42
1000
0000
0000
0000
,  // measure 43
0100
0000
0000
0000
,  // measure 44
0001
0000
0000
0000
,  // measure 45
0100
0000
0000
0000
,  // measure 46
0010
0000
0000
0000
,  // measure 47
1000
0000
0000
0000
,  // measure 48
0010
0000
0010
0000
,  // measure 49
0100
0000
0100
0000
,  // measure 50
0001
0000
0001
0000
,  // measure 51
1000
0000
1000
0000
,  // measure 52
0001
0000
0010
0000
,  // measure 53
0100
0000
1000
0000
,  // measure 54
0001
0000
0100
0000
,  // measure 55
0110
0000
0000
0000
,  // measure 56
1000
0000
1000
0000
,  // measure 57
0010
0000
0010
0000
,  // measure 58
0100
0000
0100
0000
,  // measure 59
0001
0000
0001
0000
,  // measure 60
0010
0000
0010
0000
,  // measure 61
0100
0000
0100
0000
,  // measure 62
1000
0000
0001
0000
,  // measure 63
1000
0000
0001
0000
,  // measure 64
1000
0000
0010
0000
,  // measure 65
0001
0000
0100
0000
,  // measure 66
0010
0000
0100
0000
,  // measure 67
0001
0000
1000
0000
,  // measure 68
0100
0000
0010
0000
,  // measure 69
0100
0000
1000
0000
,  // measure 70
0001
0000
0010
0000
,  // measure 71
0001
0000
1000
0000
,  // measure 72
0010
0000
0010
0000
,  // measure 73
0010
0000
0010
0000
,  // measure 74
0100
0000
0100
0000
,  // measure 75
0100
0000
0100
0000
,  // measure 76
0001
0000
0001
0000
,  // measure 77
1000
0000
1000
0000
,  // measure 78
0001
0000
1000
0000
,  // measure 79
0001
0000
0000
0000
,  // measure 80
1001
0000
0000
0000
;
