#TITLE:Accelerator;
#SUBTITLE:;
#ARTIST:seo;
#TITLETRANSLIT:;
#SUBTITLETRANSLIT:;
#ARTISTTRANSLIT:;
#GENRE:;
#CREDIT:;
#BANNER:Accelerator-bn.png;
#BACKGROUND:Accelerator-bg.png;
#LYRICSPATH:;
#CDTITLE:;
#MUSIC:Accelerator.ogg;
#OFFSET:-0.050000;
#SAMPLESTART:63.126999;
#SAMPLELENGTH:20.000000;
#SELECTABLE:YES;
#DISPLAYBPM:156.000000;
#BPMS:0.000000=156.000000
;
#STOPS:
;
#BGCHANGES:;
#KEYSOUNDS:;
#ATTACKS:;

//---------------dance-single - ----------------
#NOTES:
     dance-single:
     :
     Hard:
     16:
     0.795713,0.938213,0.610140,0.993938,0.900449,566.000000,504.000000,62.000000,101.000000,0.000000,0.000000,0.795713,0.938213,0.610140,0.993938,0.900449,566.000000,504.000000,62.000000,101.000000,0.000000,0.000000:
0000
0000
0000
0000
,
0000
0000
0000
0000
,
0000
0000
0000
0000
3030
0000
0000
0000
0000
0000
0000
0000
0000
0300
0000
0000
,
0000
0000
0000
0000
,
0000
0000
0000
0000
,
1100
0000
0000
0110
0000
0000
0011
0000
0000
1001
0000
0000
0202
0000
0000
0000
,
0000
0000
0303
0000
1000
0001
0010
0100
,
1100
0000
0000
1010
0000
0000
0110
0000
0000
0101
0000
0000
0001
0010
0100
1000
,
0000
1000
0001
0000
0022
0000
0000
0000
0000
0000
0000
0000
0033
0000
0000
0000
,
1001
0000
1000
0100
1000
0000
0001
0100
0001
0000
0000
0000
0000
0000
0010
0100
,
1000
0000
0010
0100
0001
0000
1000
0000
0002
0000
0013
0000
0200
0000
1300
0000
,
0010
0000
0100
0001
0100
0000
0010
1000
0010
0000
1000
0000
0001
0000
0100
0000
,
0010
0000
1000
0100
1000
0000
0001
0000
0010
0001
0100
0001
1000
0000
0010
0000
,
2200
0000
0300
0000
0002
0000
0000
3003
0022
0000
0033
2002
0000
3003
2020
0000
,
0000
3030
1000
0001
0200
0000
0000
0300
0220
0000
0330
0232
0000
0303
1001
3003
,
3223
0000
0000
0330
2020
0000
0000
3030
2200
0000
3300
1300
0010
0100
0001
0000
,
0010
0001
0010
0001
1000
0010
1000
0010
0100
1000
0100
0001
0200
0000
0000
0000
,
0320
0000
2000
3000
0002
0003
0000
0130
,
2002
0000
3003
2200
0000
0000
3300
0022
,
0000
0000
0000
0000
0000
0000
0000
0000
0000
0000
0000
0030
0000
0000
2003
0000
,
3002
0000
0203
0000
0320
0000
2030
0000
3002
0000
0023
0000
0031
1000
0200
0000
,
0000
0000
0001
2000
3000
0000
0000
0320
,
0000
0000
0032
0000
2003
0000
3200
0000
2300
0000
3002
0000
0003
0003
0202
0000
,
0000
0000
0303
0220
0000
0000
0000
0330
,
2000
0000
3002
0000
0023
0000
0230
0000
1300
0001
0100
0010
1000
0100
0010
0001
,
0200
0000
0000
0000
0320
0000
0000
0000
2030
0000
0000
0000
3001
1000
0001
0000
,
0020
0000
0000
0000
0031
0100
0001
0000
1000
0000
0010
0000
0100
0000
0001
0000
,
0020
0000
0230
0000
2300
0000
3001
0020
,
0000
0000
0031
0100
0010
0100
0010
1000
0100
1000
0001
1000
0001
0010
0100
1000
,
0010
0000
0100
0000
0010
0000
1000
0000
0100
0000
0010
0000
0100
0000
0001
0100
,
1000
0010
0100
0001
0010
1000
0010
0001
,
0100
0101
1100
0101
,
0001
0010
0001
0010
0100
1000
0100
1000
0010
0000
0100
0000
0001
0000
1000
0000
,
1001
0010
0200
0000
0302
0000
1003
0000
,
0110
0000
1000
0020
0000
0130
0001
1000
,
1100
0000
0000
1000
0001
0000
0000
0001
0010
0000
0000
0010
0100
0000
1000
0000
,
0101
0000
0001
0000
1000
0000
0100
0000
1000
0000
0001
0000
0010
0100
0010
0000
,
0011
0000
0000
0000
1100
0000
0000
0000
0011
0000
0000
0110
0000
0000
1100
0000
,
1010
0000
1001
0000
1001
0000
0000
0000
0011
0000
0000
0101
0000
0000
0110
0000
,
0001
0010
1000
0001
0100
1000
3001
0010
1000
0001
0100
1000
,
0020
0230
0302
2003
3000
1100
0202
0303
,
2002
0000
3003
0000
0010
1000
0100
0010
0001
0000
0010
0001
0000
1000
0010
0000
,
0000
0000
0001
0100
0001
1000
0100
1000
0010
0001
0010
0100
0010
1000
0010
0000
,
0000
1010
0011
0100
0110
0010
1000
2200
,
3300
0000
0001
0100
1000
0100
0001
0000
0020
0000
0230
0000
2300
0000
3002
0000
,
1003
0000
0010
0100
0001
0000
0013
0000
0100
0000
1000
0001
0000
1000
0100
0000
,
0000
0000
0020
0032
0003
1000
0001
0000
2000
3200
1300
0000
0020
0030
0130
0001
,
2000
3020
0230
0302
0013
1001
0100
2002
,
3000
0000
0203
0000
0000
0000
0301
0010
0001
1000
0000
0010
0000
0100
0001
1000
,
0001
0000
0000
0000
0010
0100
0001
0100
1000
0000
0000
0101
0000
0010
1000
0001
,
1000
0100
0000
0010
0000
0001
0100
0001
0010
0100
0000
1000
0000
0010
0100
0001
,
1000
0000
1000
0000
0010
0000
0100
0000
0100
0000
0001
0010
0000
0001
1000
0001
,
0010
0001
0000
0000
0011
0000
0000
1100
0000
0001
0100
0000
0110
0000
0010
1000
,
0000
0000
0100
1000
0001
0100
0010
0100
0001
1000
0001
0010
0000
0001
0100
0010
,
1000
0000
0100
0010
0100
1000
0001
0100
0010
0001
0010
1000
0000
0100
0010
0100
,
1000
0000
0010
0000
0100
0000
0001
0010
0100
1000
0000
0001
0000
0100
0010
1000
,
0002
1003
0000
0020
0130
0000
0110
0000
1001
0000
1000
0001
0200
0000
0010
0300
,
1010
0000
0000
0000
1000
0100
0010
0100
1000
0000
0000
0002
0000
0013
0001
0100
,
0010
0100
0010
1000
0000
0000
0100
0010
0100
1000
0000
0001
0000
1000
0001
0010
,
0000
0000
1100
0000
0000
0000
0001
1000
0001
0010
0100
1000
0000
0010
0100
0010
,
0000
0000
1000
3100
0000
0000
0100
0001
0000
0000
1000
0010
0030
0000
0010
0001
,
0100
0000
0010
1000
0000
0000
0001
1000
0100
0010
0100
1000
0000
0001
0010
0100
,
0000
0000
1000
0010
0000
0000
0010
0001
0000
0000
1000
0100
0000
0000
0100
0001
,
0000
0000
0011
0000
0000
0000
1000
0001
0010
0001
0100
0010
0000
1000
0100
1000
,
0010
0100
0010
0100
0001
1000
0001
1000
0100
0010
0100
0010
0001
1000
0001
1000
,
0020
0000
0000
0030
;

//---------------dance-single - ----------------
#NOTES:
     dance-single:
     :
     Medium:
     13:
     0.528601,0.614692,0.295229,0.688868,0.123012,376.000000,346.000000,30.000000,70.000000,0.000000,0.000000,0.528601,0.614692,0.295229,0.688868,0.123012,376.000000,346.000000,30.000000,70.000000,0.000000,0.000000:
0000
0000
0000
0000
,
0000
0000
0000
0000
,
0000
0000
0000
0000
,
0000
0000
0000
0000
,
0000
0000
0000
0000
,
2100
0000
0000
0001
0000
0000
0100
0000
0000
0001
0000
0000
0200
0000
0000
0000
,
0000
0000
3000
0000
1300
0010
0100
0001
,
0102
0000
0300
1000
0000
0000
0100
0000
0000
1003
0000
0000
0001
0000
0000
1000
,
0000
0001
0022
0000
0000
0000
0033
0000
,
1001
0010
1000
0100
0002
0000
0003
1000
,
0001
0100
0010
1000
0100
0010
0001
1000
,
0000
0010
1000
0100
0002
0000
0003
0010
,
0001
0100
0010
1000
0100
0001
0100
1000
,
0020
0000
0000
0000
0230
0000
0000
0000
0302
0000
0000
2003
0000
0000
3002
0000
,
0000
0000
0023
0000
0230
0000
0000
0000
2300
0000
0000
3020
0000
0000
0230
0000
,
0302
0000
0000
0000
2003
0000
0000
0000
3020
0000
0000
0130
0010
0000
1000
0000
,
0100
0010
0001
0100
1000
0100
0002
0000
,
2003
0001
0200
3000
,
0002
0300
0000
0200
0000
0003
0003
2000
,
0000
0000
0000
0000
0000
0300
0000
3020
,
0000
1030
0001
0010
0100
1000
0010
0200
,
0000
0000
0001
0002
0000
0300
0000
0023
,
0000
0130
0010
0001
2000
0010
0000
0200
,
0000
3000
0000
0002
3000
0000
0300
0000
,
0103
0000
1000
0000
0001
0000
1000
0000
0010
0100
0010
0100
0310
0000
0000
0000
,
0120
0000
0032
0000
0203
0000
1300
0010
,
3200
0000
1300
0100
0001
1000
0001
0000
,
0021
0000
2030
0000
3200
0000
0301
0020
,
0000
0031
1030
0001
0100
0010
1000
0100
,
1000
0000
0000
0000
0101
0000
0200
0000
0000
0000
0302
0000
0000
0000
1003
0001
,
1000
0010
0100
0001
0010
1000
0010
0100
,
2000
3020
0230
0302
,
0013
0001
1000
0010
0100
0001
1000
0000
,
1001
0010
0100
0001
,
0110
0001
1000
0100
,
0011
0010
0100
1000
,
1010
0001
0100
1000
,
1100
0000
0000
0000
3001
0000
0000
0000
0100
0000
0000
0010
0000
0000
1000
0000
,
0101
0000
0001
0000
1000
0000
0000
0000
0100
0000
0000
0010
0000
0000
0001
0000
,
1100
0011
1010
0101
,
1000
0100
0010
0002
0000
0103
0110
0000
,
1001
0000
0000
0000
0010
0000
1000
0000
0200
0000
0000
0320
0000
0000
0032
0000
,
0000
1000
1003
0001
0010
0100
0010
0001
,
0000
0100
0010
0100
0001
0010
0100
2000
,
0000
3001
1000
0010
0100
1000
0100
0001
,
0000
0000
0010
0000
0101
0000
0000
0000
2000
0000
0000
3002
0000
0000
0203
0000
,
0000
0000
0310
0100
0000
0000
0000
0000
0001
1000
0000
0000
0001
0000
0100
0000
,
0001
0010
0100
1000
0001
0100
0010
2000
,
0000
0000
3002
0000
0000
0000
0103
0010
0100
0000
0000
0110
0000
0000
1001
0000
,
1000
0000
0000
0000
0100
0000
0010
0000
0001
0000
0000
1010
0000
0000
1000
0000
,
0010
0100
0010
0001
0010
1000
0100
0010
,
0100
0001
0100
1000
0010
0100
0001
1000
,
1100
0000
0000
0000
0101
0000
0000
1001
0000
0000
0001
1000
0001
0000
0000
0000
,
0100
0010
0100
1000
0100
0001
0010
0100
,
1000
0010
0001
0010
0100
0010
1000
0100
,
0001
0100
0010
0001
0100
1000
0100
0010
,
1000
0100
0010
0001
0100
0010
1001
0000
,
1010
0000
0000
0000
0001
0000
0100
0000
0020
0000
0000
2030
0000
0000
3001
0000
,
2000
0000
0000
3200
0000
0000
0310
0000
0002
0000
0000
0203
0000
0000
0310
0000
,
0000
0101
0000
1000
0001
0100
0001
1000
,
0000
0020
0000
0230
0000
0320
0000
1030
,
1100
0001
0000
0100
0010
1000
0010
0100
,
0001
0010
0100
1000
0010
0100
0001
1000
,
0000
0200
0000
0320
0000
0032
0000
1003
,
0010
0100
0010
1000
0100
0010
0001
1000
,
0020
0000
0000
0030
;

//---------------dance-single - ----------------
#NOTES:
     dance-single:
     :
     Easy:
     7:
     0.352869,0.388226,0.275547,0.186978,0.000000,251.000000,223.000000,28.000000,19.000000,0.000000,0.000000,0.352869,0.388226,0.275547,0.186978,0.000000,251.000000,223.000000,28.000000,19.000000,0.000000,0.000000:
0000
0000
0000
0000
,
0000
0000
0000
0000
,
0000
0000
0000
0000
,
0000
0000
0000
0000
,
0000
0000
0000
0000
,
0001
0100
1000
2002
,
0000
3003
0100
0010
,
1000
0100
0010
0001
,
0100
0220
0000
0330
,
1001
0010
1000
0100
,
0010
0100
1000
0001
,
0010
0001
0100
1000
,
0010
0100
0010
1000
,
0100
1100
0001
0100
,
0010
1000
0100
0001
,
0011
1100
0010
0100
,
0001
0010
0100
1000
,
0020
0001
1030
0000
,
0200
0000
0000
0320
0300
0000
0000
0032
,
0000
0000
0000
0000
,
1003
0010
0100
0001
,
1000
0000
0102
0000
0000
0000
0300
2003
,
0000
0000
0010
0000
3200
0000
0000
0332
,
0000
0000
0000
0203
0000
0000
0000
0000
,
1303
0001
0110
1001
,
1000
0001
0010
0100
,
0010
0001
0100
1000
,
0010
1000
0100
0001
,
0010
0100
0010
0001
,
0100
0001
0010
0100
,
1000
0010
0100
0001
,
0100
1000
0010
0100
,
0010
0001
0100
1000
,
1001
1000
0100
0010
,
0110
1000
0001
0100
,
0101
0010
1000
0100
,
1100
0001
1000
0010
,
1010
0001
1000
0100
,
0011
1000
0010
0001
,
2000
3200
0320
0032
,
0103
0010
1000
0101
,
1001
0001
1000
0010
,
0100
0010
1000
0001
,
0000
0011
1100
0001
,
1000
0010
0100
0001
,
0000
0110
1000
0100
,
0010
0001
0100
1000
,
0001
0010
0001
1000
,
0200
0300
1001
0110
,
1001
0100
0010
1000
,
0100
0001
0010
1000
,
0100
0010
1000
0100
,
1100
0101
0010
1001
,
0001
0010
0001
0100
,
1000
0010
0001
1000
,
0100
0010
0100
1000
,
0001
0010
0011
1010
,
0100
1000
0010
0100
,
0010
1000
0001
0010
,
0001
0100
0010
1000
,
0100
0010
0001
0100
,
0010
0100
0010
1000
,
0100
0001
0010
0100
,
0010
0001
0100
1000
,
0001
1000
0001
0100
,
0020
0000
0000
0030
;

//---------------dance-single - ----------------
#NOTES:
     dance-single:
     :
     Beginner:
     5:
     0.192602,0.258817,0.137774,0.039364,0.000000,137.000000,123.000000,14.000000,4.000000,0.000000,0.000000,0.192602,0.258817,0.137774,0.039364,0.000000,137.000000,123.000000,14.000000,4.000000,0.000000,0.000000:
// measure 0
0000
0000
0000
0000
,  // measure 1
0000
0000
0000
0000
,  // measure 2
0000
0000
0000
0000
,  // measure 3
0000
0000
0000
0000
,  // measure 4
0000
0000
0000
0000
,  // measure 5
0001
0001
0001
0002
,  // measure 6
0000
0000
0003
0000
,  // measure 7
1000
1000
1000
0000
,  // measure 8
0000
2002
0000
3003
,  // measure 9
0000
0010
0010
0000
,  // measure 10
1000
1000
1000
1000
,  // measure 11
0000
0100
0100
0000
,  // measure 12
0001
0000
0001
0000
,  // measure 13
1000
0000
0001
0000
,  // measure 14
0000
0100
0100
0000
,  // measure 15
0010
0000
0100
0000
,  // measure 16
0010
0010
0010
0000
,  // measure 17
1001
0000
0000
0000
,  // measure 18
0001
0000
0000
0000
,  // measure 19
0010
0000
0000
0000
,  // measure 20
1000
1000
1000
1000
,  // measure 21
0000
0100
0000
0000
,  // measure 22
1000
0000
0001
0000
,  // measure 23
0010
0000
0000
0000
,  // measure 24
0001
0001
0001
0000
,  // measure 25
1001
0000
0000
0000
,  // measure 26
0100
0000
0010
0000
,  // measure 27
1000
0000
1000
0000
,  // measure 28
0001
0000
0001
0000
,  // measure 29
0010
0000
0001
0000
,  // measure 30
0100
0000
1000
0000
,  // measure 31
0001
0000
1000
0000
,  // measure 32
0010
0000
0100
0000
,  // measure 33
1001
0000
0000
0000
,  // measure 34
0110
0000
0000
0000
,  // measure 35
1001
0000
0000
0000
,  // measure 36
0110
0000
0000
0000
,  // measure 37
1001
0000
0000
0000
,  // measure 38
0110
0000
0000
0000
,  // measure 39
1001
0000
0000
0000
,  // measure 40
0100
0100
0100
0000
,  // measure 41
1001
0000
0001
0000
,  // measure 42
1000
0000
0010
0010
,  // measure 43
0000
1000
0001
1000
,  // measure 44
0000
0100
0010
0001
,  // measure 45
0000
0100
0100
0000
,  // measure 46
0001
0000
1000
1000
,  // measure 47
0010
0000
0100
0000
,  // measure 48
0110
0000
0001
0001
,  // measure 49
0001
0000
1000
0000
,  // measure 50
0100
0000
0010
0000
,  // measure 51
0001
0001
0001
0000
,  // measure 52
0001
0001
1000
0001
,  // measure 53
0010
0000
0001
0000
,  // measure 54
0100
0000
1000
0000
,  // measure 55
0001
0000
1000
0000
,  // measure 56
0010
0100
0010
0000
,  // measure 57
0110
0000
0001
0000
,  // measure 58
1000
0000
0001
0000
,  // measure 59
1000
0000
0100
0000
,  // measure 60
0010
0000
0001
0000
,  // measure 61
1001
0000
0100
0000
,  // measure 62
0010
0000
0100
0000
,  // measure 63
0001
0000
0010
0000
,  // measure 64
1000
0000
0000
0000
,  // measure 65
0020
0000
0000
0030
;
