#VERSION:0.83;
#TITLE:ASK;
#SUBTITLE:;
#ARTIST:RAM;
#TITLETRANSLIT:;
#SUBTITLETRANSLIT:;
#ARTISTTRANSLIT:;
#GENRE:;
#ORIGIN:;
#CREDIT:;
#BANNER:ASK-bn.png;
#BACKGROUND:ASK-bg.png;
#PREVIEWVID:;
#JACKET:ASK-jacket.png;
#CDIMAGE:;
#DISCIMAGE:;
#LYRICSPATH:;
#CDTITLE:;
#MUSIC:ASK.ogg;
#OFFSET:0.000000;
#SAMPLESTART:14.211000;
#SAMPLELENGTH:20.000000;
#SELECTABLE:YES;
#DISPLAYBPM:152.000000;
#BPMS:0.000=152.000;
#STOPS:;
#DELAYS:;
#WARPS:;
#TIMESIGNATURES:0.000=4=4;
#TICKCOUNTS:0.000=4;
#COMBOS:0.000=1;
#SPEEDS:0.000=1.000=0.000=0;
#SCROLLS:0.000=1.000;
#FAKES:;
#LABELS:0.000=Song Start;
#BGCHANGES:;
#KEYSOUNDS:;
#ATTACKS:
;

//---------------dance-single - ----------------
#NOTEDATA:;
#CHARTNAME:;
#STEPSTYPE:dance-single;
#DESCRIPTION:;
#CHARTSTYLE:;
#DIFFICULTY:Hard;
#METER:13;
#RADARVALUES:0.625923,0.713937,0.520055,0.455048,0.507053,337.000000,297.000000,40.000000,35.000000,0.000000,0.000000,0.000000,0.000000,0.000000,0.625923,0.713937,0.520055,0.455048,0.507053,337.000000,297.000000,40.000000,35.000000,0.000000,0.000000,0.000000,0.000000,0.000000;
#CREDIT:;
#DISPLAYBPM:152.000000;
#NOTES:
0000
0000
0000
0000
,
0000
0000
0000
0000
,
0000
0000
0000
0000
,
0000
0000
0000
0000
,
0000
0000
0000
0000
,
0101
0000
0000
0000
1100
0000
0000
0000
0001
0000
1000
0010
0000
0000
0100
0000
,
0001
0000
0000
0000
0010
0000
0000
0000
0100
0000
1000
0001
0000
0000
0100
0000
,
0010
0000
0100
0000
0001
0000
0110
0000
0000
0000
1000
0100
0000
1000
0001
0000
,
2002
0000
0000
3003
,
0020
0000
2030
0000
3002
0100
0103
0000
,
0002
0000
1000
0000
1003
0000
0010
0000
0200
0000
0000
0320
0000
0000
1030
0001
,
2000
0000
0000
0000
3100
0000
0000
1000
0302
0000
0010
0000
0013
0000
0000
0000
,
1000
0000
1100
0000
0001
0000
0100
0000
0101
0000
0010
0000
1000
0000
0100
0010
,
0200
0000
0000
0000
2300
0000
0000
0000
3001
0000
1030
0100
0000
0000
0010
0000
,
0001
0000
0011
0000
1000
0000
0010
0000
1010
0000
0100
0000
0001
0000
1000
0100
,
2000
0000
0000
0000
3010
0000
1000
0001
0000
0000
1000
0100
0000
0010
0001
0000
,
2001
0000
0000
0000
3001
0000
0100
0000
2000
0000
0000
3001
0000
0000
1000
0000
,
0110
0000
0000
0000
0001
0010
0000
0010
0000
0010
0000
0100
2000
0000
0000
0000
,
3001
0000
0010
0000
0100
1000
0000
1000
0000
0001
0000
0000
0000
0100
0000
0010
,
1000
0000
0100
0000
0010
0001
0000
0001
0000
1000
0000
0001
0200
0000
0000
0000
,
0310
0000
1000
0031
0000
1000
0001
0000
0202
0000
0000
0000
0303
0000
0000
0000
,
1001
0000
0000
0000
0010
1000
0000
1000
0000
1000
0000
0001
0200
0000
0000
0000
,
0301
0000
1000
0000
0100
1000
0000
1000
0000
0010
0100
0000
0000
0001
0000
1000
,
0010
0000
0100
0000
0010
1000
0000
0001
0000
0001
0000
0001
0200
0000
0000
0000
,
0301
0001
0001
0001
0011
0011
1000
0000
,
1100
0000
0001
0000
1000
0000
0000
0000
0010
0000
0000
0100
0000
0000
0001
0000
,
0000
0000
1000
0000
0101
0000
0000
0000
0010
0000
1000
0001
1000
0000
0100
0000
,
0011
0000
1000
0000
0001
0000
0000
0000
0100
0000
0000
0010
0000
0000
1000
0000
,
0110
0000
0000
0110
0000
0000
0110
0000
1000
0000
0001
0100
0000
0100
0001
0000
,
0011
0000
1000
0000
0010
0000
1010
0000
0001
0000
0000
1000
0000
0000
0100
0000
,
0000
0000
0010
0000
1100
0000
0000
0000
0001
0000
1000
0010
1000
0000
0100
0000
,
1001
0000
0100
0000
0010
0000
0000
0000
1000
0000
0001
0100
0000
0001
0100
0000
,
0020
0000
0000
0001
0000
0000
0100
0000
0000
1000
0000
0000
0230
0000
0000
0000
,
0302
0000
0000
0010
0000
0000
0100
0000
0000
1003
0000
0000
1001
0000
1001
0000
,
0110
0000
0010
0000
1000
0000
0110
0000
0100
0000
0001
0000
1000
0001
1000
0001
,
1000
0000
0000
0001
0010
0000
0000
0001
2000
0000
0100
0000
3100
0000
0000
0000
,
1100
0100
0010
0011
0001
1000
0010
0000
,
0100
0000
0000
0010
1000
0000
0000
0001
0020
0000
0100
0000
0130
0000
0000
0000
,
0011
0001
0100
0101
1000
0010
0100
0000
,
0010
0000
0000
1000
0001
0000
0000
0010
0200
0000
1000
0000
1300
0000
0000
0000
,
0020
0000
0100
0000
0130
0000
0001
0000
2000
0000
0000
3002
0000
0000
0013
0100
,
0010
0000
0000
0001
0130
0000
0000
0001
2000
0000
0010
0000
3010
0000
0000
0000
,
0100
0000
1001
0000
0010
0000
1000
0000
0101
0000
0001
0000
1000
0000
0010
0100
,
0020
1000
0000
0000
0130
0000
0000
0000
1010
0000
0000
0011
0000
0000
0000
0000
,
1000
0000
0110
0000
0001
0000
0010
0000
1001
0000
0100
0000
1000
0000
0001
0100
,
0002
1000
0000
0000
0103
0000
0000
0001
0000
0000
1100
0000
0000
0000
0000
0000
,
0010
1000
0000
0010
1000
0000
0001
0100
0000
0001
0100
0000
0010
0000
0100
0000
,
2020
0000
0000
3030
;

//---------------dance-single - ----------------
#NOTEDATA:;
#CHARTNAME:;
#STEPSTYPE:dance-single;
#DESCRIPTION:;
#CHARTSTYLE:;
#DIFFICULTY:Medium;
#METER:10;
#RADARVALUES:0.482908,0.527693,0.650068,0.598063,0.221023,260.000000,210.000000,50.000000,46.000000,0.000000,0.000000,0.000000,0.000000,0.000000,0.482908,0.527693,0.650068,0.598063,0.221023,260.000000,210.000000,50.000000,46.000000,0.000000,0.000000,0.000000,0.000000,0.000000;
#CREDIT:;
#DISPLAYBPM:152.000000;
#NOTES:
0000
0000
0000
0000
,
0000
0000
0000
0000
,
0000
0000
0000
0000
,
0000
0000
0000
0000
,
0000
0000
0000
0000
,
0110
0000
0000
0000
1001
0000
0000
0000
0001
0000
0000
0100
0000
0000
1000
0000
,
0100
0000
0000
0000
0010
0000
0000
0000
0001
0000
0000
1000
0000
0000
0010
0000
,
1010
0000
0000
0000
0000
0000
0101
0000
0000
0000
0000
1000
0000
0000
0001
0000
,
2002
0000
0000
3003
,
1100
0110
0022
0033
,
0000
0000
1000
0000
1000
0000
0001
0000
0010
0000
0000
0010
0000
0000
0001
0100
,
0301
0101
2200
3300
,
1000
0000
1010
0000
0000
0000
0001
0000
0011
0000
0000
0000
0000
0000
0100
0010
,
0130
0000
0000
0000
1001
0000
0000
0000
0002
0000
0000
2003
0000
0000
3000
0000
,
0000
0000
1100
0000
1000
0000
0000
0000
0101
0000
0001
0000
0000
0000
0010
0100
,
0010
0000
0000
0000
0002
0000
0000
2003
0000
0000
3010
3000
0000
0100
0000
0000
,
0120
0001
1000
0130
,
1001
0000
0000
0000
0010
0000
1000
0000
0010
0000
0100
0300
0001
0000
0000
0000
,
0011
1000
0001
1000
0010
0100
0001
0000
,
1000
0100
0010
0001
0100
0010
1000
0000
,
0002
0000
0000
0023
0000
0000
0130
0000
0220
0000
0000
0000
3330
0000
0000
0000
,
1100
0000
0000
0000
0001
0000
0010
0030
0001
0000
1000
0000
0100
0000
0000
0000
,
1000
0010
1000
0001
0010
0100
1000
0000
,
0010
0000
0100
0000
0010
0000
1000
0000
0001
0003
0100
0000
1000
0000
0000
0000
,
0001
0001
0001
0001
0011
0011
0000
0000
,
2010
0000
0000
0000
0001
0000
0000
0000
0010
0000
0000
0010
0000
0000
3010
0000
,
0000
0000
1000
0000
0002
0000
0000
0000
0100
0000
0000
0100
0000
0000
0103
0000
,
0010
0000
2002
0000
3000
0000
0000
0000
1000
0000
0000
1000
0000
0000
1003
0000
,
0001
0000
0000
0001
0000
0000
0001
0000
0100
0000
0000
0010
0000
0000
1000
0000
,
0201
0000
0000
0000
0301
0000
1200
0000
0000
0000
0000
0010
0000
0000
0310
0000
,
0000
0000
0100
0000
0012
0000
0000
0000
1000
0000
0000
1000
0000
0000
1003
0000
,
0000
0000
0120
0000
0001
0000
0000
0000
0100
0000
0000
0100
0000
0000
0130
0000
,
1000
0000
0000
0001
0000
0000
1000
0000
0000
0001
0000
0000
1001
0000
0000
0000
,
0100
0000
0000
0010
0000
0000
0100
0000
0000
0010
0000
0000
0110
0000
0110
0000
,
0202
0000
0000
0000
0303
0000
2020
0000
0000
0000
3030
0000
1000
0001
1000
0001
,
2000
3020
0230
0301
,
0011
0000
1000
1010
0000
0010
0100
0000
,
0002
0023
0230
1300
,
1001
0000
0010
1010
0000
0001
0011
0000
,
0101
1001
2200
3300
,
0000
0000
0010
0000
0010
0000
0100
0000
0001
0000
0000
1000
0000
0000
0001
0010
,
0001
0110
0022
0033
,
1000
0000
0101
0000
0000
0000
0001
0000
1100
0000
0000
0000
0000
0000
0010
0100
,
0010
0000
0000
0000
1010
0000
0000
0000
0002
0000
0000
2003
0000
0000
3000
0000
,
0000
1001
0100
0000
1001
0010
0000
0000
,
0002
0000
0000
0000
2003
0000
0000
3020
0000
0000
0230
0000
0000
0000
0300
0000
,
0210
1000
0010
0301
,
0202
0000
0000
0303
;

//---------------dance-single - ----------------
#NOTEDATA:;
#CHARTNAME:;
#STEPSTYPE:dance-single;
#DESCRIPTION:;
#CHARTSTYLE:;
#DIFFICULTY:Easy;
#METER:7;
#RADARVALUES:0.297174,0.341448,0.286030,0.130014,0.000000,160.000000,138.000000,22.000000,10.000000,0.000000,0.000000,0.000000,0.000000,0.000000,0.297174,0.341448,0.286030,0.130014,0.000000,160.000000,138.000000,22.000000,10.000000,0.000000,0.000000,0.000000,0.000000,0.000000;
#CREDIT:;
#DISPLAYBPM:152.000000;
#NOTES:
0000
0000
0000
0000
,
0000
0000
0000
0000
,
0000
0000
0000
0000
,
0000
0000
0000
0000
,
0000
0000
0000
0000
,
1001
0110
0010
0100
,
0001
0010
0100
1000
,
0010
0100
0001
1000
,
2002
0000
0000
3003
,
1000
0001
1000
0000
,
0010
0000
0000
0010
0000
0000
0000
0000
,
0100
0010
1000
0000
,
0000
0001
0000
0000
1000
0000
0000
0010
,
1000
0100
1100
0101
,
0000
0001
0000
0000
1000
0000
0000
0000
,
0001
0010
0001
0100
,
0220
0000
0000
0330
,
1001
0010
1000
0001
,
0011
0100
1000
0001
,
0010
0100
1000
0010
,
0100
0010
0110
1000
,
1001
1000
0100
0010
,
0001
0100
0010
1000
,
0100
1000
0010
0100
,
0001
0001
0011
0000
,
1010
0001
0010
0100
,
0000
1000
0001
1000
,
0101
0001
1000
0100
,
0010
0010
0100
1000
,
1100
0000
0000
0011
0000
0000
1000
0000
,
0000
0010
0100
0010
,
0110
0001
1000
0010
,
1000
1000
1000
1001
,
0001
0001
0001
1001
,
0020
0000
0000
0200
0000
0000
0330
0000
,
1000
0001
0100
0000
,
0010
0000
0000
0010
0000
0000
0100
0000
,
0001
0010
0100
1000
,
0100
0000
0000
0100
0000
0000
0010
0000
,
0001
1000
0001
0000
,
1000
0000
0000
0100
0000
0000
0000
0010
,
0001
0100
1000
0000
,
0000
0001
0000
0000
1000
0000
0000
0010
,
1000
0100
1100
0101
,
0000
0010
0000
0000
0100
0000
0000
0000
,
0001
0010
1000
0100
,
2002
0000
0000
3003
,
0220
0000
0000
0330
;

//---------------dance-single - ----------------
#NOTEDATA:;
#CHARTNAME:;
#STEPSTYPE:dance-single;
#DESCRIPTION:;
#CHARTSTYLE:;
#DIFFICULTY:Beginner;
#METER:4;
#RADARVALUES:0.172732,0.244426,0.156016,0.000000,0.000000,93.000000,81.000000,12.000000,0.000000,0.000000,0.000000,0.000000,0.000000,0.000000,0.172732,0.244426,0.156016,0.000000,0.000000,93.000000,81.000000,12.000000,0.000000,0.000000,0.000000,0.000000,0.000000,0.000000;
#CREDIT:;
#DISPLAYBPM:152.000000;
#NOTES:
// measure 0
0000
0000
0000
0000
,  // measure 1
0000
0000
0000
0000
,  // measure 2
0000
0000
0000
0000
,  // measure 3
0000
0000
0000
0000
,  // measure 4
0000
0000
0000
0000
,  // measure 5
0010
0010
0000
0000
,  // measure 6
1000
1000
0000
0000
,  // measure 7
0001
0000
1000
0000
,  // measure 8
1001
0000
0000
0000
,  // measure 9
0010
0010
0010
0000
,  // measure 10
0100
0000
0100
0000
,  // measure 11
0001
0001
0001
0000
,  // measure 12
0000
0000
1000
0000
,  // measure 13
0001
0001
0001
0001
,  // measure 14
0000
0000
0100
0000
,  // measure 15
0010
0010
0010
0000
,  // measure 16
0110
0000
0000
0000
,  // measure 17
1001
0000
0000
0000
,  // measure 18
0110
0000
0000
0000
,  // measure 19
1000
0000
0000
0000
,  // measure 20
0010
0010
0010
0000
,  // measure 21
1001
0000
0000
0000
,  // measure 22
0100
0000
0000
0000
,  // measure 23
0010
0000
0000
0000
,  // measure 24
0001
0001
0001
0000
,  // measure 25
0110
0000
0000
0000
,  // measure 26
0000
1000
1000
0000
,  // measure 27
1001
0000
0000
0000
,  // measure 28
0001
0000
0100
0000
,  // measure 29
0110
0000
1001
0000
,  // measure 30
0000
0010
0010
0000
,  // measure 31
0110
0000
0000
0000
,  // measure 32
0001
0000
0000
1000
,  // measure 33
1000
0000
0000
0010
,  // measure 34
0010
0000
0100
0000
,  // measure 35
0001
0000
0001
0000
,  // measure 36
1000
0000
1000
0000
,  // measure 37
0010
0000
0010
0000
,  // measure 38
0100
0000
0100
0000
,  // measure 39
0001
0001
0001
0000
,  // measure 40
0100
0000
0100
0000
,  // measure 41
0010
0010
0010
0000
,  // measure 42
0000
0000
1000
0000
,  // measure 43
1000
1000
1000
1000
,  // measure 44
0000
0000
0100
0000
,  // measure 45
0001
0001
0001
0000
,  // measure 46
0110
0000
0000
0000
,  // measure 47
1001
0000
0000
0000
;
