#TITLE:AREA 51;
#SUBTITLE:;
#ARTIST:96;
#TITLETRANSLIT:;
#SUBTITLETRANSLIT:;
#ARTISTTRANSLIT:;
#GENRE:;
#CREDIT:;
#BANNER:AREA 51-bn.png;
#BACKGROUND:AREA 51-bg.png;
#LYRICSPATH:;
#CDTITLE:;
#MUSIC:AREA 51.ogg;
#OFFSET:0.900000;
#SAMPLESTART:23.195999;
#SAMPLELENGTH:20.000000;
#SELECTABLE:YES;
#DISPLAYBPM:188.000000;
#BPMS:0.000000=188.000000
;
#STOPS:
;
#BGCHANGES:;
#KEYSOUNDS:;
#ATTACKS:;

//---------------dance-single - ----------------
#NOTES:
     dance-single:
     :
     Hard:
     13:
     0.741873,0.736150,0.823999,0.440744,0.000000,542.000000,456.000000,86.000000,46.000000,0.000000,0.000000,0.741873,0.736150,0.823999,0.440744,0.000000,542.000000,456.000000,86.000000,46.000000,0.000000,0.000000:
0000
0000
0000
0000
,
0000
0000
0000
0000
,
0000
0000
0000
0000
,
0000
0000
0000
0000
,
0000
0000
0000
0000
0000
0000
0000
1100
,
0000
1100
0000
0000
0000
0000
0000
0101
,
0000
0101
0000
0000
0000
0000
0000
1001
,
0000
1000
0010
1000
0100
0010
0001
0100
,
0010
0100
0010
1000
0100
0010
0001
0011
,
0000
0011
0000
0001
1000
0010
0100
0110
,
0000
0110
0000
0010
1000
0001
0100
0101
,
0000
0101
0000
0001
0100
0010
1000
1010
,
0000
1010
0000
1000
0100
0010
0001
1001
,
0000
1001
0000
0001
1000
0100
0010
0011
,
0000
0011
0000
0100
0001
1000
0010
1010
,
0000
1010
0000
1000
0001
0010
0100
1100
,
0000
1100
0000
1000
0001
0100
0010
0110
,
0000
0100
0001
0010
0001
0100
0010
1000
,
0100
0010
0001
0100
0010
1000
0001
2001
,
0000
3010
0200
0000
0302
0000
1003
1100
,
0000
1000
0010
0100
0001
1000
0000
1020
,
0000
0130
0001
1000
0200
0000
1300
0010
,
0100
0001
0010
0100
1000
0010
0000
0210
,
0000
0301
2000
0000
3200
0000
0310
0011
,
0000
0001
0100
0010
1000
0001
0000
0201
,
0000
0301
1000
0020
0000
0130
0010
1000
,
0001
0010
0001
0100
0010
1000
0000
1002
,
0000
0103
0020
0000
0230
0000
0301
0101
,
0000
0010
1000
0100
1000
0001
0000
2001
,
0000
3100
1000
0010
1000
0100
0010
0001
,
0100
0001
0010
0001
0100
0010
0000
2010
,
0000
3100
2000
0000
3020
0000
0130
0110
,
0000
0100
0001
0010
0001
1000
0000
1200
,
0000
1300
0010
0100
0002
0000
0013
0001
,
0100
0010
1000
0001
0010
0100
1000
2001
,
0000
3001
0011
0000
1010
1000
0010
0200
,
0000
0001
0301
0000
1000
0010
1000
1200
,
0000
1000
1300
0000
0010
0100
0001
0012
,
0000
1003
1020
0000
0130
0010
1000
1002
,
0000
0103
0110
0000
1010
1000
0001
0020
,
0000
0100
0130
0000
0010
0001
1000
1020
,
0000
0100
0130
0000
0010
1000
0001
0020
,
0000
0031
0101
0000
1100
1000
0010
0120
,
0000
1030
1100
0000
0011
0001
0100
0020
,
0000
1000
1030
0000
0010
0100
0001
0201
,
0000
0001
0301
0000
1000
0001
0010
0021
,
0000
0031
1002
0000
0103
0010
1000
2010
,
0000
3100
1100
0000
1001
0001
0100
0210
,
0000
0010
0310
0000
1000
0001
0010
0002
,
0000
1000
1000
0000
0010
0000
0100
0000
,
0010
0000
0103
0000
0001
1000
0010
0210
,
0000
0301
1000
0010
1000
1100
0000
2002
,
0000
0000
0000
0000
0003
0000
3001
0012
,
0000
1003
0001
0010
0001
0100
0010
1000
,
0000
1000
0001
0010
0100
0010
0001
1000
,
0000
0001
1000
0010
1000
0100
0010
0001
,
0000
0100
0001
0010
0000
0001
0100
0110
,
0000
0100
0010
1000
0001
1000
0100
0010
,
0100
1000
0010
0100
0010
1000
0001
0020
,
0000
0031
0010
0001
0100
0010
1000
0002
,
0000
1003
0100
2100
0000
3001
1000
0010
,
0000
0010
1000
0100
0010
0100
0010
0001
,
0100
0001
0010
0001
0100
0010
1000
0001
,
0010
0100
1000
0000
0001
0100
0000
0110
,
0000
1001
0000
0010
1000
0001
0100
0101
,
0000
0001
1000
0010
1000
0001
0010
0100
,
1000
0010
0100
0001
1000
0001
0010
0200
,
0000
0310
0100
0010
0001
1000
0001
0100
,
0010
1000
0001
0010
0001
0100
0010
1010
,
0000
1010
0000
1000
0100
0010
0001
0101
,
0000
0101
0000
0001
1000
0010
0100
0110
,
0000
0110
0000
0010
0100
0001
1000
1100
,
0000
1100
0000
1000
0001
0010
0100
1100
,
0000
1100
0000
1000
0001
0100
0010
0110
,
0000
0110
0000
0100
0001
1000
0010
1010
,
0000
1010
0000
1000
0100
0010
0001
1001
,
0000
1001
0000
0010
0001
1000
0010
0110
,
0000
0110
0000
0100
0001
0100
0001
1001
,
0000
1001
0000
1000
0010
1000
0010
0220
,
0000
0000
0000
0000
,
0000
0000
0000
0000
0000
0030
0000
0301
;

//---------------dance-single - ----------------
#NOTES:
     dance-single:
     :
     Medium:
     11:
     0.566671,0.619916,0.459907,0.364093,0.000000,414.000000,366.000000,48.000000,38.000000,0.000000,0.000000,0.566671,0.619916,0.459907,0.364093,0.000000,414.000000,366.000000,48.000000,38.000000,0.000000,0.000000:
0000
0000
0000
0000
,
0000
0000
0000
0000
,
0000
0000
0000
0000
,
0000
0000
0000
0000
,
0000
0000
0000
0000
0000
0000
0000
0101
,
0000
0101
0000
0000
0000
0000
0000
1100
,
0000
1100
0000
0000
0000
0000
0000
1001
,
0000
1001
0000
0001
1000
0100
1000
0001
,
0000
0100
0000
0010
1000
0100
1000
0010
,
0000
0110
0000
0100
0001
0010
0001
0100
,
0000
0101
0000
0001
1000
0010
1000
0001
,
0000
0011
0000
0010
0001
1000
0001
0010
,
0000
1001
0000
1000
0001
0100
0001
1000
,
0000
1100
0000
1000
0100
0010
0100
1000
,
0000
1100
0000
0001
0100
0010
0100
0001
,
0000
0101
0000
0100
0010
1000
0010
0100
,
0000
0110
0000
0010
0100
0001
0100
0010
,
0000
1000
0100
0000
1000
0001
0100
0000
,
0001
0010
0001
0100
0000
0010
1000
0001
,
0000
0100
0020
0000
1030
0000
0000
1100
,
0000
1000
0010
0100
0001
1000
0000
1001
,
0000
0001
0200
0000
0310
0000
0000
1010
,
0000
1000
0010
0100
0001
1000
0000
1100
,
0000
0010
0002
0000
1003
0000
0000
0101
,
0000
0001
1000
0010
0100
0010
0000
1010
,
0000
1000
0100
0020
0000
0000
0000
0031
,
1000
0001
1000
0010
0100
0001
0000
0011
,
0000
0001
2000
0000
3100
0000
0000
0110
,
0000
0010
0001
0100
0010
1000
0000
1010
,
0000
1000
0200
0000
0310
0000
0000
0011
,
0000
0001
1000
0010
0100
0010
0000
1001
,
0000
0010
2000
0000
3001
0000
0000
0011
,
0000
0001
0100
0010
1000
0001
0000
0010
,
0000
0001
1000
0020
0000
0000
0000
0130
,
0001
1000
0001
0010
0001
0100
0000
2020
,
3000
0000
1000
0000
1030
0001
0100
0020
,
0000
0000
0000
0000
0000
0130
0010
2000
,
0000
0000
0000
0000
3001
1000
0000
0110
,
0000
0020
0200
0000
0330
0000
0000
0202
,
0003
0000
0001
0000
0301
0100
0010
2000
,
0000
0000
0000
0000
3100
1000
0010
0200
,
0000
0000
0001
0000
0301
1000
0001
0020
,
0000
0000
0000
0000
0000
0030
0000
0022
,
0030
0000
0010
0000
0013
0001
1000
0200
,
0000
0000
0000
0000
1300
0001
0100
0020
,
0000
0000
1000
0000
1030
0100
0000
1001
,
0000
0002
0020
0000
0033
0000
0000
2200
,
0300
0000
0100
0000
3100
1000
0001
0020
,
0000
0000
0000
0000
0031
1000
0001
0200
,
0000
0010
0010
0010
,
0000
0302
0000
0000
1003
0001
0000
0011
,
0000
0000
0001
0000
0100
0010
0000
0220
,
0000
0000
0000
0000
0000
0030
0000
0310
,
0000
0010
1000
0000
0100
0010
0001
0000
,
0100
0010
1000
0000
0001
1000
0100
0000
,
1000
0001
0010
0000
0001
0100
0010
0000
,
1000
0100
0010
0002
0000
0000
0000
0103
,
0000
0010
1000
0000
0001
1000
0100
0000
,
1000
0001
0010
0000
0001
0010
0100
0000
,
1000
0001
0010
0000
0001
1000
0100
0000
,
1000
0001
0100
0020
0000
0000
0000
1030
,
0000
0010
0100
0000
0001
1000
0001
0000
,
0010
0100
0010
0000
0001
0100
0010
0000
,
1000
0001
0100
0000
0010
1000
0000
1100
,
0000
0202
0000
0000
0003
0000
0000
0310
,
0000
0010
0100
0000
0001
0010
0100
0000
,
1000
0010
0100
0000
0001
0010
0001
0000
,
1000
0010
0100
0000
0010
1000
0001
0000
,
1000
0010
0100
0001
1000
0100
0010
0001
,
0000
1001
0000
1000
0010
0100
0010
1000
,
0000
1100
0000
0001
1000
0010
1000
0001
,
0000
0101
0000
0100
0010
1000
0010
0100
,
0000
0110
0000
0010
1000
0100
1000
0010
,
0000
1010
0000
0001
1000
0010
0100
0001
,
0000
0101
0000
0100
0010
1000
0001
0100
,
0000
1001
0000
1000
0010
1000
0001
0100
,
0000
0110
0000
0010
0100
0001
1000
0001
,
0000
0011
0000
0000
0000
0000
0000
1010
,
0000
1010
0000
0000
0000
0000
0000
2002
,
0000
0000
0000
0000
,
0000
0000
0000
0000
0000
0003
0000
3001
;

//---------------dance-single - ----------------
#NOTES:
     dance-single:
     :
     Easy:
     8:
     0.405156,0.426192,0.316186,0.076651,0.000000,296.000000,263.000000,33.000000,8.000000,0.000000,0.000000,0.405156,0.426192,0.316186,0.076651,0.000000,296.000000,263.000000,33.000000,8.000000,0.000000,0.000000:
0000
0000
0000
0000
,
0000
0000
0000
0000
,
0000
0000
0000
0000
,
0000
0000
0000
0000
,
0000
0000
0000
0000
0000
0000
0000
1010
,
0000
1010
0000
0000
0000
0000
0000
0101
,
0000
0101
0000
0000
0000
0000
0000
1100
,
0000
1100
0000
0000
0000
0000
0000
0011
,
0000
0011
0000
0000
0000
0000
0000
1001
,
0000
1000
0000
0010
0000
0100
0000
0001
,
0000
0010
0000
0100
0000
0010
0000
0001
,
0000
0100
0000
0010
0000
1000
0000
0001
,
0000
1000
0000
0100
0000
0010
0000
0001
,
0000
1000
0000
0001
0000
0100
0000
0010
,
0000
0100
0000
0001
0000
0010
0000
1000
,
0000
0100
0000
0010
0000
0001
0000
1000
,
0000
0010
0000
0001
0000
1000
0000
0100
,
0000
0110
0001
1000
,
0010
0100
0001
1000
,
0001
0100
0010
1000
,
0100
0010
0001
0000
,
0010
0001
1000
0010
,
1000
0001
0100
0000
,
0010
0100
0010
1000
,
0100
1000
0001
0000
,
0010
0001
0101
0000
,
1000
0100
1100
0000
,
1000
0010
1000
0100
,
0010
0001
1000
0000
,
0001
1000
0010
1000
,
0100
0010
0001
0000
,
0100
0010
1000
0100
,
0010
0001
1000
0000
,
0010
1000
1010
0000
,
0001
0100
0110
0000
,
1001
1001
1000
0001
,
0010
0100
0010
0001
,
1000
0010
1000
0001
,
0200
0020
0000
0330
,
0110
0110
0010
1000
,
0001
0010
0001
1000
,
0010
0100
0010
1000
,
0100
0010
0001
0000
,
0101
1100
1000
0001
,
0010
0100
1000
0010
,
0100
0001
1000
0010
,
2000
0002
0000
3003
,
0011
1010
0001
0100
,
0010
1000
0100
0010
,
0001
0001
0001
0001
,
1000
1000
1000
1000
,
0010
0000
0100
0000
0010
0000
0000
0200
,
0000
0000
0000
0000
0000
0000
0000
0301
,
0000
1001
1000
0010
,
1000
0100
0010
0001
,
0100
0010
1000
0001
,
1000
0000
0010
0000
2000
0000
0000
3100
,
0000
0110
0001
0100
,
0001
1000
0010
0100
,
0010
1000
0100
0010
,
0001
0000
0100
0000
0010
0000
0000
1000
,
0000
1100
1000
0010
,
1000
0000
0001
0000
0100
0000
0000
0010
,
0000
0101
0001
0010
,
0001
0000
1000
0000
0010
0000
0000
0100
,
0000
0110
0010
1000
,
0001
0000
0010
0000
0001
0000
1000
0001
,
0000
1001
1000
0010
,
0100
0000
0010
0000
1000
0000
0001
0100
,
0000
0001
0000
1000
0000
0010
0000
0100
,
0000
0010
0000
1000
0000
0100
0000
0010
,
0000
0001
0000
0100
0000
0001
0000
1000
,
0000
0010
0000
1000
0000
0100
0000
0010
,
0000
0100
0000
0010
0000
0001
0000
0100
,
0000
0001
0000
1000
0000
0001
0000
0010
,
0000
0001
0000
0100
0000
0010
0000
1000
,
0000
0100
0000
0010
0000
0001
0000
0101
,
0000
0101
0000
0000
0000
0000
0000
1010
,
0000
1010
0000
0000
0000
0000
0000
2002
,
0000
0000
0000
0000
0000
0000
0000
0003
,
0000
0000
0000
0000
0000
0000
0000
3001
;

//---------------dance-single - ----------------
#NOTES:
     dance-single:
     :
     Beginner:
     5:
     0.208053,0.387447,0.153302,0.114977,0.000000,152.000000,136.000000,16.000000,12.000000,0.000000,0.000000,0.208053,0.387447,0.153302,0.114977,0.000000,152.000000,136.000000,16.000000,12.000000,0.000000,0.000000:
0000
0000
0000
0000
,
0000
0000
0000
0000
,
0000
0000
0000
0000
,
0000
0000
0000
0000
,
0000
0000
0000
0000
0000
0000
0000
1001
,
0000
1001
0000
0000
0000
0000
0000
0110
,
0000
0110
0000
0000
0000
0000
0000
1001
,
0000
1001
0000
0000
0000
0000
0000
0110
,
0000
0110
0000
0000
0000
0000
0000
1000
,
0000
1000
0000
0000
0000
0000
0000
0001
,
0000
0001
0000
0000
0000
0000
0000
0100
,
0000
0100
0000
0000
0000
0000
0000
0010
,
0000
0010
0000
0000
0000
0000
0000
1000
,
0000
1000
0000
0000
0000
0000
0000
0100
,
0000
0100
0000
0000
0000
0000
0000
0010
,
0000
0010
0000
0000
0000
0000
0000
0001
,
0000
0001
0000
0000
0000
0000
0000
1001
,
0000
0000
0000
0000
,
0000
0000
0000
0000
,
1001
0000
0100
0000
,
0001
0000
1000
0000
,
0100
0000
0010
0000
,
0001
0000
1000
0000
,
0010
0000
0100
0000
,
0010
0000
1000
0000
,
0100
0000
0010
0000
,
0001
0000
1000
0000
,
1001
0000
0001
0000
,
1000
0000
0100
0000
,
1000
0000
0010
0000
,
0100
0000
0001
0000
,
1001
0000
0001
0000
,
1000
0000
0010
0000
,
1000
0000
0100
0000
,
0010
0000
0001
0000
,
1000
1000
1000
0000
,
0002
0000
0003
0000
,
0200
0000
0300
0000
,
0010
0010
0000
0000
,
0100
0100
0100
0000
,
0020
0000
0030
0000
,
2000
0000
3000
0000
,
0002
0000
0003
0000
,
0010
0010
0010
0000
,
0002
0000
0003
0000
,
2000
0000
3000
0000
,
0100
0100
0000
0000
,
0001
0001
0001
0000
,
2000
0000
3000
0000
,
0020
0000
0000
0000
,
0000
0000
0030
0000
,
2000
0000
3000
0000
,
0002
0000
0003
0000
,
0010
0000
0001
0000
,
0100
0000
0010
0000
,
1000
0000
0001
0000
,
1000
0000
0100
0000
,
0010
0000
0001
0000
,
0100
0000
0010
0000
,
1000
0000
0001
0000
,
1000
0000
0100
0000
,
1000
0000
0001
0000
,
1000
0000
0010
0000
,
0100
0000
0001
0000
,
1000
0000
0000
0000
,
0001
0000
0100
0000
,
0010
0000
1000
0000
,
0100
0000
0010
0000
,
0001
0000
0000
0000
0000
0000
0000
1000
,
0000
1000
0000
0000
0000
0000
0000
0010
,
0000
0010
0000
0000
0000
0000
0000
0100
,
0000
0100
0000
0000
0000
0000
0000
0001
,
0000
0001
0000
0000
0000
0000
0000
1000
,
0000
1000
0000
0000
0000
0000
0000
0001
,
0000
0001
0000
0000
0000
0000
0000
0010
,
0000
0010
0000
0000
0000
0000
0000
0100
,
0000
0100
0000
0000
0000
0000
0000
1001
,
0000
1001
0000
0000
0000
0000
0000
0110
,
0000
0110
0000
0000
0000
0000
0000
0002
,
0000
0000
0000
0000
,
0000
0000
0000
0000
0003
0000
0000
0001
;

//---------------dance-single - ----------------
#NOTES:
     dance-single:
     :
     Challenge:
     16:
     0.997833,1.239832,0.977302,0.325767,0.459907,729.000000,627.000000,102.000000,34.000000,0.000000,0.000000,0.997833,1.239832,0.977302,0.325767,0.459907,729.000000,627.000000,102.000000,34.000000,0.000000,0.000000:
// measure 0
0000
0000
0000
0000
,  // measure 1
0000
0000
0000
0000
,  // measure 2
0000
0000
0000
0000
,  // measure 3
0000
0000
0000
0000
,  // measure 4
0000
0000
0000
0000
0000
0000
0000
0011
,  // measure 5
0000
0011
0000
0001
0100
0010
1000
1010
,  // measure 6
0000
1010
0000
1000
0001
0100
0010
1000
,  // measure 7
0001
0010
0001
0010
0001
0100
0001
0100
0010
1000
0010
1000
0100
1000
0100
1000
,  // measure 8
0001
0100
0010
1000
0001
0010
0100
1000
0001
1000
0010
0100
0001
0000
1001
0000
,  // measure 9
0000
1001
1000
0001
0100
0010
1000
0100
,  // measure 10
0010
0001
0100
0001
0010
1000
0010
0100
,  // measure 11
0010
1000
0010
0001
1000
0010
0100
0010
,  // measure 12
0001
0010
1000
0001
0010
0100
0010
0001
,  // measure 13
0100
0010
1000
0100
0001
0100
1000
0010
,  // measure 14
0001
0010
0100
0001
1000
0010
1000
0100
,  // measure 15
0010
0001
0100
0010
1000
0100
0010
0001
,  // measure 16
1000
0001
1000
0010
0100
0001
1000
1100
,  // measure 17
0000
1100
1000
0010
0100
0001
0010
0100
,  // measure 18
1000
0010
1000
0010
0100
0001
0100
0001
1000
0100
0010
0001
0010
0100
2000
0000
,  // measure 19
0000
3010
1010
0010
0110
0100
0001
0011
,  // measure 20
0000
1001
0001
0100
0010
1000
0100
0210
,  // measure 21
0000
0000
0310
0000
0001
0100
0010
0100
0001
0010
0100
0010
0001
0100
0010
0100
,  // measure 22
0001
1000
0010
1000
0100
0000
0010
0000
0001
0000
1000
0000
0001
0000
0102
0000
,  // measure 23
0000
1003
1001
0001
0011
0100
0010
1010
,  // measure 24
0000
0110
0010
0100
0001
1000
0100
1100
,  // measure 25
0000
0000
1001
0000
0101
0000
0012
0000
0000
0000
1003
0000
0010
0000
0100
0001
,  // measure 26
0010
0100
0010
0100
0010
0001
1000
0000
1010
0000
0010
0000
0100
0000
0102
0000
,  // measure 27
0000
0013
0011
0001
0101
1000
0100
1001
,  // measure 28
0000
1010
0001
1000
0100
0010
0001
0021
,  // measure 29
0000
0000
0031
0000
1000
0001
0010
0001
0100
0010
0100
0010
1000
0100
1000
0001
,  // measure 30
0100
0010
1000
0001
0010
0000
0100
0000
1000
0000
0010
0000
0100
0000
2001
0000
,  // measure 31
0000
3100
1100
1000
1010
0001
0010
0110
,  // measure 32
0000
0101
0010
0100
0001
1000
0100
1200
,  // measure 33
0000
0000
1300
0000
1100
0000
1010
0000
1002
0000
0000
0000
0103
0000
0001
0010
,  // measure 34
0001
0100
0010
1000
0100
0010
0001
0000
0101
0000
0100
0000
0010
0000
2001
0000
,  // measure 35
0000
3010
0110
0100
0110
0001
1000
1200
,  // measure 36
0000
1300
1010
0010
1010
0100
0001
0012
,  // measure 37
0000
0103
0010
1000
0001
1000
0100
0110
,  // measure 38
0000
0011
1100
0000
0001
1000
0100
2001
,  // measure 39
0000
3001
0011
0010
0011
0001
1000
1200
,  // measure 40
0000
1300
1010
0010
1010
1000
0100
2100
,  // measure 41
0000
3001
1000
0010
1000
0100
0010
0002
,  // measure 42
0000
0103
1010
0100
0011
0100
0001
0210
,  // measure 43
0000
0310
1001
0010
1001
0001
1000
1020
,  // measure 44
0000
0130
0110
0100
0110
0010
1000
0102
,  // measure 45
0000
1003
0001
0010
0100
0010
0001
1001
,  // measure 46
0000
1010
0101
0000
1000
0001
0010
0120
,  // measure 47
0000
0130
1001
0100
1001
0010
1000
2100
,  // measure 48
0000
3001
1000
0100
0010
0001
0100
0120
,  // measure 49
0000
1030
0001
0010
0001
0100
0010
1000
,  // measure 50
0100
0010
0001
0100
0010
1000
0001
1000
,  // measure 51
0100
0010
0001
0100
0010
1000
0100
2002
,  // measure 52
0000
0000
0000
0000
0003
0000
3010
1200
,  // measure 53
0000
0000
1300
0000
0010
0100
0010
0100
0001
1000
0001
1000
0100
0000
0011
0000
,  // measure 54
0000
1001
1000
0010
0100
0001
1000
1010
,  // measure 55
0000
0101
0100
0010
1000
0001
0010
0110
,  // measure 56
0000
1100
1001
0201
0000
0310
0100
0110
,  // measure 57
0000
0000
0010
1000
0010
0000
1000
0100
1000
0000
0001
0100
0001
0000
0010
0001
,  // measure 58
0010
0000
0001
0100
0010
0000
1000
0001
0100
0000
0010
1000
0001
0000
0021
0000
,  // measure 59
0000
0031
1001
0100
1010
0010
1000
0110
,  // measure 60
0000
1010
0110
0102
0000
1003
0001
0011
,  // measure 61
0000
0000
0001
0000
1000
0010
1000
0010
1000
0010
1000
0010
0100
0010
0100
0010
,  // measure 62
0100
0001
0100
0001
1000
0001
1000
0001
0010
0100
0010
0100
0010
0001
2000
0000
,  // measure 63
0000
3100
1100
1000
1001
0001
0010
0011
,  // measure 64
0000
1020
0100
0000
1030
0001
0010
1001
,  // measure 65
0000
0000
1000
0100
1000
0100
1000
0100
1000
0001
1000
0001
0010
0001
0010
0001
,  // measure 66
0100
0010
0100
0010
0100
0010
0100
0010
1000
0001
0010
0001
0100
0010
2000
0000
,  // measure 67
0000
0000
3100
0000
1000
0010
1000
0010
0100
0001
0100
0001
0010
0100
0010
0100
,  // measure 68
1000
0010
0100
0001
1000
0100
0010
0001
0100
0010
1000
0001
1000
0010
0200
0000
,  // measure 69
0000
0301
1000
0010
0100
0010
0001
0010
,  // measure 70
1000
0100
0010
0100
0001
0100
0010
0001
,  // measure 71
0100
1000
0100
0010
1000
0001
0010
0100
,  // measure 72
0010
0001
1000
0010
0100
0001
1000
0100
,  // measure 73
0001
0100
0010
0100
0001
0100
1000
0010
,  // measure 74
0001
0010
0100
0010
0001
0010
0100
0001
,  // measure 75
1000
0001
0010
1000
0010
0100
0010
0001
,  // measure 76
0100
0010
1000
0001
0010
0100
1000
1100
,  // measure 77
0000
1100
0000
1000
0010
0100
0001
0101
,  // measure 78
0000
0101
0000
0100
0010
1000
0001
2020
,  // measure 79
0000
0000
0000
0000
,  // measure 80
0000
0000
0000
0000
0000
0000
0030
3001
;
