#TITLE:AM-3P;
#SUBTITLE:;
#ARTIST:KTz;
#TITLETRANSLIT:;
#SUBTITLETRANSLIT:;
#ARTISTTRANSLIT:;
#GENRE:;
#CREDIT:;
#BANNER:AM-3P-bn.png;
#BACKGROUND:AM-3P-bg.png;
#LYRICSPATH:;
#CDTITLE:;
#MUSIC:AM-3P.ogg;
#OFFSET:0.000000;
#SAMPLESTART:46.117001;
#SAMPLELENGTH:20.000000;
#SELECTABLE:YES;
#DISPLAYBPM:130.000000;
#BPMS:0.000000=130.151993
,20.000000=130.108994
;
#STOPS:
;
#BGCHANGES:;
#KEYSOUNDS:;
#ATTACKS:;

//---------------dance-couple - ----------------
#NOTES:
     dance-couple:
     :
     Easy:
     5:
     0.303580,0.372924,0.273052,0.000000,0.029680,179.000000,156.000000,23.000000,0.000000,0.000000,0.000000,0.303580,0.372924,0.273052,0.000000,0.029680,179.000000,156.000000,23.000000,0.000000,0.000000,0.000000:
00000000
00000000
00000000
00000000
,
00000000
00000000
00000000
00000000
,
00000000
00000000
00000000
00000000
,
00000000
00000000
00000000
00000000
,
00000000
00000000
00000000
00000000
,
00000000
00000000
00000000
00000000
,
00000000
00000000
00000000
00000000
,
00100010
10000001
00100010
10011001
,
00100010
01000100
00100010
10011001
,
01000000
10010000
00000100
00001001
,
01000000
10010000
00000100
00001001
,
00100010
01000100
00100010
10011001
,
00100010
10000001
01000100
10011001
,
00100010
00011000
01000100
10011001
,
00100010
10000001
01000100
10011001
,
11000101
00011000
01011100
10000001
,
11000101
00011000
01011100
10000001
,
00011000
00000000
00000000
00010000
00000100
00000000
00010000
00000000
00001000
00000000
10000000
00000000
01000100
00000000
00000000
00000000
,
00011000
00000000
00000000
00001000
01000000
00000000
00001000
00000000
00010000
00000000
00000001
00000000
01000100
00000000
00000000
00000000
,
00011000
00000000
00000000
10000001
00000000
00000000
00011000
00000000
00000000
00000000
00100010
00000000
01000100
00000000
00000000
00000000
,
00100010
00011000
00011000
00011000
,
10000001
00000000
00000000
01000100
00000000
00000000
10000001
00000000
00000000
00000000
00011000
00000000
01000100
00000000
00000000
00000000
,
01000100
00000000
00000000
00011000
00000000
00000000
10000001
00000000
00000000
00000000
01000100
00000000
10000001
00000000
00000000
00000000
,
00100010
00000000
00000000
00011000
00000000
00000000
10000001
00000000
00000000
00000000
01000100
00000000
00100010
00000000
00000000
00000000
,
00100010
10000001
10000001
10000001
,
00011000
01000100
00100010
10000001
,
01000100
00100010
00011000
01000100
,
00100010
10000001
01000100
00100010
,
00011000
00011000
10000001
10000001
,
00100010
10000001
01000100
01100110
,
00100010
00011000
01000100
01100110
,
10000001
01000100
00011000
00100010
,
10100011
00011000
00111010
10000001
,
00100010
00000000
10001000
00000000
00010001
01000100
00010001
00000000
,
00100010
00000000
00010001
00000000
01000100
01000100
01000100
00000000
,
10011001
00000000
10011001
00000000
10000001
01000100
10000001
00000000
,
10000001
00000000
01000100
00000000
00100010
00011000
01000100
00000000
,
11000101
00011000
01011100
10000001
,
11000101
00011000
01011100
10000001
,
00100010
10000001
01000100
00100010
,
00011000
01000100
00100010
10011001
,
10000001
00100010
00011000
00100010
,
00000001
00000010
00000100
00000000
10000000
00100000
01000000
00000000
,
00100010
00000000
00000000
10000001
00000000
00000000
01000100
00000000
,
00000000
00011000
00000000
00000000
00100010
00100010
01000100
01000100
;

//---------------dance-couple - ----------------
#NOTES:
     dance-couple:
     :
     Medium:
     6:
     0.344283,0.399561,0.261180,0.000000,0.035615,203.000000,181.000000,22.000000,0.000000,0.000000,0.000000,0.344283,0.399561,0.261180,0.000000,0.035615,203.000000,181.000000,22.000000,0.000000,0.000000,0.000000:
00000000
00000000
00000000
00000000
,
00000000
00000000
00000000
00000000
,
00000000
00000000
00000000
00000000
,
00000000
00000000
00000000
00000000
,
00000000
00000000
00000000
00000000
,
00000000
00000000
00000000
00000000
,
00000000
00000000
00000000
00000000
,
10000000
01000000
10000000
00000000
00000001
00000100
00000001
00000000
,
00010000
01000000
00010000
00000000
00001000
00000100
00001000
00000000
,
01000000
10000000
10001001
00000000
00000100
00000001
10010001
00000000
,
01000000
00010000
00011001
00000000
00000100
00001000
10011000
00000000
,
00100010
01000100
00100010
10011001
,
00100010
00011000
01000100
00000000
01000100
00000000
10011001
00000000
,
01000100
00011000
01000100
00000000
01000100
10000001
01000100
00000000
,
01000100
00011000
01000100
00000000
01000100
10000001
01000100
00000000
,
01000100
10000001
00011000
00000000
01000100
00011000
10000001
00000000
,
01000100
10000001
00011000
00000000
01000100
00011000
10000001
00000000
,
00011000
00000000
00000000
00011000
00000000
00000000
00011000
00000000
00000000
00000000
01000100
00000000
10000001
00000000
01000100
00000000
,
10000001
00000000
00000000
10000001
00000000
00000000
10000001
00000000
00000000
00000000
00011000
00000000
01000100
00000000
00011000
00000000
,
00100010
00000000
00000000
00011000
00000000
00000000
01000100
00000000
00000000
00000000
10000001
00000000
01000100
00000000
00011000
00000000
,
01000000
00000100
01000000
00000100
,
00100010
00000000
00000000
00100010
00000000
00000000
00100010
00000000
00000000
00000000
10000001
00000000
00011000
00000000
01000100
00000000
,
00100010
00000000
00000000
00100010
00000000
00000000
10011001
00000000
00000000
00000000
00100010
00000000
10000001
00000000
01000100
00000000
,
00011000
00000000
00000000
00011000
00000000
00000000
01100110
00000000
00000000
00000000
00011000
00000000
10000001
00000000
01000100
00000000
,
00100010
00000000
00100010
00000000
10011001
10000001
01000100
00000000
,
01000100
00000000
00100010
00000000
10000001
01000100
00100010
00000000
,
00011000
00000000
01000100
00000000
00100010
10000001
01000100
00000000
,
00100010
00000000
00011000
00000000
01000100
00100010
10000001
00000000
,
10011001
00000000
10011001
00000000
01000100
00011000
10000001
00000000
,
00100010
10000001
01000100
01100110
,
00100010
00011000
01000100
01100110
,
10000001
01000100
10000001
00000000
00011000
01000100
00011000
00000000
,
10000001
01000100
10000001
00000000
00011000
01000100
00011000
00000000
,
10000001
00000000
00011000
00000000
10000001
10000001
01000100
00000000
,
00011000
00000000
10000001
00000000
00011000
00011000
01000100
00000000
,
00111010
00000000
10011001
00000000
00011000
10000001
01000100
00000000
,
00100010
00000000
10011001
00000000
00100010
01000100
00100010
00000000
,
11000101
00011000
01011100
10000001
,
11000101
01100110
01011100
01100110
,
00100010
10000001
01000100
00111010
,
00011000
01000100
00100010
10100011
,
00011000
01000100
00100010
10000001
,
10000000
00100000
01000000
00000000
00000001
00000010
00000100
00000000
,
00100010
00000000
00000000
10000001
00000000
00000000
01000100
00000000
,
00000000
00011000
00000000
00000000
01000100
01000100
00100010
00100010
;

//---------------dance-couple - ----------------
#NOTES:
     dance-couple:
     :
     Hard:
     8:
     0.463001,0.479474,0.344283,0.000000,0.077167,273.000000,244.000000,29.000000,0.000000,0.000000,0.000000,0.463001,0.479474,0.344283,0.000000,0.077167,273.000000,244.000000,29.000000,0.000000,0.000000,0.000000:
00000000
00000000
00000000
00000000
,
00000000
00000000
00000000
00000000
,
00000000
00000000
00000000
00000000
,
00000000
00000000
00000000
00000000
,
00000000
00000000
00000000
00000000
,
00000000
00000000
00000000
00000000
,
00000000
00000000
00000000
00000000
,
01000100
00011000
01000100
00011000
01000100
10000001
01000100
10000001
,
01000100
00011000
01000100
00011000
01000100
10000001
01000100
10000001
,
01000100
00011000
01000100
10000001
01000100
00011000
01000100
10000001
,
01000100
00011000
01000100
10000001
01000100
00100010
01000100
00100010
,
01000100
00011000
01000100
10000001
01000100
00011000
01000100
10000001
,
01000100
00011000
01000100
00100010
01000100
10000001
01000100
00100010
,
00011000
01000100
00011000
00100010
00011000
01000100
00011000
00100010
,
00011000
10000001
00011000
10000001
00011000
01000100
00011000
01000100
,
10000001
00011000
10000001
00011000
10000001
00100010
10000001
00100010
,
10000001
01000100
10000001
00100010
10000001
01000100
10100011
00000000
,
10000001
00000000
00000000
00011000
00000000
00000000
10000001
00000000
00000000
00000000
00100010
00000000
01000100
00000000
00011000
00000000
,
00011000
00000000
00000000
10000001
00000000
00000000
00011000
00000000
00000000
00000000
00100010
00000000
01000100
00000000
10000001
00000000
,
00100010
00000000
00000000
00100010
00000000
00000000
00100010
00000000
00000000
00000000
10000001
00000000
00011000
00000000
01000100
00000000
,
00100010
00000000
00100010
00000000
00100010
10000001
01000100
00000000
,
10000001
00000000
00000000
10000001
00000000
00000000
10000001
00000000
00000000
01000100
10000001
00000000
00011000
00000000
01000100
00000000
,
00011000
00000000
00000000
00011000
00000000
00000000
00011000
00000000
00000000
00100010
00011000
00000000
10000001
00000000
01000100
00000000
,
00100010
00000000
00000000
00100010
00000000
00000000
00100010
00000000
00000000
01000100
10000001
00000000
00011000
00000000
01000100
00000000
,
00100010
10000001
00000000
00000000
01000100
10000001
00000000
00000000
00011000
10000001
00000000
00000000
01000100
10000001
00000000
00000000
,
00000000
10000001
00000000
10000001
00000000
00011000
00000000
00011000
,
00000000
00100010
00000000
11000101
00000000
00100010
00000000
01011100
,
00000000
01000100
00000000
10011001
00000000
01000100
00000000
10011001
,
00000000
01000100
00000000
01000100
00000000
00100010
10011001
00000000
,
01000100
10000001
01000100
10000001
00011000
00100010
00011000
00100010
,
00011000
01000100
00011000
01000100
00100010
10000001
10100011
00000000
,
01000100
10000001
00100010
10000001
00011000
01000100
00100010
10000001
,
01000100
00100010
00011000
01000100
00100010
01000100
10011001
00000000
,
00100010
00000000
10000001
00000000
00011000
10011001
10011001
00000000
,
10011001
00000000
01000100
00000000
10011001
10000001
01000100
00000000
,
00100010
10000001
01000100
00100010
00011000
01000100
01000100
00000000
,
11000101
00000000
10100011
00000000
00100010
00011000
01011100
00000000
,
10011001
00000000
01000100
00000000
00011000
01000100
10000001
00000000
,
10011001
00000000
01000100
00000000
10000001
01000100
00011000
00000000
,
10011001
00000000
01011100
00000000
00011000
00100010
01011100
00000000
,
00111010
00000000
11000101
00000000
10100011
00011000
01000100
00000000
,
10000001
01011100
00011000
11000101
,
00100010
00000000
00011000
11000101
00000000
10000001
01011100
00000000
,
00100010
00011000
00011000
10000001
00011000
00011000
01000100
00011000
,
00011000
00011000
10000001
10000001
00100010
10000001
10011001
01011100
;

//---------------dance-solo - ----------------
#NOTES:
     dance-solo:
     :
     Easy:
     7:
     0.320539,0.372924,0.296796,0.000000,0.035615,189.000000,164.000000,25.000000,0.000000,0.000000,0.000000,0.320539,0.372924,0.296796,0.000000,0.035615,189.000000,164.000000,25.000000,0.000000,0.000000,0.000000:
000000
000000
000000
000000
,
000000
000000
000000
000000
,
000000
000000
000000
000000
,
000000
000000
000000
000000
,
000000
000000
000000
000000
,
000000
000000
000000
000000
,
000000
000000
000000
000000
,
000010
100000
000100
100001
,
100000
000010
001000
100001
,
001000
010001
001000
100010
,
001000
100001
001000
100001
,
000100
001000
010000
100001
,
000010
010000
001000
100001
,
000100
000010
001000
100001
,
000100
010000
001000
100001
,
011000
000001
001010
100000
,
011000
000001
001010
100000
,
000001
000000
000000
000001
000000
000000
000001
000000
000000
000000
010000
000000
001000
000000
000000
000000
,
100000
000000
000000
100000
000000
000000
100000
000000
000000
000000
000010
000000
001000
000000
000000
000000
,
000001
000000
000000
100000
000000
000000
000010
000000
000000
000000
000100
000000
001000
000000
000000
000000
,
000100
000001
000001
000001
,
100000
000000
000000
001000
000000
000000
100000
000000
000000
000000
000001
000000
001000
000000
000000
000000
,
001000
000000
000000
000010
000000
000000
100000
000000
000000
000000
001000
000000
010000
000000
000000
000000
,
000100
000000
000000
000001
000000
000000
100000
000000
000000
000000
001000
000000
000100
000000
000000
000000
,
000100
010000
010000
010000
,
000001
001000
000100
100000
,
001000
010000
000001
001000
,
000010
100000
001000
000100
,
000001
000001
100000
100000
,
000100
010000
001000
001100
,
000010
000001
001000
001100
,
100000
001000
000001
000100
,
100010
000001
011000
100000
,
000100
000000
001000
000000
000001
100000
000001
000000
,
000100
000000
000010
000000
001000
001000
001000
000000
,
100001
000000
100001
000000
010000
001000
010000
000000
,
100000
000000
001000
000000
000100
000001
001000
000000
,
101000
000001
000110
010000
,
101000
000001
000110
010000
,
000100
100000
001000
000100
,
000001
001000
000010
100001
,
010000
000100
000010
000100
,
100000
000100
001000
000000
000010
000100
001000
000000
,
010000
000000
000000
100000
000000
000000
000001
000000
,
000000
000010
000000
000000
000100
000100
001000
001000
;

//---------------dance-solo - ----------------
#NOTES:
     dance-solo:
     :
     Medium:
     8:
     0.373115,0.479474,0.296796,0.000000,0.035615,220.000000,195.000000,25.000000,0.000000,0.000000,0.000000,0.373115,0.479474,0.296796,0.000000,0.035615,220.000000,195.000000,25.000000,0.000000,0.000000,0.000000:
000000
000000
000000
000000
,
000000
000000
000000
000000
,
000000
000000
000000
000000
,
000000
000000
000000
000000
,
000000
000000
000000
000000
,
000000
000000
000000
000000
,
000000
000000
000000
000000
,
010000
001000
010000
000000
000100
000001
100000
000000
,
000010
001000
000010
000000
001000
000000
100001
000000
,
001000
010000
100001
000000
001000
000010
100001
000000
,
001000
010000
100001
000000
001000
000010
100001
000000
,
000100
001000
000100
100001
,
000100
000010
001000
000000
001000
000000
100001
000000
,
001000
000001
001000
000000
001000
100000
001000
000000
,
001000
000010
001000
000000
001000
010000
001000
000000
,
001000
000010
100000
000000
001000
010000
000001
000000
,
001000
000010
100000
000000
001000
010000
000001
000000
,
100000
000000
000000
100000
000000
000000
100000
000000
000000
000000
001000
000000
100000
000000
001000
000000
,
010000
000000
000000
010000
000000
000000
010000
000000
000000
000000
000001
000000
001000
000000
000001
000000
,
000100
000000
000000
000010
000000
000000
001000
000000
000000
000000
100000
000000
001000
000000
000001
000000
,
001000
001000
001000
001000
,
000100
000000
000000
000100
000000
000000
000100
000000
000000
000000
010000
000000
000001
000000
001000
000000
,
000100
000000
000000
000100
000000
000000
100001
000000
000000
000000
000100
000000
010000
000000
001000
000000
,
000001
000000
000000
000001
000000
000000
001100
000000
000000
000000
000001
000000
010000
000000
001000
000000
,
000100
000000
000100
000000
100001
100000
001000
000000
,
001000
000000
000100
000000
010000
001000
000100
000000
,
000001
000000
001000
000000
000010
100000
001000
000000
,
000100
000000
000001
000000
001000
000010
100000
000000
,
010001
000000
100010
000000
001000
000001
100000
000000
,
000100
010000
001000
000101
,
010000
001000
000100
001100
,
010000
000001
010000
000000
000010
100000
000010
000000
,
010000
001000
010000
000000
000010
001000
000010
000000
,
100000
000000
000001
000000
010000
010000
001000
000000
,
000001
000000
100000
000000
000010
000010
001000
000000
,
000101
000000
100001
000000
000010
010000
001000
000000
,
000100
000000
100001
000000
000100
001000
000100
000000
,
101000
000001
001010
100000
,
011000
000101
001010
100100
,
001000
010000
001000
000101
,
000010
001000
000100
100010
,
000001
001000
000100
100000
,
010000
000010
001000
000000
000001
000100
001000
000000
,
010000
000000
000000
100000
000000
000000
000001
000000
,
000000
000010
000000
000000
001000
001000
000100
000100
;

//---------------dance-solo - ----------------
#NOTES:
     dance-solo:
     :
     Hard:
     11:
     0.461305,0.479474,0.332411,0.000000,0.077167,272.000000,244.000000,28.000000,0.000000,0.000000,0.000000,0.461305,0.479474,0.332411,0.000000,0.077167,272.000000,244.000000,28.000000,0.000000,0.000000,0.000000:
000000
000000
000000
000000
,
000000
000000
000000
000000
,
000000
000000
000000
000000
,
000000
000000
000000
000000
,
000000
000000
000000
000000
,
000000
000000
000000
000000
,
000000
000000
000000
000000
,
001000
100000
001000
010000
001000
000010
001000
000001
,
001000
010000
001000
100000
001000
000001
001000
000010
,
001000
100000
001000
000001
001000
010000
001000
000010
,
001000
100000
001000
000001
001000
000100
001000
010000
,
001000
100000
001000
000010
001000
100000
001000
000001
,
001000
010000
001000
000100
001000
000010
001000
000100
,
000001
001000
000001
010000
000001
001000
000001
000010
,
000001
100000
000001
100000
000001
001000
000001
001000
,
100000
000001
010000
000001
100000
001000
010000
001000
,
000001
000100
000001
000010
000001
001000
000010
000000
,
100000
000000
000000
000001
000000
000000
100000
000000
000000
000000
000100
000000
001000
000000
000010
000000
,
000010
000000
000000
100000
000000
000000
000001
000000
000000
000000
000100
000000
001000
000000
010000
000000
,
000100
000000
000000
000100
000000
000000
000100
000000
000000
000000
100000
000000
000001
000000
001000
000000
,
000010
000000
000010
000000
000010
100000
001000
000000
,
010000
000000
000000
010000
000000
000000
010000
000000
000000
001000
100000
000000
000001
000000
001000
000000
,
000010
000000
000000
000010
000000
000000
000010
000000
000000
000100
000001
000000
100000
000000
001000
000000
,
000100
000000
000000
000100
000000
000000
000100
000000
000000
001000
100000
000000
000001
000000
001000
000000
,
000010
100000
000000
000000
001000
100000
000000
000000
000001
100000
000000
000000
001000
100000
000000
000000
,
000000
010000
000000
010000
000000
000001
000000
000001
,
000000
000100
000000
011000
000000
000100
000000
001010
,
000000
100000
000000
010001
000000
001000
000000
100010
,
000000
001000
000000
001000
000000
000100
100001
000000
,
001000
100000
001000
100000
000001
000100
000001
000100
,
000001
001000
000010
001000
000100
100000
100010
000000
,
001000
010000
000100
100000
000001
001000
000100
100000
,
001000
000100
000001
001000
000010
001000
100001
000000
,
000100
000000
100000
000000
000010
010001
100010
000000
,
100001
000000
001000
000000
100001
010000
001000
000000
,
000100
100000
001000
000100
000001
001000
001000
000000
,
101000
000000
010100
000000
000100
000010
001001
000000
,
100010
000000
001000
000000
000001
001000
100000
000000
,
100001
000000
001000
000000
100000
001000
000001
000000
,
100001
000000
001010
000000
000001
000100
001010
000000
,
000101
000000
101000
000000
010100
000010
001000
000000
,
100000
001001
000010
100100
,
001000
000000
000001
101000
000000
010000
100001
000000
,
000100
000010
000010
010000
000001
000001
001000
000010
,
000010
000010
100000
100000
000100
010000
100010
010001
;

//---------------dance-solo - ----------------
#NOTES:
     dance-solo:
     :
     Challenge:
     14:
     0.658039,0.772485,0.593592,0.379899,0.557976,388.000000,338.000000,50.000000,32.000000,0.000000,0.000000,0.658039,0.772485,0.593592,0.379899,0.557976,388.000000,338.000000,50.000000,32.000000,0.000000,0.000000:
000000
000000
000000
000000
,
000000
000000
000000
000000
,
000000
000000
000000
000000
,
000000
000000
000000
000000
,
000000
000000
000000
000000
,
000000
000000
000000
000000
,
000000
000000
000000
000000
,
000100
000000
010010
000000
000100
000000
100001
000000
000001
001000
000000
000100
000000
010000
001000
010000
,
000002
000000
001003
000000
000002
000000
100003
000000
000020
000000
001030
000000
000100
100000
010000
000000
,
100200
000000
002300
000000
003001
000000
000000
000000
100000
010000
001000
010000
001000
010000
100000
000000
,
000010
020000
030200
002300
003002
000023
200030
300100
,
020001
000000
032000
000000
103000
000000
000000
000000
000100
000010
000001
000010
000001
000010
000100
000000
,
002000
000000
100000
000000
103000
000000
000000
000000
000001
000100
000000
000010
000000
010000
001000
000000
,
201000
000000
300200
000000
010300
000000
000000
000000
001000
000010
000100
000010
000100
000010
001000
000000
,
000001
200000
302000
003200
000320
020030
030002
001003
,
020010
000000
030002
000000
100003
000000
000000
000000
001000
010000
000100
010000
000100
010000
001000
000000
,
100100
000000
000000
001001
000000
000000
000101
000000
000000
101000
000000
000000
100001
000000
001100
000000
,
010100
000000
000000
001010
000000
000000
010010
000000
000000
000001
100000
000000
000100
000000
001000
000000
,
001001
000000
000000
100100
000000
000000
010010
000000
000000
000100
100000
000000
000001
000000
001000
000000
,
001100
000000
000000
100001
000000
000000
010010
000000
000000
000001
001000
000000
000100
000000
100000
000000
,
000010
000100
000000
000100
010000
000000
000001
001000
000000
001000
100000
000000
000101
000000
000000
000000
,
110000
000000
000000
000011
000000
000000
010010
000000
000000
100000
001000
000000
000100
000000
000001
000000
,
011000
000000
000000
000110
000000
000000
010010
000000
000000
000001
000100
000000
001000
000000
100000
000000
,
101000
000000
000000
000000
000101
000000
000000
010010
000000
001000
000001
000000
100000
000000
000100
000000
,
100000
001000
100000
001000
010000
001000
010000
001000
100000
000000
000010
000001
001000
000000
000001
000000
,
000110
100000
000100
001000
000010
000100
001000
100000
,
000001
010000
000100
001000
000010
000100
001000
100000
,
000100
000000
200000
000000
300002
000000
010003
001000
000000
000100
000010
000000
010000
000000
001000
000000
,
100000
000000
000001
000000
000100
000000
001000
000000
000100
000010
010000
000000
000100
000000
001000
000000
,
001001
000010
000100
000001
010000
001000
100000
000100
,
001000
000010
000100
001000
010000
000001
100000
001000
,
100000
000000
000020
000000
020030
000000
030100
001000
000000
000001
100000
000000
001000
000000
000100
000000
,
000001
000000
001000
000000
000100
000000
100000
000000
010000
000010
001000
000000
100100
000000
000001
000000
,
000000
100000
010000
100000
000001
000000
000000
001000
000010
001000
000100
000000
000000
010000
000100
001000
,
000000
000001
010000
000100
001000
000010
100000
000000
000000
001000
000100
100000
000100
010000
000000
000000
,
000000
000001
000100
001000
010000
000000
000000
100000
001000
000100
000010
000000
000000
010000
000010
000100
,
000000
000001
100000
001000
010000
000010
000100
000000
000001
001000
000000
000100
000000
100000
000010
010000
,
001000
000000
000000
000000
010100
000000
000010
000000
100000
000001
000000
000100
001000
000000
000000
000000
,
100000
000000
000100
000000
001000
000001
001000
000001
001000
000100
100000
000000
021000
000000
000000
000000
,
030010
000100
000010
000000
000001
000100
000001
000000
010000
000100
010000
000000
100000
000100
100000
000000
,
001020
000000
000000
000000
100030
000001
000000
000100
000000
000010
001000
000000
000100
100000
000100
100000
,
000010
000000
000000
000000
010100
000000
000001
000000
001000
000100
000000
100000
000001
000000
000000
000000
,
200000
000000
000000
300100
100000
000001
002000
000000
000000
003010
000100
000000
001000
100000
000001
000000
,
000011
011000
000100
010100
100001
001000
000110
101000
,
000001
110000
001100
100000
100100
010001
001010
001001
;

//---------------dance-solo - ----------------
#NOTES:
     dance-solo:
     :
     Beginner:
     4:
     0.166206,0.212506,0.047487,0.023744,0.000000,98.000000,94.000000,4.000000,2.000000,0.000000,0.000000,0.166206,0.212506,0.047487,0.023744,0.000000,98.000000,94.000000,4.000000,2.000000,0.000000,0.000000:
000000
000000
000000
000000
,
000000
000000
000000
000000
,
000000
000000
000000
000000
,
000000
000000
000000
000000
,
000000
000000
000000
000000
,
000000
000000
000000
000000
,
000000
000000
000000
000000
,
000010
000000
010000
000000
,
001000
001000
001000
000000
,
010010
000000
000000
001000
,
000000
010000
010000
010000
,
010010
000000
000000
001000
,
000010
000000
010000
010000
,
010010
000000
000000
001000
,
000000
010000
000010
000010
,
010010
000000
000000
000000
,
001000
001000
001000
001000
,
010000
010000
000000
000000
,
000010
000010
000000
000000
,
001000
001000
000000
000000
,
001000
001000
000000
000000
,
000010
010000
000000
000000
,
010000
000010
000000
000000
,
001000
001000
000000
000000
,
000010
010000
000010
010000
,
000020
000000
000000
010030
,
001000
000000
010000
000000
,
000010
001000
000010
010000
,
001000
000000
010000
000010
,
020000
000000
000000
030010
,
010000
000000
001000
000000
,
010000
000010
010000
000010
,
001000
000000
001000
000000
,
000000
000010
000010
000000
,
010000
010000
000000
001000
,
000000
010000
010000
000000
,
000010
000010
010000
001000
,
000000
001000
010000
000010
,
000000
000000
000000
000000
,
010000
010000
000010
000010
,
000000
001000
000000
000010
,
000000
010000
000010
001000
,
000010
000000
010000
000000
,
000010
000000
010000
000000
,
000010
000000
001000
001000
;

//---------------dance-single - ----------------
#NOTES:
     dance-single:
     :
     Hard:
     14:
     0.669910,0.799123,0.498617,0.831028,0.611399,395.000000,353.000000,42.000000,70.000000,0.000000,0.000000,0.669910,0.799123,0.498617,0.831028,0.611399,395.000000,353.000000,42.000000,70.000000,0.000000,0.000000:
0000
0000
0000
0000
,
0000
0000
0000
0000
,
0000
0000
0000
0000
,
0000
0000
0000
0000
,
0002
0000
0000
0000
0023
0000
0000
0000
2030
0000
0000
0000
3001
0100
0001
0100
,
0002
0000
0000
0000
0000
0013
0000
0001
2000
0000
0000
0000
0000
3010
1000
0010
,
0100
0000
0000
0000
0100
0000
0000
0000
0002
0000
0000
0000
0000
1003
0000
0001
,
0010
0011
0100
1100
0001
0101
1000
1010
,
0100
0000
1001
0000
0100
0000
0110
0000
0001
0000
0010
0000
1000
0001
1000
0001
,
0200
0000
0320
0000
1030
0000
0001
0000
0000
0010
0001
0010
0100
1000
0002
0000
,
2003
3010
0100
0010
0001
0010
1000
0001
,
2000
0000
3200
0000
0310
0000
0001
0000
0000
0100
0010
0100
0001
1000
0020
0000
,
0230
0000
0000
0000
0301
1000
0000
0010
1000
0100
0000
0110
0000
0010
0001
0000
,
2000
0000
3002
0000
0013
0000
0100
0000
0001
1000
0010
1000
0100
0010
0002
0000
,
0203
0310
1000
0100
0001
0100
1000
0010
,
0200
0000
0320
0000
1030
0000
0001
0000
0010
0001
1000
0001
0010
0100
1000
0000
,
2200
3300
0000
0022
0033
0000
0202
0303
0000
2020
3030
0000
2002
3003
0220
0330
,
2000
0000
0000
3020
0000
0000
0032
0000
0000
1003
0100
0000
0010
0000
0001
0000
,
0200
0000
0000
0320
0000
0000
2030
0000
0000
3001
0010
0000
0100
0000
1000
0000
,
0200
0000
0000
2300
0000
0000
3002
0000
0000
0013
0001
0000
1000
0000
0100
0000
,
1000
0010
0100
0010
1000
0010
0100
0010
0000
1000
0001
0000
0022
0000
0030
0000
,
0023
0000
0000
0032
0000
0000
0203
0000
0000
0301
0010
0000
1000
0000
0100
0000
,
2000
0000
0000
3020
0000
0000
0032
0000
0000
0103
0010
0000
1000
0000
0001
0000
,
0020
0000
0000
2030
0000
0000
3200
0000
0000
0310
0001
0000
1000
0000
0001
0000
,
0100
1000
0100
0001
0100
1000
0100
0001
0100
0000
0010
0000
1000
0001
0100
0000
,
2010
0000
0001
0000
3001
0000
0100
0010
0000
0100
0010
0000
2000
0000
0000
0000
,
3002
0010
1000
0010
0100
1000
0100
0013
,
0002
0000
1000
0000
1003
0000
0010
0100
0000
0010
0100
0000
0002
0000
0000
0000
,
1003
0000
0000
0000
0000
0000
0010
0000
0000
0100
0000
0000
0010
0000
0000
0000
0000
0000
0202
0000
0000
0000
0000
0300
0000
0000
0000
1003
0000
0000
0002
0000
0000
0000
0000
0000
0023
0000
0000
0000
0000
0000
0130
0000
0000
0000
0000
0000
,
2100
0000
0010
0000
3010
0000
0001
1000
0000
0001
1000
0000
0020
0000
0000
0000
,
0230
1000
0010
0001
1000
0001
1000
0310
,
0200
0000
0001
0000
0301
0000
1000
0100
0000
1000
0100
0000
0020
0000
0000
0000
,
0031
0000
0100
0010
0100
0000
0001
0000
1000
0100
1000
0000
2002
0000
3000
0000
,
0000
1003
0100
0010
0001
0000
0000
0100
0010
1000
0001
0000
0000
0010
0001
0100
,
0000
0001
0010
0100
0010
0100
1000
0000
0000
0001
0100
0010
0100
0001
0000
0000
,
0000
1000
0010
0100
0001
0000
0000
0010
0001
1000
0100
0000
0000
1000
0001
0100
,
0000
0001
0010
0100
1000
0010
0000
1010
0000
0101
0000
1100
0000
0001
1000
0000
,
0110
0000
0000
0000
0010
0000
1000
0000
0100
0010
0000
0010
0001
0000
0000
0000
,
1000
0000
0010
0000
1000
0100
0010
0001
0100
0010
1000
0000
0001
0000
0000
0000
,
0011
0000
0100
0000
1001
0000
0010
0000
1010
0000
0001
0000
1100
0000
0010
0001
,
0100
0000
0000
0000
0010
1000
0000
1001
0000
0000
0100
0000
0001
0010
0001
0010
,
0200
0000
2300
0000
3001
0000
0100
0000
0010
1000
0000
1000
0001
0000
0000
0000
,
0011
0000
0000
0100
1000
0010
0000
1000
0001
0000
0100
0000
0101
0000
0110
0000
,
1001
1100
0001
0011
0110
1000
1010
0101
,
0010
1001
0110
0100
1010
0101
0011
1100
;

//---------------dance-single - ----------------
#NOTES:
     dance-single:
     :
     Medium:
     11:
     0.463001,0.506111,0.166206,0.498617,0.225565,273.000000,259.000000,14.000000,42.000000,0.000000,0.000000,0.463001,0.506111,0.166206,0.498617,0.225565,273.000000,259.000000,14.000000,42.000000,0.000000,0.000000:
0000
0000
0000
0000
,
0000
0000
0000
0000
,
0000
0000
0000
0000
,
0000
0000
0000
0000
,
0001
0000
0000
0000
0001
0000
0000
0000
0001
0000
0000
0000
0001
1000
0001
1000
,
0002
0000
0000
0000
0000
0103
0000
0100
0020
0000
0000
0000
0000
1030
0000
1000
,
0100
0000
0000
0000
0100
0000
0000
0000
0001
0000
0000
0000
0000
1000
0000
1000
,
0010
1000
0010
0001
0010
0100
0001
1000
,
0100
0000
0000
0000
0100
0000
0000
0000
0001
0000
1000
0000
0010
0100
0000
0010
,
0200
0000
0302
0000
0003
0000
0000
0000
0000
0000
1000
0001
1000
0000
0010
0000
,
0100
0001
0010
0001
1000
0001
1000
0100
,
0020
0000
0032
0000
0003
0000
0000
0000
0000
0000
1000
0100
1000
0000
0001
0000
,
0100
0000
0000
0000
0010
1000
0000
0000
0001
0100
0000
0010
0000
0010
0000
0000
,
2000
0000
3002
0000
0003
0000
0000
0000
0000
0000
0010
0001
0010
0000
0100
0000
,
1000
0001
0010
0001
1000
0001
0100
0010
,
2000
0000
3200
0000
0300
0000
0000
0000
0000
0000
0001
0010
0001
0000
1000
0000
,
0020
0030
0000
2000
3000
0000
0002
0003
0000
0200
0300
0000
0020
0030
0200
0300
,
0001
0000
0000
0010
0000
0000
1000
0000
0000
0000
0100
0000
1000
0000
0010
0000
,
0001
0000
0000
1000
0000
0000
0010
0000
0000
0000
1000
0000
0100
0000
0001
0000
,
0010
0000
0000
0001
0000
0000
1000
0000
0000
0000
0001
0000
0100
0000
0010
0000
,
1000
0100
0010
0001
0100
0010
1000
0000
,
0001
0000
0000
1000
0000
0000
0100
0000
0000
0000
0010
0000
0001
0000
0100
0000
,
1000
0000
0000
0001
0000
0000
1000
0000
0000
0000
0010
0000
0100
0000
0001
0000
,
0010
0000
0000
0100
0000
0000
1000
0000
0000
0000
1000
0000
0001
0000
0010
0000
,
0001
0100
0010
0100
0001
0100
0010
1000
,
0200
0000
1000
0000
1000
0000
0000
0001
0000
0000
0010
0000
0310
0000
0000
0000
,
1000
0010
1000
0001
0020
0000
0230
0000
,
2300
0000
0010
0000
0010
0000
0000
0100
0000
0000
0001
0000
3001
0000
0000
0000
,
0020
0000
0031
2000
0000
3001
0100
0010
,
2000
0000
0100
0000
0100
0000
0000
0001
0000
0000
0010
0000
3010
0000
0000
0000
,
0100
0001
1000
0001
0020
0000
0230
0000
,
0320
0000
1000
0000
1000
0000
0000
0100
0000
0000
0001
0000
0031
0000
0000
0000
,
2000
0000
3001
0020
0000
0031
0100
1000
,
0000
0000
0010
0000
1001
0000
0000
0000
0100
0000
1001
0000
0000
0000
0010
0100
,
0000
0010
1000
0000
1100
0000
0101
0000
0000
0000
1000
0001
0000
0100
0000
0000
,
0000
0000
0010
0000
1001
0000
0000
0000
0100
0000
1001
0000
0000
0000
0001
1000
,
0000
0001
0100
0000
0001
0000
0010
0000
0001
0000
0100
0000
1000
0000
0001
0000
,
0110
0000
0000
0000
0001
0000
0010
0000
2000
0000
0000
3002
0000
0000
0003
0000
,
0010
0001
0010
0100
1000
0001
0100
0000
,
0101
1100
0011
1010
,
1001
0000
0010
1000
0100
1000
0001
0000
,
0020
0000
0032
0000
1003
0000
0001
0000
2000
0000
0000
3020
0000
0000
0100
0000
,
0130
0000
0001
0010
1000
0100
0001
0000
,
2000
3020
0030
0200
0302
0003
0020
0230
,
0300
2000
3002
0003
1001
0100
0010
0101
;

//---------------dance-single - ----------------
#NOTES:
     dance-single:
     :
     Easy:
     7:
     0.308668,0.319649,0.023744,0.356155,0.000000,182.000000,180.000000,2.000000,30.000000,0.000000,0.000000,0.308668,0.319649,0.023744,0.356155,0.000000,182.000000,180.000000,2.000000,30.000000,0.000000,0.000000:
0000
0000
0000
0000
,
0000
0000
0000
0000
,
0000
0000
0000
0000
,
0000
0000
0000
0000
,
0001
0001
1000
1000
,
0020
0000
2030
0000
,
3100
0100
0001
0000
,
1000
1000
0001
0001
,
0100
0100
0001
0000
,
1000
0001
0000
0000
0000
0010
0100
0010
,
1000
0001
0010
0100
,
0010
0001
0000
0000
0000
1000
0100
1000
,
0002
0000
0003
0000
0100
0010
0100
0000
,
0001
0100
0000
0000
0000
0010
1000
0010
,
0100
0010
1000
0001
,
0010
0100
0000
0000
0000
1000
0001
1000
,
0010
0000
0010
0000
1000
0000
0100
1000
,
0001
0000
0010
0000
0001
0000
0100
0010
,
0100
0000
0001
0000
1000
0000
0001
0010
,
0001
0000
0100
0000
0010
0000
1000
0100
,
1000
0000
0001
0000
0010
0001
0100
0000
,
0010
0000
1000
0000
0010
0000
1000
0100
,
0010
0000
0001
0000
1000
0000
0010
0100
,
0001
0000
0010
0000
0001
0000
1000
0010
,
0100
0000
0100
0000
0100
0000
0001
1000
,
0002
1000
0100
0023
,
0032
0000
0000
2003
0000
0000
3020
0000
,
2030
0100
0010
3002
,
0203
0000
0000
0320
0000
1030
0001
1000
,
0200
0001
0010
2300
,
3020
0000
0000
0230
0000
0000
0302
0000
,
0023
0100
1000
0032
,
2003
0000
0000
3002
0000
0103
0020
0000
,
0030
1000
0100
0000
1000
0001
0000
0100
,
0000
0010
1000
0010
0000
0100
0001
0000
,
0000
0010
0001
0000
1000
0001
0000
0100
,
0000
0010
1000
0000
0100
0000
0001
0000
,
1001
0000
0001
0100
1000
0000
0010
0000
,
0100
0000
0001
0000
1000
0001
0100
0000
,
0002
0023
0230
2300
,
3010
0000
0100
0001
0100
0000
0010
0000
,
0110
0000
1000
0010
0001
0000
0100
0000
,
0001
0000
0010
0000
0001
0100
1000
0000
,
0020
0000
0000
2030
0000
0000
3200
0000
,
0000
0302
0000
0000
0013
1000
0001
0100
;

//---------------dance-single - ----------------
#NOTES:
     dance-single:
     :
     Beginner:
     3:
     0.159422,0.185943,0.118718,0.000000,0.000000,94.000000,84.000000,10.000000,0.000000,0.000000,0.000000,0.159422,0.185943,0.118718,0.000000,0.000000,94.000000,84.000000,10.000000,0.000000,0.000000,0.000000:
0000
0000
0000
0000
,
0000
0000
0000
0000
,
0000
0000
0000
0000
,
0000
0000
0000
0000
,
0001
0000
1000
0000
,
0010
0000
0010
0000
,
0100
0000
0001
0000
,
1000
0000
0010
0000
,
0100
0000
0001
0000
,
1001
0000
0000
0010
,
0010
0000
1000
0000
,
1001
0000
0000
0001
,
0001
0000
0100
0000
,
0110
0000
0000
0100
,
0100
0000
0010
0000
,
0110
0000
0000
1000
,
1000
0000
0001
0000
,
0010
0010
0000
0000
,
0001
0001
0000
0000
,
0100
0100
0000
0000
,
1000
1000
1000
0000
,
0001
0001
0000
0000
,
1000
1000
0000
0000
,
0010
0010
0000
0000
,
0100
0100
0100
0000
,
1001
0000
0000
0001
,
0001
0000
1000
0000
,
1001
0000
0000
0100
,
0100
0000
0010
0000
,
0110
0000
0000
0001
,
0001
0000
0100
0000
,
0110
0000
0000
0010
,
0010
0000
1000
0000
,
0000
0001
0000
1000
,
0000
0001
0000
0100
,
0000
0010
0000
1000
,
0000
0100
0000
0000
,
1001
0000
0001
0000
,
1000
0000
0010
0000
,
0100
0100
0100
0000
,
0001
0000
1000
0000
,
0110
0000
1000
0000
,
0001
0000
0010
0000
,
0001
0000
0000
1000
,
0000
0000
0010
0010
;

//---------------dance-single - ----------------
#NOTES:
     dance-single:
     :
     Challenge:
     15:
     0.832724,0.852398,0.261180,0.237437,0.967554,491.000000,469.000000,22.000000,20.000000,0.000000,0.000000,0.832724,0.852398,0.261180,0.237437,0.967554,491.000000,469.000000,22.000000,20.000000,0.000000,0.000000:
// measure 0
0000
0000
0000
0000
,  // measure 1
0000
0000
0000
0000
,  // measure 2
0000
0000
0000
0000
,  // measure 3
0000
0000
0000
0000
,  // measure 4
0001
0000
0010
0000
1000
0000
0100
0000
1000
0000
0000
0000
0001
0100
0001
0100
,  // measure 5
0002
0000
0000
0000
1003
0100
0010
0100
2000
0000
0000
0000
3001
0100
0010
1000
,  // measure 6
0100
0000
0010
0000
0100
0000
1000
0000
0001
0000
0100
0000
0010
1000
0010
1000
,  // measure 7
0001
0011
1001
1010
0110
1010
1100
0011
,  // measure 8
0100
0000
1001
0000
0100
0000
1010
0000
0001
0000
0010
0000
1000
0100
1000
0100
,  // measure 9
0020
0000
0032
0000
0103
0000
0010
0000
1000
0100
0001
0100
0010
0100
1000
0001
,  // measure 10
0100
0000
0010
0000
1000
0000
0001
0000
0010
0001
0100
0000
0010
1000
0100
0000
,  // measure 11
2000
0000
3002
0000
0013
0000
0100
0000
0010
1000
0010
0001
0100
0010
1000
0001
,  // measure 12
0100
0000
0010
0000
1000
0010
0100
0010
1000
0001
0010
0001
0000
0001
1000
0000
,  // measure 13
0020
0000
0230
0000
0301
0000
0010
0000
0001
0100
1000
0100
0010
1000
0001
0100
,  // measure 14
0010
0000
1000
0000
0100
0000
0001
0000
0010
0001
0100
0000
0010
1000
0100
0000
,  // measure 15
2000
0000
3020
0000
0130
0000
0001
0000
0010
0100
0001
0100
1000
0010
0100
0001
,  // measure 16
2000
3100
0000
0200
0301
0000
2000
3010
0000
0020
0031
0000
2000
3010
0200
0301
,  // measure 17
1000
0010
0000
0010
1000
0000
0100
0000
0000
0001
0010
0000
0001
1000
0100
0000
,  // measure 18
0010
0001
0000
0001
0010
0000
0100
0000
0000
1000
0001
0000
1000
0010
0100
0000
,  // measure 19
0001
1000
0000
1000
0001
0000
0010
0000
0000
0100
0010
0000
0001
1000
0100
0000
,  // measure 20
1000
0010
0100
0010
1000
0100
0010
0100
1000
0001
0010
0000
2100
0000
3002
0000
,  // measure 21
1003
0100
0000
0010
0001
0000
0100
0000
0001
0010
0001
0000
1000
0100
0010
0000
,  // measure 22
0100
1000
0000
0001
0010
0000
0100
0000
0010
0001
0010
0000
0100
1000
0001
0000
,  // measure 23
1000
0010
0000
0100
0001
0000
1000
0000
0010
0100
0010
0000
1000
0001
0100
0000
,  // measure 24
0001
0010
0100
0010
0001
0100
0010
0100
0001
0010
0100
0010
0001
0100
1000
0000
,  // measure 25
1010
0000
0001
0000
0100
0000
0010
1000
0000
1000
0100
0000
0010
0000
0001
0000
,  // measure 26
0100
0000
0010
0000
1000
0010
0100
0001
0010
0100
1000
0000
0001
0100
1000
0000
,  // measure 27
0110
0000
0001
0000
0010
0001
0010
0100
1000
0010
0100
0000
0001
0000
1000
0000
,  // measure 28
0010
0000
1000
0100
0010
0000
0001
0100
0010
0100
0001
0010
1000
0010
0001
0000
,  // measure 29
0101
0000
1000
0000
0010
0000
0100
0001
0000
0001
0010
0000
0001
1000
0100
0000
,  // measure 30
0010
0000
0001
0000
0100
0010
1000
0001
0010
0100
1000
0000
0001
0100
0010
0000
,  // measure 31
1001
0000
0100
0000
0001
0010
0001
0100
0010
1000
0001
0000
1000
0100
0010
0001
,  // measure 32
0100
0000
0010
1000
0001
0000
0010
0001
0100
0010
1000
0100
0001
0100
1000
0000
,  // measure 33
0100
1000
0100
0010
0001
0000
0100
0001
0010
0100
1000
0000
0001
0010
1000
0010
,  // measure 34
0001
0100
0010
0100
1000
0100
0001
0000
1000
0100
0010
0001
0100
0010
1000
0000
,  // measure 35
0001
0010
0100
1000
0010
0000
0100
1000
0100
0001
0010
0000
0001
1000
0010
1000
,  // measure 36
0100
0001
0100
0010
0100
1000
0010
0100
0001
0010
0001
1000
0100
0010
0001
0000
,  // measure 37
1100
0000
0000
0000
0001
0000
0100
0000
1000
0010
0100
0010
1000
0000
0000
0000
,  // measure 38
0001
0000
0010
0000
1000
0001
0010
0001
1000
0100
0010
0000
0001
0000
0000
0000
,  // measure 39
0101
0010
1100
0010
0011
0100
1010
0100
,  // measure 40
1001
0000
0010
0000
1000
0100
0010
0001
0100
0001
1000
0000
0010
0100
0010
0100
,  // measure 41
0002
0000
2003
0000
3100
0000
0010
0000
0001
0100
0010
0100
0001
0000
0000
0000
,  // measure 42
1000
0000
0000
0010
1000
0100
0010
0001
1000
0001
0010
0000
0001
0100
0010
1000
,  // measure 43
0001
0100
0010
0100
0010
0100
1000
0100
0010
0100
0010
0100
0001
0010
0100
0010
,  // measure 44
0100
0010
1000
0010
0100
0010
0100
0010
0001
0000
1000
0000
0101
0000
1010
0000
;
