#TITLE:AM-3P (AM EAST mix);
#SUBTITLE:;
#ARTIST:KTz;
#TITLETRANSLIT:;
#SUBTITLETRANSLIT:;
#ARTISTTRANSLIT:;
#GENRE:;
#CREDIT:;
#BANNER:AM-3P (AM EAST mix)-bn.png;
#BACKGROUND:AM-3P (AM EAST mix)-bg.png;
#LYRICSPATH:;
#CDTITLE:;
#MUSIC:AM-3P (AM EAST mix).ogg;
#OFFSET:0.000000;
#SAMPLESTART:49.710999;
#SAMPLELENGTH:20.000000;
#SELECTABLE:YES;
#DISPLAYBPM:140.000000;
#BPMS:0.000000=140.078003
,4.000000=140.009003
;
#STOPS:
;
#BGCHANGES:;
#KEYSOUNDS:;
#ATTACKS:;

//---------------dance-single - ----------------
#NOTES:
     dance-single:
     :
     Hard:
     10:
     0.435647,0.493886,0.092100,0.040933,0.301883,298.000000,289.000000,9.000000,4.000000,0.000000,0.000000,0.435647,0.493886,0.092100,0.040933,0.301883,298.000000,289.000000,9.000000,4.000000,0.000000,0.000000:
0000
0000
0000
0000
,
0000
0000
0000
0000
,
0000
0000
0000
0000
,
1000
0100
0010
0001
,
0001
0100
0010
1000
,
1000
0100
0010
0000
1000
0100
0010
0000
,
1000
0010
0100
0001
0010
0100
1000
0000
,
0001
0010
0100
0000
0001
0010
0100
0000
,
1000
0010
0001
0100
1000
0100
0010
0000
,
1000
0000
0000
0100
0000
0000
0001
0000
0000
0000
0000
0000
0100
0000
0000
0000
,
1000
0000
0000
0010
0000
0000
0100
0000
0000
0000
0000
0000
0001
0000
0000
0000
,
0010
0000
0000
0001
0000
0000
0100
0000
0001
0000
0000
0010
0000
0000
0100
0000
,
1000
0000
0000
0110
,
1000
1000
1000
0000
0001
0001
0001
0000
,
1000
0010
0100
0001
1000
0100
0010
0000
,
0001
1000
0100
0000
0001
1000
0100
0000
,
0010
0202
0000
0000
0303
0000
1001
0000
,
0010
0100
0001
0000
0010
0100
1000
0000
,
0001
0100
0010
0001
0010
1000
0100
0000
,
0001
0010
1000
0000
1000
0010
0001
0000
,
1001
1001
0010
0010
0110
0110
0001
0000
,
0010
0000
0000
1000
0000
0000
0100
0000
0000
1000
0000
0000
0010
0000
0100
0000
,
0001
0000
0000
1000
0000
0000
1000
0000
0000
0010
0000
0000
0100
0000
0001
0000
,
1000
0000
0000
0100
0000
0000
0010
0000
0000
0100
0000
0000
1000
0000
0010
0000
,
1000
0000
0000
0100
0000
0000
0000
0000
0000
0000
0000
0000
0000
0000
0000
0000
1000
0000
0000
0001
0000
0000
0000
0000
0000
0000
0000
0000
0000
0000
0000
0000
1000
0000
0000
0100
0000
0000
0000
0000
0000
0000
0000
0000
0000
0000
0000
0000
1000
0000
0000
0100
0000
0000
0000
0000
0000
0000
0000
0000
0000
0000
0000
0000
,
1001
0000
0000
0100
0000
0000
0010
0000
0000
0001
0100
0000
0010
0000
1000
0000
,
0100
0000
0000
0010
0000
0000
0001
0000
0000
1000
0100
0000
1000
0000
0001
0000
,
0010
0000
0000
0100
0000
0000
1000
0000
0000
0010
0100
0000
0001
0000
0010
0000
,
0100
0000
0000
1000
0000
0000
0000
0000
0000
0000
0000
0000
0000
0000
0000
0000
0001
0000
0000
1000
0000
0000
0000
0000
0000
0000
0000
0000
0000
0000
0000
0000
0100
0000
0000
1000
0000
0000
0000
0000
0000
0000
0000
0000
0000
0000
0000
0000
0100
0000
0000
1000
0000
0000
0000
0000
0000
0000
0000
0000
0000
0000
0000
0000
,
0010
0000
0000
0001
0000
0000
0100
0000
0000
0000
0010
0000
0100
0000
0000
0000
,
0001
0000
0000
1000
0000
0000
1000
0000
0000
0000
0100
0000
0010
0000
0000
0000
,
0100
0000
0000
0010
0000
0000
0001
0000
0000
0000
0001
0000
0100
0000
0000
0000
,
0100
0000
0000
1000
0000
0000
0100
0000
0000
0000
0001
0000
0010
0000
0000
0000
,
0010
0000
0000
1000
0000
0000
0100
0000
0000
0000
0100
0000
0001
0000
0000
0000
,
0001
0000
0000
1000
0000
0000
0100
0000
0000
0000
1000
0000
0010
0000
0000
0000
,
0010
0000
0000
0001
0000
0000
0100
0000
0000
0000
0100
0000
1000
0000
0000
0000
,
0100
0000
0000
0001
0000
0000
0010
0000
0000
0000
0010
0000
1000
0000
0000
0000
,
0002
0003
0010
0100
,
2000
3000
0001
0100
,
1000
0000
0000
0100
0000
0000
0010
0000
0001
0000
0000
0001
0000
0000
0100
0000
,
0100
0000
0000
1000
0000
0000
1000
0000
0000
0000
0000
0000
0000
0000
0000
0000
,
0010
0000
0000
0001
0000
0000
0100
0000
0000
1000
0000
0000
0010
0000
0100
0000
,
0001
0000
0000
1000
0000
0000
1000
0000
0000
0010
0000
0000
0100
0000
1000
0000
,
1000
0000
0000
0100
0000
0000
0010
0000
0000
0100
0000
0000
1000
0000
0010
0000
,
0001
0000
0000
0100
0000
0000
0000
0000
0000
0000
0000
0000
0000
0000
0000
0000
1000
0000
0000
0001
0000
0000
0000
0000
0000
0000
0000
0000
0000
0000
0000
0000
0010
0000
0000
0100
0000
0000
0000
0000
0000
0000
0000
0000
0000
0000
0000
0000
1000
0000
0000
0100
0000
0000
0000
0000
0000
0000
0000
0000
0000
0000
0000
0000
,
1001
0000
0000
0100
0000
0000
0010
0000
0000
1000
0100
0000
0010
0000
0001
0000
,
0100
0000
0000
0010
0000
0000
0001
0000
0000
0010
0100
0000
1000
0000
0001
0000
,
0010
0000
0000
0100
0000
0000
1000
0000
0000
0001
0010
0000
1000
0000
0010
0000
,
0100
0000
0000
1000
0000
0000
0000
0000
0000
0000
0000
0000
0000
0000
0000
0000
0001
0000
0000
0010
0000
0000
0000
0000
0000
0000
0000
0000
0000
0000
0000
0000
0100
0000
0000
1000
0000
0000
0000
0000
0000
0000
0000
0000
0000
0000
0000
0000
0100
0000
0000
0001
0000
0000
0000
0000
0000
0000
0000
0000
0000
0000
0000
0000
,
0010
0000
0000
0000
1000
0000
0000
0000
0100
1000
0100
0000
0000
0000
0000
0000
,
0010
0000
0000
0000
0001
0000
0000
0000
0100
0010
0100
0000
0000
0000
0000
0000
,
0001
0010
0100
1000
,
0100
0000
0010
0000
1000
0000
0100
0000
1000
0001
1000
0000
0000
0000
0000
0000
,
0001
0000
0000
0000
0010
0000
0000
0000
1000
0100
1000
0000
0000
0000
0000
0000
;

//---------------dance-double - ----------------
#NOTES:
     dance-double:
     :
     Hard:
     11:
     0.429799,0.466448,0.051167,0.040933,0.301883,294.000000,289.000000,5.000000,4.000000,0.000000,0.000000,0.429799,0.466448,0.051167,0.040933,0.301883,294.000000,289.000000,5.000000,4.000000,0.000000,0.000000:
00000000
00000000
00000000
00000000
,
00000000
00000000
00000000
00000000
,
00000000
00000000
00000000
00000000
,
00001000
01000000
00100000
00010000
,
00000010
00000100
00010000
00000010
,
00000001
00000100
00000010
00000000
00010000
00001000
00100000
00000000
,
00100000
10000000
01000000
00010000
00001000
00010000
01000000
00000000
,
10000000
00100000
00010000
00000000
00010000
00001000
00000100
00000000
,
00000010
00010000
00001000
00000100
00001000
00010000
01000000
00000000
,
10000000
00000000
00000000
01000000
00000000
00000000
00010000
00000000
00000000
00000000
00000000
00000000
00000100
00000000
00000000
00000000
,
00000010
00000000
00000000
00000100
00000000
00000000
00001000
00000000
00000000
00000000
00000000
00000000
00010000
00000000
00000000
00000000
,
00100000
00000000
00000000
00010000
00000000
00000000
00001000
00000000
00010000
00000000
00000000
00000010
00000000
00000000
00000100
00000000
,
00000001
00000000
00000000
00000110
,
00001000
00001000
00001000
00000000
00010000
00010000
00010000
00000000
,
00100000
10000000
01000000
00010000
00100000
00010000
00001000
00000000
,
00010000
00000010
00000100
00000000
00001000
00100000
01000000
00000000
,
00010000
00022000
00000000
00000000
00033000
00000000
00010010
00000000
,
00000100
00000001
00000010
00000000
00001000
00010000
01000000
00000000
,
00010000
01000000
00100000
00010000
00001000
00000010
00000001
00000000
,
00000001
00000100
00001000
00000000
00010000
00100000
00010000
00000000
,
00100000
10000000
00100000
01000000
00001000
00010000
00000100
00000000
,
00000010
00000000
00000000
00000001
00000000
00000000
00000100
00000000
00000000
00001000
00000000
00000000
00010000
00000000
01000000
00000000
,
00010000
00000000
00000000
00001000
00000000
00000000
00000100
00000000
00000000
00000001
00000000
00000000
00000010
00000000
00001000
00000000
,
00010000
00000000
00000000
00100000
00000000
00000000
00010000
00000000
00000000
00001000
00000000
00000000
00000010
00000000
00000001
00000000
,
00000010
00000000
00000000
00000100
00000000
00000000
00000000
00000000
00000000
00000000
00000000
00000000
00000000
00000000
00000000
00000000
00001000
00000000
00000000
00000100
00000000
00000000
00000000
00000000
00000000
00000000
00000000
00000000
00000000
00000000
00000000
00000000
00010000
00000000
00000000
00001000
00000000
00000000
00000000
00000000
00000000
00000000
00000000
00000000
00000000
00000000
00000000
00000000
00010000
00000000
00000000
00001000
00000000
00000000
00000000
00000000
00000000
00000000
00000000
00000000
00000000
00000000
00000000
00000000
,
00011000
00000000
00000000
01000000
00000000
00000000
00100000
00000000
00000000
00010000
01000000
00000000
00100000
00000000
10000000
00000000
,
01000000
00000000
00000000
00010000
00000000
00000000
00001000
00000000
00000000
00001000
00000100
00000000
00000001
00000000
00000010
00000000
,
00000100
00000000
00000000
00010000
00000000
00000000
00001000
00000000
00000000
00010000
01000000
00000000
00100000
00000000
10000000
00000000
,
01000000
00000000
00000000
10000000
00000000
00000000
00000000
00000000
00000000
00000000
00000000
00000000
00000000
00000000
00000000
00000000
00010000
00000000
00000000
01000000
00000000
00000000
00000000
00000000
00000000
00000000
00000000
00000000
00000000
00000000
00000000
00000000
00010000
00000000
00000000
01000000
00000000
00000000
00000000
00000000
00000000
00000000
00000000
00000000
00000000
00000000
00000000
00000000
00001000
00000000
00000000
00010000
00000000
00000000
00000000
00000000
00000000
00000000
00000000
00000000
00000000
00000000
00000000
00000000
,
00100000
00000000
00000000
00010000
00000000
00000000
01000000
00000000
00000000
00000000
00001000
00000000
00010000
00000000
00000000
00000000
,
00010000
00000000
00000000
00001000
00000000
00000000
00000100
00000000
00000000
00000000
00000001
00000000
00001000
00000000
00000000
00000000
,
00000100
00000000
00000000
00000010
00000000
00000000
00001000
00000000
00000000
00000000
00000100
00000000
00010000
00000000
00000000
00000000
,
00100000
00000000
00000000
00010000
00000000
00000000
00001000
00000000
00000000
00000000
00010000
00000000
00100000
00000000
00000000
00000000
,
00001000
00000000
00000000
00010000
00000000
00000000
00000010
00000000
00000000
00000000
00000001
00000000
00000100
00000000
00000000
00000000
,
00001000
00000000
00000000
00000100
00000000
00000000
00001000
00000000
00000000
00000000
00010000
00000000
00100000
00000000
00000000
00000000
,
10000000
00000000
00000000
00010000
00000000
00000000
01000000
00000000
00000000
00000000
01000000
00000000
00010000
00000000
00000000
00000000
,
00001000
00000000
00000000
00000100
00000000
00000000
00000010
00000000
00000000
00000000
00001000
00000000
00000010
00000000
00000000
00000000
,
00000002
00000003
00000100
00001000
,
00020000
00030000
00001000
00000100
,
00000001
00000000
00000000
00000100
00000000
00000000
00001000
00000000
00010000
00000000
00000000
00010000
00000000
00000000
00000100
00000000
,
00000010
00000000
00000000
00001000
00000000
00000000
00010000
00000000
00000000
00000000
00000000
00000000
00000000
00000000
00000000
00000000
,
00000100
00000000
00000000
00000001
00000000
00000000
00000010
00000000
00000000
00001000
00000000
00000000
00010000
00000000
01000000
00000000
,
10000000
00000000
00000000
00100000
00000000
00000000
00010000
00000000
00000000
00001000
00000000
00000000
00000100
00000000
00000001
00000000
,
00000010
00000000
00000000
00000100
00000000
00000000
00000100
00000000
00000000
00001000
00000000
00000000
00010000
00000000
00100000
00000000
,
00010000
00000000
00000000
01000000
00000000
00000000
00000000
00000000
00000000
00000000
00000000
00000000
00000000
00000000
00000000
00000000
10000000
00000000
00000000
00010000
00000000
00000000
00000000
00000000
00000000
00000000
00000000
00000000
00000000
00000000
00000000
00000000
00100000
00000000
00000000
00010000
00000000
00000000
00000000
00000000
00000000
00000000
00000000
00000000
00000000
00000000
00000000
00000000
00010000
00000000
00000000
00001000
00000000
00000000
00000000
00000000
00000000
00000000
00000000
00000000
00000000
00000000
00000000
00000000
,
00011000
00000000
00000000
00000100
00000000
00000000
00000001
00000000
00000000
00000010
00000100
00000000
00010000
00000000
00001000
00000000
,
01000000
00000000
00000000
00100000
00000000
00000000
00010000
00000000
00000000
00100000
10000000
00000000
01000000
00000000
00010000
00000000
,
00001000
00000000
00000000
00000100
00000000
00000000
00010000
00000000
00000000
00001000
00010000
00000000
01000000
00000000
10000000
00000000
,
01000000
00000000
00000000
10000000
00000000
00000000
00000000
00000000
00000000
00000000
00000000
00000000
00000000
00000000
00000000
00000000
00010000
00000000
00000000
00100000
00000000
00000000
00000000
00000000
00000000
00000000
00000000
00000000
00000000
00000000
00000000
00000000
00001000
00000000
00000000
00010000
00000000
00000000
00000000
00000000
00000000
00000000
00000000
00000000
00000000
00000000
00000000
00000000
00000100
00000000
00000000
00001000
00000000
00000000
00000000
00000000
00000000
00000000
00000000
00000000
00000000
00000000
00000000
00000000
,
00000010
00000000
00000000
00000000
00000001
00000000
00000000
00000000
00000100
00001000
00000100
00000000
00000000
00000000
00000000
00000000
,
00100000
00000000
00000000
00000000
00010000
00000000
00000000
00000000
01000000
10000000
01000000
00000000
00000000
00000000
00000000
00000000
,
00100000
00001000
00010000
00000100
,
00000100
00000000
00000010
00000000
00000001
00000000
00000100
00000000
00001000
00010000
00001000
00000000
00000000
00000000
00000000
00000000
,
00000100
00000000
00000000
00000000
00010000
00000000
00000000
00000000
00100000
01000000
00100000
00000000
00000000
00000000
00000000
00000000
;

//---------------dance-single - ----------------
#NOTES:
     dance-single:
     GROOVE RADAR SPECIAL:
     Challenge:
     14:
     0.675399,0.850581,0.839132,0.982399,0.598649,462.000000,380.000000,82.000000,96.000000,0.000000,0.000000,0.675399,0.850581,0.839132,0.982399,0.598649,462.000000,380.000000,82.000000,96.000000,0.000000,0.000000:
0000
0000
0000
0000
,
0000
0000
0000
0000
,
0000
0000
0000
0000
,
0001
0000
0001
0000
0000
1000
0100
0010
0100
0000
0100
0000
0000
1000
0010
1000
,
0010
0000
0100
0000
0001
1000
0001
1000
0001
0000
0010
0000
0100
0000
1000
0000
,
0010
0000
0010
0000
0000
1000
0100
1000
0001
0000
0001
0000
0000
0100
0010
1000
,
0001
0000
0001
0000
1000
0010
1000
0010
0100
0000
0100
0000
0001
0000
0010
0000
,
0100
0000
0100
0000
0000
1000
0010
1000
0001
0000
0001
0000
0000
0001
0010
0100
,
1000
0000
1000
0000
0010
0100
0010
0100
0001
0000
0001
0000
0100
0000
0001
0000
,
2002
0000
0000
0000
0000
3000
0200
0003
,
2000
0000
0300
0002
0000
3000
0200
0303
,
0110
0000
0000
0011
0000
0000
1100
0000
0000
1010
0000
0000
0101
0000
1002
0000
,
0200
0000
0003
0020
0000
0300
2000
0030
,
3020
0000
0130
0000
1001
0000
0000
0000
1000
0010
1000
0010
0100
0010
0100
0000
,
0102
1003
0102
1003
2001
0010
3100
0000
,
0002
0000
1003
0000
0110
0000
0000
0000
0010
1000
0010
1000
0100
0010
0001
0000
,
2000
3002
0010
0010
0010
1000
0100
0103
,
0002
0000
0013
0000
0101
0000
0000
0000
1000
0001
0010
0100
1000
0010
1000
0000
,
2100
3001
2100
3001
1002
0100
0013
0000
,
0012
0100
1003
0000
2100
0010
3001
0000
,
1100
1100
0101
0101
1010
1010
0011
0011
,
0220
0000
0300
2000
0000
0030
0002
0000
3000
0103
0002
0000
0023
0000
0130
0000
,
2200
0000
0300
0020
0000
3000
0200
0000
0030
0301
0020
0000
0230
0000
1300
0000
,
2002
0000
3000
0020
0000
0003
0200
0000
0030
1300
0002
0000
2003
0000
3010
0000
,
1000
0100
0000
0100
0001
0000
0001
0010
0000
0010
1000
0000
0000
0000
0000
0000
,
1100
0000
0000
0011
0000
0000
1001
0000
0000
0010
0100
0000
0101
0000
1100
0000
,
0110
0000
0000
1100
0000
0000
1001
0000
0000
0001
0100
0000
0101
0000
0011
0000
,
1001
0000
0000
1010
0000
0000
0101
0000
0000
0010
0100
0000
0110
0000
1010
0000
,
1000
0010
0000
0010
0001
0000
0001
0100
0000
0100
1000
0000
0010
0100
0010
0100
,
0020
0000
0000
2000
0000
0030
0002
0000
3000
0200
0000
0003
0020
0000
0000
0300
,
0200
0000
0030
0002
0000
0300
2000
0000
0003
0200
0000
3000
0020
0000
0000
0300
,
0002
0000
0030
2000
0000
0003
0020
0000
3000
2000
0000
0030
0002
0000
0000
3000
,
0200
0000
0003
0002
0000
0300
0020
0000
0003
0200
0000
0030
2000
0000
0000
3300
,
1100
0000
0000
1010
0000
0000
0101
0000
0000
0011
0000
0000
1100
0000
0000
0000
,
1001
0000
0000
0011
0000
0000
1100
0000
0000
0110
0000
0000
0011
0000
0000
0000
,
0101
0000
0000
0110
0000
0000
1010
0000
0000
1100
0000
0000
1001
0000
0000
0000
,
0011
0000
0000
0101
0000
0000
0110
0000
0000
1010
0000
0000
0101
0000
0000
0000
,
0220
0000
0000
0000
0000
0300
2000
0030
,
0200
0000
0000
0000
3000
0000
0020
0000
0000
0000
0300
0000
0002
0000
0000
0033
,
1001
0000
0000
1010
0000
0000
0011
0000
0000
0101
0000
0000
1100
0000
0210
0000
,
0002
0000
0300
2000
0000
0003
0020
3030
,
0210
0000
0000
0302
0000
0000
2003
0000
0000
3100
1000
0000
1001
0000
0100
0000
,
2010
0000
0000
3200
0000
0000
0320
0000
0000
0032
1000
0000
0100
0000
0013
0000
,
0011
0000
0000
1001
0000
0000
0110
0000
0000
0010
1000
0000
1100
0000
0001
0000
,
1000
0010
0000
0010
0001
0000
0001
0100
0000
0100
1000
0000
0000
0000
0000
0000
,
2020
0000
0030
0002
0000
3000
0020
0000
0003
0230
2000
0300
0002
3000
0020
0003
,
0002
0000
0030
2000
0000
0003
0200
0000
3000
2300
0020
3000
0200
0030
0002
0300
,
0020
0000
0003
0002
0000
0030
0200
0000
0003
0301
0100
0000
0110
0000
1001
0000
,
1000
0100
0000
0100
0001
0000
0001
0010
0000
0010
1000
0000
0101
0000
0000
0000
,
1000
0100
0010
0001
0100
0000
0001
0010
0100
1000
0100
0000
0010
0001
1000
0001
,
0010
0100
1000
0010
0100
0000
0001
1000
0100
1000
0010
0000
0100
0001
0010
0100
,
1000
0010
1000
0100
0010
0000
0001
0100
0001
1000
0100
0000
0010
0001
0100
0001
,
1000
0100
1000
0100
1000
0010
1000
0010
1000
0001
1000
0001
1000
0000
0000
0000
,
1000
0100
0001
0100
1000
0000
0001
0100
1000
0100
0001
0000
0000
0000
0000
0000
;

//---------------dance-single - ----------------
#NOTES:
     dance-single:
     :
     Medium:
     9:
     0.390328,0.493886,0.532133,0.532133,0.102333,267.000000,215.000000,52.000000,52.000000,0.000000,0.000000,0.390328,0.493886,0.532133,0.532133,0.102333,267.000000,215.000000,52.000000,52.000000,0.000000,0.000000:
0000
0000
0000
0000
,
0000
0000
0000
0000
,
0000
0000
0000
0000
,
0002
0203
0320
0230
,
0301
0001
0000
1000
0100
0010
0100
0000
,
2000
3020
0230
0302
,
0013
0010
0000
0001
0100
0010
1000
0000
,
0020
2030
3002
2003
,
3100
0100
0000
1000
0001
1000
0010
0000
,
2002
0000
3000
0203
,
0320
0000
0000
2030
0000
0000
3000
0000
,
0220
0000
0030
0302
,
0023
0000
0000
0032
0000
0000
0203
0000
,
0301
0001
0100
0000
0000
0010
0010
0100
,
2000
0100
0001
3100
,
0010
0010
0100
0000
0000
0001
0001
0100
,
0020
0200
0000
0000
0000
0000
0330
0000
,
0010
0010
1000
0000
0000
0100
0100
1000
,
0002
0100
0010
0103
,
1000
0001
0100
0000
0001
1000
0100
0000
,
2000
0010
0100
3001
,
1010
0000
0000
1001
0000
0000
0101
0000
0000
0000
0000
0000
0000
0000
0000
0000
,
1100
0000
0000
0110
0000
0000
0011
0000
0000
0000
0000
0000
0000
0000
0000
0000
,
0101
0000
0000
0110
0000
0000
1001
0000
0000
0000
0000
0000
0000
0000
0000
0000
,
2000
0000
0000
0000
3002
0000
0000
0203
0000
0000
0320
0000
0000
0030
0000
0000
,
0110
0000
0000
1010
0000
0000
1100
0000
0000
0000
0000
0000
0000
0000
0000
0000
,
1001
0000
0000
0011
0000
0000
0101
0000
0000
0000
0000
0000
0000
0000
0000
0000
,
0110
0000
0000
1001
0000
0000
0101
0000
0000
0000
0000
0000
0000
0000
0000
0000
,
0002
0000
0000
0000
2003
0000
0000
3020
0000
0000
0230
0000
0000
0300
0000
0000
,
0010
0000
1100
0000
0001
0100
1000
0000
,
0001
0000
0101
0000
1000
0010
0100
0000
,
0010
0000
1001
0000
0100
0001
1000
0000
,
0100
0000
1010
0000
0010
1000
0001
0000
,
0011
0000
0101
0000
0001
0100
0010
0000
,
0110
0000
1010
0000
0010
1000
0100
0000
,
1100
0000
0101
0000
0100
0001
1000
0000
,
0011
0000
1010
0000
1000
0001
0010
0000
,
2200
0000
0300
3002
,
0023
0000
0000
0032
0000
0000
0003
0000
,
0220
0000
0300
2030
,
3020
0000
0000
0230
0000
0000
0310
0000
,
1010
0000
0000
1001
0000
0000
0011
0000
0000
0000
0000
0000
0000
0000
0000
0000
,
0110
0000
0000
1010
0000
0000
0101
0000
0000
0000
0000
0000
0000
0000
0000
0000
,
1100
0000
0000
1010
0000
0000
1001
0000
0000
0000
0000
0000
0000
0000
0000
0000
,
0002
0000
0000
0000
2003
0000
0000
0010
0000
0000
3100
0000
0000
0000
0000
0000
,
1100
0000
0000
1010
0000
0000
0101
0000
0000
0000
0000
0000
0000
0000
0000
0000
,
0011
0000
0000
1001
0000
0000
0110
0000
0000
0000
0000
0000
0000
0000
0000
0000
,
1100
0000
0000
0110
0000
0000
0011
0000
0000
0000
0000
0000
0000
0000
0000
0000
,
0020
0000
0000
0000
2030
0000
0000
3002
0000
0000
0203
0000
0000
0300
0000
0000
,
0010
0100
1000
0001
0100
0010
1000
0000
,
0001
0010
0100
1000
0010
0100
0001
0000
,
1000
0100
1000
0001
1000
0010
1000
0001
,
0100
0001
0010
0001
0100
0010
1000
0000
,
1000
0001
0000
1000
0001
0000
1000
0001
0000
1000
0001
0000
0000
0000
0000
0000
;

//---------------dance-single - ----------------
#NOTES:
     dance-single:
     :
     Easy:
     6:
     0.290919,0.385029,0.266066,0.327466,0.061400,199.000000,173.000000,26.000000,32.000000,0.000000,0.000000,0.290919,0.385029,0.266066,0.327466,0.061400,199.000000,173.000000,26.000000,32.000000,0.000000,0.000000:
0000
0000
0000
0000
,
0000
0000
0000
0000
,
0000
0000
0000
0000
,
0001
0100
1000
0100
,
0001
0100
1000
1001
,
0010
1000
0100
1000
,
0010
1000
0100
1001
,
1000
0001
0010
0001
,
1000
0001
0010
1001
,
0220
0000
0300
2030
,
0002
0000
3000
0200
0000
0000
0303
0000
,
2002
0000
0003
3020
,
0230
0000
0000
0302
0000
0000
2003
0000
,
3001
0001
0000
0000
0000
1000
0100
0000
,
0020
1000
0130
0000
,
0010
0010
0000
0000
0000
1000
0001
0000
,
0220
0000
0000
0300
,
1030
1000
0000
0000
0000
0010
0100
0000
,
0002
0100
2000
3003
,
1001
0000
0110
0000
,
2000
3200
0320
0032
,
1003
0000
0000
1000
0000
0000
1000
0000
0000
0000
0000
0000
0000
0000
0000
0000
,
0010
0000
0000
0010
0000
0000
0010
0000
0000
0000
0000
0000
0000
0000
0000
0000
,
0001
0000
0000
0001
0000
0000
0001
0000
0000
0000
0000
0000
0000
0000
0000
0000
,
1000
0001
1001
0000
,
1000
0000
0000
1000
0000
0000
1000
0000
0000
0000
0000
0000
0000
0000
0000
0000
,
0100
0000
0000
0100
0000
0000
0100
0000
0000
0000
0000
0000
0000
0000
0000
0000
,
0001
0000
0000
0001
0000
0000
0001
0000
0000
0000
0000
0000
0000
0000
0000
0000
,
0100
0010
0110
0000
,
0010
1000
0001
0101
,
0001
0100
1000
1010
,
0010
0100
0001
0011
,
1000
0100
0010
1001
,
0001
1000
1100
0101
,
0010
0100
0110
1001
,
1000
0100
1010
0101
,
0001
0010
0011
1010
,
2002
0000
3000
0023
,
0032
0000
0000
0200
0000
0000
0303
0000
,
0220
0000
0300
2030
,
3002
0000
0000
2003
0000
0000
3200
0000
,
0310
0000
0000
0010
0000
0000
0010
0000
0000
0000
0000
0000
0000
0000
0000
0000
,
0001
0000
0000
0001
0000
0000
0001
0000
0000
0000
0000
0000
0000
0000
0000
0000
,
0100
0000
0000
0100
0000
0000
0100
0000
0000
0000
0000
0000
0000
0000
0000
0000
,
0010
1000
0101
0000
,
0010
0000
0000
0010
0000
0000
0010
0000
0000
0000
0000
0000
0000
0000
0000
0000
,
1000
0000
0000
1000
0000
0000
1000
0000
0000
0000
0000
0000
0000
0000
0000
0000
,
0100
0000
0000
0100
0000
0000
0100
0000
0000
0000
0000
0000
0000
0000
0000
0000
,
0001
0100
1010
0000
,
0010
0000
1000
0000
0001
1000
0100
0000
,
0010
0000
0001
0000
0100
0001
1000
0000
,
0001
1000
0100
0000
1000
0001
0100
0000
,
1000
0001
0010
0000
0001
1000
0010
0000
,
1000
0000
0001
0000
0100
0020
0030
0000
;

//---------------dance-single - ----------------
#NOTES:
     dance-single:
     :
     Beginner:
     2:
     0.140343,0.192514,0.061400,0.000000,0.000000,96.000000,90.000000,6.000000,0.000000,0.000000,0.000000,0.140343,0.192514,0.061400,0.000000,0.000000,96.000000,90.000000,6.000000,0.000000,0.000000,0.000000:
0000
0000
0000
0000
,
0000
0000
0000
0000
,
0000
0000
0000
0000
,
0010
0000
0010
0000
,
0010
0000
0000
0000
,
0100
0000
0100
0000
,
0100
0000
0000
0000
,
0001
0000
0001
0000
,
0001
0000
0000
0000
,
1001
0000
0000
0000
,
0000
0000
0000
0000
,
0110
0000
0000
0000
,
0000
0000
0000
0000
,
1000
0000
0000
0000
,
0001
0001
0001
0000
,
0100
0000
0000
0000
,
1001
0000
0000
0000
,
0010
0000
0000
0000
,
0100
0100
0100
0000
,
0001
0000
1000
0000
,
0010
0000
0100
0000
,
0001
0001
0000
0000
,
1000
1000
0000
0000
,
0001
0001
0000
0000
,
1000
1000
0000
0000
,
0010
0010
0000
0000
,
0100
0100
0000
0000
,
0010
0010
0000
0000
,
0100
0100
0000
0000
,
0001
0000
0100
0000
,
0010
0000
0010
0000
,
1000
0000
0001
0000
,
1000
0000
0100
0000
,
1000
0000
1000
0000
,
0010
0000
0100
0000
,
0001
0000
0010
0000
,
0001
0000
0100
0000
,
1001
0000
0000
0000
,
0000
0000
0000
0000
,
0110
0000
0000
0000
,
0000
0000
0000
0000
,
1000
1000
0000
0000
,
0100
0100
0000
0000
,
0010
0010
0000
0000
,
0001
0001
0000
0000
,
0100
0100
0000
0000
,
0010
0010
0000
0000
,
1000
1000
0000
0000
,
0001
0001
0000
0000
,
1000
1000
1000
0000
,
0001
0001
0001
0000
,
0100
0100
0100
0000
,
0010
0010
0010
0000
,
1000
1000
0000
1001
;

//---------------dance-double - ----------------
#NOTES:
     dance-double:
     :
     Easy:
     7:
     0.282147,0.384133,0.276300,0.163733,0.061400,193.000000,166.000000,27.000000,16.000000,0.000000,0.000000,0.282147,0.384133,0.276300,0.163733,0.061400,193.000000,166.000000,27.000000,16.000000,0.000000,0.000000:
00000000
00000000
00000000
00000000
,
00000000
00000000
00000000
00000000
,
00000000
00000000
00000000
00000000
,
00000001
00000000
00001000
00000000
,
00000010
00000000
00001000
00000100
,
00010000
00000000
00001000
00000000
,
00100000
00000000
00010000
01000000
,
00100000
00000000
10000000
00000000
,
01000000
00000000
00100000
00010000
,
00022000
00000000
00033000
00010000
,
00000010
00000000
00000000
00000100
00000000
00000000
00000001
00000000
,
00002002
00000000
00003003
00001000
,
00000100
00000000
00000000
00010000
00000000
00000000
00001000
00000000
,
00000010
00000100
00000000
00000000
00000000
00000001
00001000
00000000
,
00000100
00000100
00000200
00000300
,
00010000
00001000
00000000
00000000
00000000
01000000
00100000
00000000
,
20020000
00000000
00000000
30030000
,
10000000
00100000
00000000
00000000
00000000
01000000
00001000
00000000
,
00010000
00010000
00020000
00030000
,
00000100
00001000
00000000
00000000
00000001
00000100
00000000
00000000
,
00000002
00000023
00000230
00002300
,
00003010
00000000
00000000
00000010
00000000
00000000
00000010
00000000
00000000
00000000
00000000
00000000
00000000
00000000
00000000
00000000
,
00010000
00000000
00000000
00010000
00000000
00000000
00010000
00000000
00000000
00000000
00000000
00000000
00000000
00000000
00000000
00000000
,
00001000
00000000
00000000
00001000
00000000
00000000
00001000
00000000
00000000
00000000
00000000
00000000
00000000
00000000
00000000
00000000
,
01000000
00100000
01100000
10010000
,
10000000
00000000
00000000
10000000
00000000
00000000
10000000
00000000
00000000
00000000
00000000
00000000
00000000
00000000
00000000
00000000
,
00100000
00000000
00000000
00100000
00000000
00000000
00100000
00000000
00000000
00000000
00000000
00000000
00000000
00000000
00000000
00000000
,
01000000
00000000
00000000
01000000
00000000
00000000
01000000
00000000
00000000
00000000
00000000
00000000
00000000
00000000
00000000
00000000
,
00001000
00010000
00011000
00001100
,
00000010
00001000
00000001
00000101
,
00000001
00001000
00000100
00001100
,
00010000
00000100
00001000
00011000
,
01000000
00010000
10000000
10100000
,
00100000
01000000
00010000
00110000
,
00100000
00001000
00010000
00011000
,
00010000
00000010
00001000
00001001
,
00000100
00000001
00001000
00001100
,
00022000
00000000
00033000
00001000
,
01000000
00000000
00000000
00100000
00000000
00000000
10000000
00000000
,
20020000
00000000
30030000
10000000
,
00100000
00000000
00000000
01000000
00000000
00000000
00010000
00000000
,
00100000
00000000
00000000
00100000
00000000
00000000
00100000
00000000
00000000
00000000
00000000
00000000
00000000
00000000
00000000
00000000
,
00001000
00000000
00000000
00001000
00000000
00000000
00001000
00000000
00000000
00000000
00000000
00000000
00000000
00000000
00000000
00000000
,
00000100
00000000
00000000
00000100
00000000
00000000
00000100
00000000
00000000
00000000
00000000
00000000
00000000
00000000
00000000
00000000
,
00000001
00000010
00000011
00001100
,
00000001
00000000
00000000
00000001
00000000
00000000
00000001
00000000
00000000
00000000
00000000
00000000
00000000
00000000
00000000
00000000
,
00001000
00000000
00000000
00001000
00000000
00000000
00001000
00000000
00000000
00000000
00000000
00000000
00000000
00000000
00000000
00000000
,
00000100
00000000
00000000
00000100
00000000
00000000
00000100
00000000
00000000
00000000
00000000
00000000
00000000
00000000
00000000
00000000
,
00001000
00100000
01100000
10100000
,
00010000
00100000
00110000
01010000
,
01000000
00001000
00011000
00010100
,
00001000
00000010
00001000
00000001
,
00000010
00000100
00001100
00000101
,
00000001
00000000
00000100
00000000
00000010
00001000
00000000
00000000
;

//---------------dance-double - ----------------
#NOTES:
     dance-double:
     :
     Medium:
     9:
     0.412257,0.439009,0.511666,0.225133,0.061400,282.000000,232.000000,50.000000,22.000000,0.000000,0.000000,0.412257,0.439009,0.511666,0.225133,0.061400,282.000000,232.000000,50.000000,22.000000,0.000000,0.000000:
00000000
00000000
00000000
00000000
,
00000000
00000000
00000000
00000000
,
00000000
00000000
00000000
00000000
,
00010000
01000000
00000000
00000000
10000000
01000000
00000000
00000000
,
00010000
00100000
00000000
00000000
00001000
00010000
00000100
00000000
,
00001000
00000010
00000000
00000000
00000001
00000010
00000000
00000000
,
00001000
00000100
00000000
00000000
00010000
00000100
00001000
00000000
,
00000100
00010000
00000000
00000000
00001000
01000000
00000000
00000000
,
00100000
01000000
00000000
00000000
00010000
10000000
01000000
00000000
,
20020000
00000000
00030000
30200000
,
02300000
00000000
00000000
03002000
00000000
00000000
00013000
00000000
,
00022000
00000000
00030000
00023000
,
00030020
00000000
00000000
00002030
00000000
00000000
00003001
00000000
,
00001000
00000010
00000100
00000000
00000001
00000010
00000001
00000000
,
00001100
00000101
00001001
00000100
,
00000010
00001000
00000100
00000000
00010000
00001000
01000000
00000000
,
00020000
20000000
00000000
00000000
00000000
00000000
30030000
00000000
,
10000000
00010000
00100000
00000000
00001000
01000000
00010000
00000000
,
00110000
11000000
10010000
00100000
,
00001000
00010000
00000100
00000000
00001000
00000010
00000100
00000000
,
00000001
00000010
00000100
00000000
00001000
00000010
00000100
00000000
,
00000101
00000000
00000000
00000101
00000000
00000000
00000101
00000000
00000000
00000000
00000000
00000000
00000000
00000000
00000000
00000000
,
00011000
00000000
00000000
00011000
00000000
00000000
00011000
00000000
00000000
00000000
00000000
00000000
00000000
00000000
00000000
00000000
,
01010000
00000000
00000000
01010000
00000000
00000000
01010000
00000000
00000000
00000000
00000000
00000000
00000000
00000000
00000000
00000000
,
10000000
00100000
01000000
00010000
00100000
01000000
10000000
00000000
,
10100000
00000000
00000000
10100000
00000000
00000000
10100000
00000000
00000000
00000000
00000000
00000000
00000000
00000000
00000000
00000000
,
00011000
00000000
00000000
00011000
00000000
00000000
00011000
00000000
00000000
00000000
00000000
00000000
00000000
00000000
00000000
00000000
,
00001100
00000000
00000000
00001100
00000000
00000000
00001100
00000000
00000000
00000000
00000000
00000000
00000000
00000000
00000000
00000000
,
00000001
00000010
00000001
00000100
00000010
00001000
00000100
00000000
,
00011000
00000000
00010000
00000000
01000000
10000000
00100000
00000000
,
01100000
00000000
00010000
00000000
00100000
00001000
01000000
00000000
,
00110000
00000000
00010000
00000000
10000000
00100000
01000000
00000000
,
01010000
00000000
00100000
00000000
00001000
00010000
00000100
00000000
,
00001000
00000010
00000100
00000001
00000010
00000100
00001000
00000000
,
00000001
00000100
00000010
00001000
00000100
00010000
00001000
00000000
,
00010000
00000100
00001000
00000010
00001000
00000100
00010000
00000000
,
00001000
01000000
00010000
00100000
00010000
10000000
01000000
00000000
,
20020000
00000000
30000000
00230000
,
00302000
00000000
00000000
00023000
00000000
00000000
00030100
00000000
,
00022000
00000000
00003000
00032000
,
00023000
00000000
00000000
00030200
00000000
00000000
00001300
00000000
,
00001100
00000000
00000000
00000110
00000000
00000000
00000011
00000000
00000000
00000000
00000000
00000000
00000000
00000000
00000000
00000000
,
00001001
00000000
00000000
00001100
00000000
00000000
00010100
00000000
00000000
00000000
00000000
00000000
00000000
00000000
00000000
00000000
,
00011000
00000000
00000000
01001000
00000000
00000000
01100000
00000000
00000000
00000000
00000000
00000000
00000000
00000000
00000000
00000000
,
10000000
00010000
10000000
00100000
01000000
00001000
00010000
00000000
,
00011000
00000000
00000000
00101000
00000000
00000000
00110000
00000000
00000000
00000000
00000000
00000000
00000000
00000000
00000000
00000000
,
10010000
00000000
00000000
01001000
00000000
00000000
00011000
00000000
00000000
00000000
00000000
00000000
00000000
00000000
00000000
00000000
,
00010010
00000000
00000000
00001100
00000000
00000000
00001001
00000000
00000000
00000000
00000000
00000000
00000000
00000000
00000000
00000000
,
00000001
00000010
00000001
00000100
00000010
00001000
00000001
00000000
,
00001000
00000010
00010000
00000100
00010000
00000010
00000100
00000000
,
00000001
00001000
00000100
00010000
00001000
01000000
00100000
00000000
,
10000000
00010000
00100000
00000000
00010000
10000000
01000000
00000000
,
10000000
00100000
10000000
01000000
00100000
00001000
00010000
00000000
,
00001000
01000000
00100000
10000000
00010000
00100000
00000000
00000000
;

//---------------dance-double - ----------------
#NOTES:
     dance-double:
     :
     Challenge:
     14:
     0.711947,0.795705,0.675399,0.368400,0.649816,487.000000,421.000000,66.000000,36.000000,0.000000,0.000000,0.711947,0.795705,0.675399,0.368400,0.649816,487.000000,421.000000,66.000000,36.000000,0.000000,0.000000:
// measure 0
00000000
00000000
00000000
00000000
,  // measure 1
00000000
00000000
00000000
00000000
,  // measure 2
00000000
00000000
00000000
00000000
,  // measure 3
00100000
00000000
10000000
00000000
00000000
00000000
00010000
01000000
00010000
00000000
10000000
00000000
00000000
00000000
00100000
01000000
,  // measure 4
00100000
00000000
10000000
00000000
00000000
00000000
00010000
00100000
00010000
00000000
01000000
00000000
00001000
00000000
00010000
00000000
,  // measure 5
00000010
00000000
00001000
00000000
00000000
00000000
00000001
00000010
00000001
00000000
00000100
00000000
00000000
00000000
00000001
00001000
,  // measure 6
00000001
00000000
00000010
00000000
00000000
00000000
00000001
00000100
00000001
00000000
00001000
00000000
00000100
00000000
00010000
00000000
,  // measure 7
00001000
00000000
01000000
00000000
00000000
00000000
00001000
00100000
00001000
00000000
00010000
00000000
00000000
00000000
01000000
10000000
,  // measure 8
01000000
00000000
00100000
00000000
00000000
00000000
00010000
01000000
00010000
00000000
10000000
00000000
00100000
00000000
01000000
00000000
,  // measure 9
02100000
00100000
10000000
03010000
,  // measure 10
00210000
00000000
00301000
00102000
00000000
00013000
00011000
00000000
,  // measure 11
00001100
00000000
00000000
00000011
00000000
00000000
00000101
00000000
00000000
00001010
00000000
00000000
00001001
00000000
00000110
00000000
,  // measure 12
00001020
00000000
00010030
00010200
00000000
00001300
00001001
00000000
,  // measure 13
00001200
00000000
00020300
00000000
00031000
00000000
00000000
00000000
01000000
00100000
01000000
00100000
10000000
00100000
01000000
00000000
,  // measure 14
01010000
00010000
00110000
00100000
00101000
00001000
01000000
00000000
,  // measure 15
01200000
00000000
20300000
00000000
30010000
00000000
00000000
00000000
00100000
00010000
00100000
00010000
01000000
00010000
00100000
00000000
,  // measure 16
00002000
00023000
00000100
00000100
00000100
00000100
00030100
00000010
,  // measure 17
00000012
00000000
00000203
00000000
00000310
00000000
00000000
00000000
00001000
00000001
00001000
00000001
00000010
00000001
00001000
00000000
,  // measure 18
00001100
00000100
00010100
00010000
00011000
00001000
01000000
00000000
,  // measure 19
01010000
10000000
00100000
01000000
01100000
00100000
10000000
00010000
,  // measure 20
00110000
00110000
00101000
00101000
01001000
01001000
01100000
01100000
,  // measure 21
20000000
00000000
00000000
30200000
00000000
00000000
02300000
00000000
00000000
03001000
00100000
00000000
00001000
00000000
00010000
00000000
,  // measure 22
00000020
00000000
00000000
00002030
00000000
00000000
00003002
00000000
00000000
00000103
00000001
00000000
00001000
00000000
00000010
00000000
,  // measure 23
00020000
00000000
00000000
00030200
00000000
00000000
00002300
00000000
00000000
00003010
00000100
00000000
00000001
00000000
00001000
00000000
,  // measure 24
00000100
00001000
00000000
00001000
00000010
00000000
00000010
00010000
00000000
00010000
00001000
00000000
00011000
00000000
00000000
00000000
,  // measure 25
20000000
00000000
00000000
30020000
00000000
00000000
00230000
00000000
00000000
00310000
01000000
00000000
00100000
00000000
10000000
00000000
,  // measure 26
02000000
00000000
00000000
03200000
00000000
00000000
00302000
00000000
00000000
01003000
00001000
00000000
00010000
00000000
00000100
00000000
,  // measure 27
00002000
00000000
00000000
00003020
00000000
00000000
00020030
00000000
00000000
00030010
00001000
00000000
00000001
00000000
00000100
00000000
,  // measure 28
00000001
00000010
00000000
00000010
00000100
00000000
00000100
00010000
00000000
00010000
00001000
00000000
00011000
00000000
00000000
00000000
,  // measure 29
00001000
01000000
00000000
01000000
00100000
00000000
00100000
10000000
00000000
10000000
01000000
00000000
11000000
00000000
00000000
00000000
,  // measure 30
10000000
00010000
00000000
00010000
01000000
00000000
01000000
00100000
00000000
00100000
10000000
00000000
10010000
00000000
00000000
00000000
,  // measure 31
10000000
00100000
00000000
00100000
01000000
00000000
01000000
00001000
00000000
00001000
00100000
00000000
00110000
00000000
00000000
00000000
,  // measure 32
00010000
01000000
00000000
01000000
00001000
00000000
00001000
00100000
00000000
00100000
00001000
00000000
00011000
00000000
00000000
00000000
,  // measure 33
00000010
00000100
00000000
00000100
00000001
00000000
00000001
00001000
00000000
00001000
00000100
00000000
00001100
00000000
00000000
00000000
,  // measure 34
00001000
00000010
00000000
00000010
00010000
00000000
00010000
00000100
00000000
00000100
00001000
00000000
00001001
00000000
00000000
00000000
,  // measure 35
00000010
00000001
00000000
00000001
00001000
00000000
00001000
00000010
00000000
00000010
00010000
00000000
00010100
00000000
00000000
00000000
,  // measure 36
00000100
00001000
00000000
00001000
00000001
00000000
00000001
00000100
00000000
00000100
00000010
00000000
00000110
00000000
00000000
00000000
,  // measure 37
00012000
01000000
00010000
00103000
,  // measure 38
00120000
00000000
10030000
21000000
00000000
30100000
01100000
00000000
,  // measure 39
01010000
00000000
00000000
11000000
00000000
00000000
10010000
00000000
00000000
01001000
00000000
00000000
00011000
00000000
00101000
00000000
,  // measure 40
01002000
00000000
00013000
00021000
00000000
00030010
00001010
00000000
,  // measure 41
00000011
00000000
00000000
00001100
00000000
00000000
00001010
00000000
00000000
00000010
00000100
00000000
00000001
00000000
00001000
00000000
,  // measure 42
00001100
00000000
00000000
00010100
00000000
00000000
01001000
00000000
00000000
00010000
10000000
00000000
00100000
00000000
01000000
00000000
,  // measure 43
01010000
00000000
00000000
10010000
00000000
00000000
01100000
00000000
00000000
00100000
10000000
00000000
00010000
00000000
01000000
00000000
,  // measure 44
00001000
00010000
00000000
00010000
00000010
00000000
00000010
00000100
00000000
00000100
00000001
00000000
00000011
00000000
00000000
00000000
,  // measure 45
00001000
00000100
00000000
00000100
00010000
00000000
00010000
00000010
00000000
00000010
00000100
00000000
00000001
00000000
00001000
00000000
,  // measure 46
00000100
00010000
00000000
00010000
00001000
00000000
00001000
01000000
00000000
01000000
00100000
00000000
10000000
00000000
01000000
00000000
,  // measure 47
00100000
00001000
00000000
00001000
01000000
00000000
01000000
00010000
00000000
00010000
10000000
00000000
00100000
00000000
01000000
00000000
,  // measure 48
00010000
00100000
00000000
00100000
01000000
00000000
01000000
10000000
00000000
10000000
00100000
00000000
01100000
00000000
00000000
00000000
,  // measure 49
00010000
01000000
00100000
01000000
00010000
00000000
00100000
00001000
01000000
00001000
00100000
00000000
00001000
00010000
00001000
00010000
,  // measure 50
00000010
00000100
00000001
00000100
00000010
00000000
00001000
00000100
00010000
00000100
00001000
00000000
00000010
00000100
00000010
00000100
,  // measure 51
00000001
00000010
00000001
00000000
00001000
00000100
00001000
00000000
00000001
00000100
00000001
00000000
00001000
00000010
00001000
00000000
,  // measure 52
00000100
00001000
00000100
00001000
00000100
00010000
00001000
00010000
00000000
00001000
01000000
00100000
01000000
00010000
10000000
00000000
,  // measure 53
00010000
00100000
01000000
00100000
00010000
00000000
01000000
00001000
00010000
00001000
01000000
00000000
00000000
00000000
00000000
00000000
;
