#TITLE:AFRONOVA;
#SUBTITLE:;
#ARTIST:RE-VENGE;
#TITLETRANSLIT:;
#SUBTITLETRANSLIT:;
#ARTISTTRANSLIT:;
#GENRE:;
#CREDIT:;
#BANNER:AFRONOVA-bn.png;
#BACKGROUND:AFRONOVA-bg.png;
#LYRICSPATH:;
#CDTITLE:;
#MUSIC:AFRONOVA.ogg;
#OFFSET:0.000000;
#SAMPLESTART:30.000000;
#SAMPLELENGTH:20.000000;
#SELECTABLE:YES;
#DISPLAYBPM:200.000000;
#BPMS:0.000000=200.000000
;
#STOPS:
;
#BGCHANGES:;
#KEYSOUNDS:;
#ATTACKS:;

//---------------dance-single - ----------------
#NOTES:
     dance-single:
     :
     Beginner:
     5:
     0.173016,0.324444,0.011111,0.000000,0.000000,109.000000,108.000000,1.000000,0.000000,0.000000,0.000000,0.173016,0.324444,0.011111,0.000000,0.000000,109.000000,108.000000,1.000000,0.000000,0.000000,0.000000:
0000
0000
0000
0000
,
0000
0000
0000
0000
,
0000
0000
0000
0000
,
0000
0000
0000
0000
,
0000
0000
0000
0000
,
0000
0000
0000
0000
,
0000
0000
0000
0000
,
0000
0000
0000
0000
,
0000
0000
0000
0000
,
1000
1000
0000
0000
,
0001
0001
0000
0000
,
0100
0100
0000
0000
,
0100
0100
0000
0000
,
1000
1000
0000
0000
,
0001
0001
0000
0000
,
0010
0010
0000
0000
,
0010
0010
0000
0000
,
0001
0000
0000
0000
,
0001
0000
0000
0000
,
1000
0000
0000
0000
,
1000
0000
0000
0000
,
0010
0000
0000
0000
,
0010
0000
0000
0000
,
0100
0000
0000
0000
,
0100
0000
0000
0000
,
0001
0001
0001
0001
,
0001
0001
0001
0000
,
1000
1000
1000
1000
,
1000
1000
1000
0000
,
0010
0010
0010
0010
,
0010
0010
0010
0000
,
0100
0100
0100
0100
,
0100
0100
0100
0000
,
0001
0000
0000
0000
,
0001
0000
0000
0000
,
1000
0000
0000
0000
,
1000
0000
0000
0000
,
0010
0000
0000
0000
,
0010
0000
0000
0000
,
0001
0000
0000
0000
,
0001
0000
0000
0000
,
0100
0100
0000
0000
,
0010
0010
0000
0000
,
0001
0001
0000
0000
,
1000
1000
0000
0000
,
0001
0001
0000
0000
,
1000
1000
0000
0000
,
0000
0000
0000
0000
,
0000
0000
0000
0000
,
0000
1000
1000
0000
,
0000
0001
0001
0000
,
0000
0100
0100
0000
,
0000
0001
0001
0000
,
0000
0010
0010
0000
,
0000
0100
0100
0000
,
0000
0000
1000
0000
,
0000
0000
0001
0000
,
0000
0000
1000
0000
,
0000
0000
0001
0000
,
0000
0000
1000
0000
,
0000
0000
0001
0000
,
0000
0000
1000
0000
,
0000
0000
0001
0000
,
0000
0000
0010
0010
,
0000
0000
0001
0001
,
0000
0000
0010
0010
,
0000
0000
1000
1000
,
0000
0000
0010
0010
,
0000
0000
1000
1000
,
0000
0000
0010
0000
,
0000
0000
0001
0000
,
0000
0000
0100
0000
,
0000
0000
0000
0000
,
1001
0000
0000
0000
,
0000
0000
0000
0000
;

//---------------dance-single - ----------------
#NOTES:
     dance-single:
     :
     Easy:
     7:
     0.409524,0.567778,0.488889,0.000000,0.022222,258.000000,214.000000,44.000000,0.000000,0.000000,0.000000,0.409524,0.567778,0.488889,0.000000,0.022222,258.000000,214.000000,44.000000,0.000000,0.000000,0.000000:
0000
0000
0000
0000
,
0000
0000
0000
0000
,
0000
0000
0000
0000
,
0000
0000
0000
0000
,
0000
0000
0000
0000
,
0000
0000
0000
0000
,
0000
0000
0000
0000
,
1000
0000
0001
0000
,
1000
0000
0001
0000
,
0010
0001
1001
1000
,
0100
1000
1001
0001
,
0010
1000
1001
0001
,
0100
0001
1001
1000
,
1100
1000
0100
1100
,
0110
0010
0100
0110
,
0011
0001
0010
0011
,
1001
0001
1000
1001
,
0000
1000
0000
1000
,
0000
0001
0000
1000
,
0000
0010
0000
0010
,
0000
0100
0000
0010
,
0000
0001
0000
0001
,
0000
1000
0000
0001
,
0000
0100
0000
0100
,
0000
0010
0000
0100
,
1001
1000
1001
0001
,
0110
1001
0110
0000
,
1001
1000
1001
0001
,
0110
1001
0110
0000
,
1001
1000
1001
0001
,
0110
1001
0110
0000
,
1001
1000
1001
0001
,
0110
1001
0110
0000
,
1000
0000
1000
0000
,
0001
0000
0001
0000
,
1000
0100
0001
0100
,
1000
0100
0001
0100
,
1000
0000
1000
0000
,
0001
0000
0001
0000
,
1000
0010
0001
0010
,
1000
0010
0001
0010
,
1000
0000
1000
0000
,
0001
1000
0100
0100
,
0001
0000
0001
0000
,
1000
0001
0100
0100
,
1000
0000
1000
0000
,
0001
1000
0010
0010
,
0000
1000
0000
0001
,
0000
1000
0000
0000
,
0000
1000
0001
1000
,
1000
0001
1000
0001
,
0001
1000
0001
0010
,
0010
0001
1000
0010
,
0010
1000
0100
0001
,
0100
0001
0100
1000
,
0100
0100
1001
0010
,
0001
0100
1000
1000
,
0001
1000
1001
0010
,
1000
0100
0001
0001
,
1000
0001
1010
0100
,
0110
0110
0001
0100
,
1000
0100
0101
0010
,
0110
0110
1000
0010
,
0001
0010
1000
0000
,
1000
0000
0001
0000
,
0001
0000
1000
0001
,
0101
0101
0001
1000
,
1100
1100
1000
0000
,
1000
0000
0001
0000
,
0001
0000
1000
0001
,
0010
0001
1000
0010
,
1000
0001
0100
0000
,
1000
0100
0001
0100
1000
0100
,
0001
0000
0000
0000
,
0000
0000
0000
0000
;

//---------------dance-single - ----------------
#NOTES:
     dance-single:
     :
     Medium:
     9:
     0.477778,0.648889,0.633333,0.000000,0.038889,301.000000,244.000000,57.000000,0.000000,0.000000,0.000000,0.477778,0.648889,0.633333,0.000000,0.038889,301.000000,244.000000,57.000000,0.000000,0.000000,0.000000:
0000
0000
0000
0000
,
0000
0000
0000
0000
,
0000
0000
0000
0000
,
0000
0000
0000
0000
,
0000
0000
0000
0000
,
0000
0000
0000
0000
,
0000
0000
0000
0000
,
1000
0000
1000
0000
,
0001
0000
0001
0000
,
0010
0010
1100
0101
,
1001
0100
1000
0100
,
0001
0001
1100
0101
,
1001
0010
0010
0100
,
0001
1000
1100
0101
,
1001
0010
0001
0100
,
0010
1000
1100
0101
,
1001
0100
0100
0100
,
1001
0001
0000
0100
,
0000
1000
0000
0100
,
1100
0100
0000
0001
,
0000
0100
0000
1000
,
1001
1000
0000
0100
,
0000
0001
0000
0100
,
0101
0100
0000
1000
,
0000
0100
0000
0001
,
0110
1001
1100
1001
,
0101
1001
0110
0000
,
0110
1001
1100
1001
,
0101
1001
0110
0000
,
0110
1001
1100
1001
,
0101
1001
0110
0000
,
0110
1001
1100
1001
,
0101
1001
0110
0000
,
0010
1000
0100
1000
,
0001
0010
0001
0100
,
1000
0100
0001
0100
,
0010
1000
0010
0001
,
0010
1000
0100
1000
,
0001
0010
0001
0100
,
1000
0100
0001
0100
,
0010
1000
0010
0001
,
0110
1000
0100
0001
,
1000
0100
0100
0001
,
1100
0001
0010
1000
,
0010
0001
0100
1000
,
1010
0001
0010
0001
,
1000
0000
0001
0000
,
0000
1000
0000
0001
,
0000
0000
0000
1000
0000
0100
0000
0001
0000
0100
0000
1000
,
0000
0000
0010
0000
0001
0000
1000
0100
,
0001
0000
0001
0100
1000
0000
1000
0100
,
0001
0000
1000
0000
0100
0000
0010
0001
,
0100
0000
0100
0001
0010
0000
0010
0001
,
0100
0000
0010
0000
1000
0000
0001
1000
,
0100
0000
1000
0001
0100
0000
0001
1000
,
0100
0100
0010
0001
,
0100
1000
1010
0001
,
0001
0100
0010
1000
,
0100
0001
0011
1000
,
1000
0100
1001
0001
,
1001
1100
1001
1000
,
1001
0101
0010
0100
,
0110
0100
1000
0001
,
1001
0100
1000
0000
,
0100
0000
0001
0000
,
0010
1000
0100
0001
,
0010
1000
0100
0001
,
0100
0000
0001
0000
,
0100
0000
1000
0000
,
0010
0001
0100
1000
,
0010
0001
0100
1000
,
0100
0001
0100
0000
,
0001
0100
1000
0100
0001
0100
,
1000
0000
0000
0000
,
0000
0000
0000
0000
;

//---------------dance-single - ----------------
#NOTES:
     dance-single:
     :
     Hard:
     13:
     0.682540,0.770556,0.666667,0.000000,0.038889,430.000000,370.000000,60.000000,0.000000,0.000000,0.000000,0.682540,0.770556,0.666667,0.000000,0.038889,430.000000,370.000000,60.000000,0.000000,0.000000,0.000000:
0000
0000
0000
0000
,
0000
0000
0000
0000
,
0000
0000
0000
0000
,
0000
0000
0000
0000
,
0000
0000
0000
0000
,
0000
0000
0000
0000
,
0000
0000
0000
0000
,
1000
1000
0001
0001
,
1000
1000
0001
0001
,
0010
0000
0100
0000
0100
0001
0001
0000
,
0010
0000
0100
0000
0100
1000
1000
0000
,
0100
0000
0010
0000
0001
0010
0001
0000
,
0100
0000
0010
0000
1000
0010
1000
0000
,
0001
0000
1000
0000
0100
0001
1000
0000
,
1000
0000
0001
0000
0100
1000
0001
0000
,
0010
0000
1000
0000
0010
1000
0010
0000
,
0010
0000
0001
0000
0010
0001
0010
0000
,
1000
0100
1000
0100
0001
0100
0001
0100
,
1000
0010
1000
0010
0001
0010
0001
0010
,
1000
0010
0001
1000
0100
0001
1000
0010
,
0001
1000
0100
0001
1000
0010
0001
0000
,
1000
0100
1000
0100
0001
0100
0001
0100
,
1000
0010
1000
0010
0001
0010
0001
0010
,
1000
0010
0001
1000
0100
0001
1000
0010
,
0001
1000
0100
0001
1000
0010
0001
0000
,
0110
1001
0110
1001
,
1100
0101
1001
0000
,
0110
1001
0110
1001
,
1100
0101
1001
0000
,
0110
1001
0110
1001
,
1100
0101
1001
0000
,
0110
1001
0110
1001
,
1100
0101
1001
0000
,
0010
1000
0010
0000
0100
0001
0100
0000
,
0010
1000
0010
1000
0001
0100
0001
0000
,
0100
0001
0100
0000
0010
1000
0010
0000
,
0100
0001
0100
0001
1000
0010
1000
0000
,
1000
0010
0100
0000
0001
0100
0010
0000
,
1000
0010
0100
0001
0100
0010
1000
0000
,
0001
0010
0100
0000
1000
0100
0010
0000
,
0001
0010
0100
1000
0100
0010
0001
0000
,
1001
0000
0010
0000
0001
0100
1000
0000
,
1010
0000
0001
0000
0010
1000
0001
0000
,
0110
0000
0010
0000
1000
0001
0100
0000
,
1100
0000
0010
0000
0001
0010
1000
0000
,
0011
0000
0100
0000
0001
0010
0100
0000
,
0101
0000
0010
0000
0001
0010
1000
0000
,
0000
1000
0000
0001
,
0000
0000
0000
0010
0000
1000
0000
0001
0000
1000
0000
0100
,
0000
0000
0110
0000
1001
0000
0100
0010
,
0100
0010
1000
0010
1000
0000
0001
0010
,
0001
0000
0010
0001
0010
0100
0010
1000
,
0010
0000
0001
0100
0001
0000
1000
0100
,
0010
0000
0010
0001
0010
0000
0010
1000
,
0010
0000
0010
0001
0010
0100
0010
1000
,
0010
0100
0010
1001
,
1100
0000
0001
0000
0010
0001
0010
0100
,
0010
1000
0010
0000
0100
0000
0110
0000
,
0101
0000
1000
0000
0010
0001
0010
0100
,
0010
1000
0010
0000
1000
0000
0011
0000
,
0110
0000
0001
0000
0010
0001
0010
0100
,
0010
1000
0010
0000
0001
0000
1010
0000
,
1100
0000
0001
0000
0010
0001
0010
0100
,
0010
1000
0010
0000
0010
1000
0001
0010
,
0100
1000
0001
0100
0010
1000
0100
0010
,
0001
0100
0010
0000
1001
0000
1100
0000
,
1001
0000
0101
0000
1000
0100
1000
0010
,
0001
1000
0100
0000
0010
0001
1000
0010
,
0100
0001
1000
0100
0010
0001
0100
0010
,
1000
0100
0010
0000
1001
0000
0101
0000
,
1001
0000
1100
0000
0001
0100
0001
0010
,
1000
0001
0100
0000
1001
0000
0000
0000
,
1001
0110
1100
0101
0011
1010
,
0110
0000
0000
0000
,
0000
0000
0000
0000
;

//---------------dance-double - ----------------
#NOTES:
     dance-double:
     :
     Easy:
     8:
     0.431746,0.648889,0.433333,0.000000,0.038889,272.000000,233.000000,39.000000,0.000000,0.000000,0.000000,0.431746,0.648889,0.433333,0.000000,0.038889,272.000000,233.000000,39.000000,0.000000,0.000000,0.000000:
00000000
00000000
00000000
00000000
,
00000000
00000000
00000000
00000000
,
00000000
00000000
00000000
00000000
,
00000000
00000000
00000000
00000000
,
00000000
00000000
00000000
00000000
,
00000000
00000000
00000000
00000000
,
00000000
00000000
00000000
00000000
,
00000100
00000000
00000100
00000000
,
00010000
00000000
00010000
00000000
,
01000000
00010000
00010000
00010000
,
10000000
01000000
00010000
00010000
,
00001000
00000100
00000001
00000001
,
00000100
00001000
00001000
00001000
,
00010000
00010000
01000000
10000000
,
00010000
00001000
00000100
00000001
,
00000100
00001000
00000100
00001000
,
00010000
01000000
01000000
01000000
,
00000000
10000000
00000000
10000000
,
00000000
00010000
00000000
00010000
,
00000000
01000000
00000000
01000000
,
00000000
10000000
00000000
01000000
,
00000000
00010000
00000000
00010000
,
00000000
10000000
00000000
10000000
,
00000000
01000000
00000000
01000000
,
00000000
10000000
00000000
00010000
,
01100000
10010000
10010000
01100000
,
10010000
01100000
01100000
00000000
,
10000000
10000000
00010000
00010000
,
10010000
00011000
00001001
00000000
,
00000110
00001001
00001001
00000110
,
00001001
00000110
00000110
00000000
,
00000001
00000001
00001000
00001000
,
00001001
00011000
10010000
00000000
,
00100000
00100000
10000000
10000000
,
01000000
01000000
00010000
00010000
,
00001000
00001000
00000010
00000010
,
00000001
00000001
00000100
00000100
,
00001000
00001000
00010000
00010000
,
00100000
00100000
10000000
10000000
,
01000000
01000000
00010000
00010000
,
00100000
00100000
10000000
10000000
,
10010000
10000000
10010000
00010000
,
10000000
01000000
00010000
00001000
,
00011000
00001000
00011000
00010000
,
00001000
00000100
00000001
00001000
,
00001001
00000001
00001001
00001000
,
00000010
00001000
00000100
00000001
,
00000000
00000000
00001000
00000100
00000000
00000000
00000001
00000100
,
00000000
00000000
00000000
00001000
00000000
00000100
00000000
00000001
00000000
00000100
00000000
00001000
,
00000000
00000010
00000001
00000100
,
00001001
00000100
00001000
00000010
,
00001001
00000001
00000110
00001000
,
00010000
01100000
01100000
10000000
,
00010000
00100000
00010000
01000000
,
10010000
01000000
10000000
00100000
,
10010000
01100000
00000000
10000000
,
00000000
00010000
01000000
00010000
,
00001000
00000100
00000000
00000001
,
00000000
00001000
00000100
00001000
,
00010000
01000000
00000000
10000000
,
00000000
00010000
01000000
00010000
,
00001000
00000100
00000000
00000001
,
00000000
00001000
00000100
00001000
,
00010000
01000000
10000000
01000000
,
00010000
01000000
10000000
10010000
,
01000000
10000000
00100000
00010000
,
00100000
00010000
00001000
00000100
,
00000110
00000000
00000001
00000100
,
00001000
00000100
00000001
00001001
,
00000100
00000001
00000010
00001000
,
00000010
00001000
00010000
01000000
,
10000000
10010000
01100000
00000000
,
00010000
01000000
10000000
01000000
00010000
00001000
,
00000100
00000000
00000000
00000000
,
00000000
00000000
00000000
00000000
;

//---------------dance-double - ----------------
#NOTES:
     dance-double:
     :
     Medium:
     9:
     0.476190,0.608333,0.611111,0.000000,0.038889,300.000000,245.000000,55.000000,0.000000,0.000000,0.000000,0.476190,0.608333,0.611111,0.000000,0.038889,300.000000,245.000000,55.000000,0.000000,0.000000,0.000000:
00000000
00000000
00000000
00000000
,
00000000
00000000
00000000
00000000
,
00000000
00000000
00000000
00000000
,
00000000
00000000
00000000
00000000
,
00000000
00000000
00000000
00000000
,
00000000
00000000
00000000
00000000
,
00000000
00000000
00000000
00000000
,
00000100
00000000
00000100
00000000
,
00010000
00000000
00010000
00000000
,
01001000
01010000
10000000
01000000
,
10010000
01000000
01000000
01000000
,
10100000
01000000
00010000
00001000
,
00000110
00000001
00000001
00000001
,
00001010
00000101
00000100
00000010
,
00000110
00001000
00001000
00001000
,
00000011
00000110
00001000
00010000
,
00011000
00010000
00010000
00010000
,
00000000
01000000
00000000
01000000
,
00000000
00010000
00000000
00010000
,
00000000
00001000
00000000
00001000
,
00000000
00000100
00000000
00000100
,
00000000
00000001
00000000
00000001
,
00000000
00000100
00000000
00000100
,
00000000
00001000
00000000
00001000
,
00000000
00000010
00000000
00000010
,
00000001
00001000
00000000
00000000
00000001
00000000
00001000
00000000
,
00001100
00000101
00001001
00000000
,
00000010
00000100
00000000
00000000
00001000
00000000
00010000
00000000
,
01100000
10010000
01100000
00000000
,
10000000
00010000
00000000
00000000
10000000
00000000
00010000
00000000
,
01010000
11000000
10010000
00000000
,
00100000
01000000
00000000
00000000
00010000
00000000
00001000
00000000
,
00000110
00001001
00000110
00000000
,
00001000
00000100
00001000
00000000
,
00000001
00000010
00000001
00000000
,
00000100
00001000
00000010
00000001
,
00000100
00001000
00010000
01000000
,
00010000
01000000
00010000
00000000
,
10000000
00100000
10000000
00000000
,
01000000
00010000
00100000
10000000
,
01000000
00010000
00001000
00000100
,
00001001
00000001
00000001
00000001
,
00011000
01001000
00011000
00010000
,
10010000
10000000
10000000
10000000
,
00011000
00010100
00011000
00001000
,
01001000
00010000
00010000
00010000
,
00010100
00011000
01001000
00010000
,
00000000
00000000
01000000
00010000
00000000
00000000
01000000
10000000
,
00000000
00000000
00000000
00100000
00000000
10000000
00000000
00010000
00000000
10000000
00000000
01000000
,
00000000
10010000
00100000
00010000
,
01000000
00010000
00100000
10010000
,
01100000
00010000
00001000
00001000
,
00000100
00000110
00000110
00000101
,
00000110
00001010
00001010
00000001
,
00000010
00000100
00001000
00000010
,
00001000
00001001
00000101
00001000
,
00000100
00000000
00000001
00000000
00000100
00000001
00001000
00000000
,
00000100
00000001
00000011
00001000
,
00000010
00000000
00000001
00000000
00000001
00000100
00001000
00000000
,
00011000
01100000
11000000
00010000
,
01000000
00000000
10000000
00000000
01000000
10000000
00010000
00000000
,
01000000
10000000
10100000
00010000
,
00100000
00000000
10000000
00000000
10000000
01000000
00010000
00000000
,
00011000
00000110
00000011
00001000
,
00001000
00000000
00000100
00000000
00000001
00000010
00000100
00000000
,
00001000
00000010
00001000
00001000
,
00000001
00000000
00000100
00000000
00000100
00001000
00010000
00000000
,
01000000
00000000
10100000
00010000
,
00010000
00000000
01000000
00000000
10000000
00100000
01000000
00000000
,
00010000
00100000
00010000
00010000
,
10000000
00000000
01000000
00000000
01000000
00010000
00001000
00000000
,
00000100
00000001
00000001
00000000
,
00000010
00001000
00000001
00000100
00001000
00010000
,
01000000
00000000
00000000
00000000
,
00000000
00000000
00000000
00000000
;

//---------------dance-double - ----------------
#NOTES:
     dance-double:
     :
     Hard:
     13:
     0.642857,0.689444,0.533333,0.000000,0.038889,405.000000,357.000000,48.000000,0.000000,0.000000,0.000000,0.642857,0.689444,0.533333,0.000000,0.038889,405.000000,357.000000,48.000000,0.000000,0.000000,0.000000:
00000000
00000000
00000000
00000000
,
00000000
00000000
00000000
00000000
,
00000000
00000000
00000000
00000000
,
00000000
00000000
00000000
00000000
,
00000000
00000000
00000000
00000000
,
00000000
00000000
00000000
00000000
,
00000000
00000000
00000000
00000000
,
00000100
00000100
00000100
00000000
00010000
00010000
00010000
00000000
,
01000000
01000000
01000000
00000000
00001000
00001000
00001000
00000000
,
01001000
00011000
00010100
00011000
,
01001000
00011000
10010000
01100000
,
10000000
01000000
00100000
00010000
10000000
00000000
00100000
00000000
,
11000000
00000000
00010000
00001000
00000100
00001000
00010000
00000000
,
00010100
00011000
01001000
00011000
,
00010100
00011000
00001001
00000110
,
00000001
00000100
00000010
00001000
00000001
00000000
00000010
00000000
,
00000101
00000000
00001000
00010000
01000000
10000000
10000000
00000000
,
10000000
01000000
10000000
01000000
00010000
01000000
00010000
01000000
,
00010000
00001000
00010000
00001000
00000100
00001000
00000100
00001000
,
00000100
00000001
00000100
00000001
00000010
00000001
00000010
00000001
,
00000010
00001000
00000010
00001000
00010000
00001000
00010000
00001000
,
00010000
00100000
00010000
00100000
10000000
00100000
10000000
00100000
,
10000000
01000000
10000000
01000000
00010000
01000000
00010000
01000000
,
00010000
00001000
00010000
00001000
00000100
00001000
00000100
00001000
,
00000100
00000001
00000100
00000001
00000010
00000001
00000010
00000000
,
00001000
00000001
00000000
00000100
00001000
00000000
00010000
00000000
,
01100000
10010000
01100000
00000000
,
00010000
10000000
00000000
01000000
00010000
00000000
00001000
00000000
,
00000110
00001001
00000110
00000000
,
00001000
00000001
00000000
00000100
00001000
00000000
00010000
00000000
,
01100000
10010000
01100000
00000000
,
00010000
10000000
00000000
01000000
00010000
00000000
00001000
00000000
,
00000110
00001001
00000110
00000000
,
00000001
00000100
00001000
00000000
00001000
00000100
00000001
00000000
,
00000001
00000100
00001000
00000100
00001000
00010000
01000000
00000000
,
10000000
01000000
00010000
00000000
00010000
01000000
10000000
00000000
,
10000000
01000000
00010000
01000000
00010000
00001000
00000100
00000000
,
00000001
00000010
00001000
00000000
00001000
00000010
00000001
00000000
,
00000001
00000010
00001000
00000010
00001000
00010000
00100000
00000000
,
10000000
00100000
00010000
00000000
00010000
00100000
10000000
00000000
,
10000000
00100000
00010000
00100000
00010000
00001000
00000010
00000000
,
00000001
00000000
00000100
00000000
00000001
00000100
00000001
00000000
,
00000100
00000000
00001000
00000000
00000100
00001000
00000100
00000000
,
00001000
00000000
00010000
00000000
00001000
00010000
00001000
00000000
,
00010000
00000000
00001000
00000000
00010000
00001000
00010000
00000000
,
01000000
00000000
00010000
00000000
01000000
00010000
01000000
00000000
,
10000000
00000000
01000000
00000000
10000000
01000000
10000000
00000000
,
00000000
00000000
00010000
01000000
00000000
00000000
00001000
00000100
,
00000000
00000000
00000000
00010000
00000000
01000000
00000000
00010000
00000000
00001000
00000000
00000100
,
00000000
00000000
00000110
00000000
00000101
00000000
00000010
00001000
,
00000001
00000100
00001000
00010000
01000000
00000000
00001000
00000100
,
00000001
00000000
00000010
00001000
00010000
01000000
00010000
01000000
,
10000000
00000000
10000000
00010000
01000000
00000000
00010000
10000000
,
01000000
00000000
10000000
01000000
10000000
00000000
00010000
01000000
,
00010000
00000000
00010000
10000000
01000000
00100000
10000000
00100000
,
01000000
10000000
00010000
00000000
00100000
00000000
00010000
00000000
,
00001000
00000000
00000100
00000000
00000010
00001000
00000100
00000000
,
00000001
00000100
00000010
00001000
,
00010000
00000000
01000000
00000000
00100000
00010000
01000000
00000000
,
10000000
01000000
00010000
00001000
,
00000100
00000000
00000001
00000000
00001000
00000010
00000001
00000000
,
00001000
00000001
00001000
00010000
,
01000000
00000000
10000000
00000000
00010000
00100000
10000000
00000000
,
00010000
10000000
01010000
10010000
,
11000000
00000000
10010000
00000000
00100000
00010000
00001000
00000000
,
00000110
00001000
00000110
00000001
,
00000100
00000000
00001000
00000000
00010000
00001000
00000100
00000000
,
00000110
00000000
00001100
00001001
,
00000101
00000000
00001001
00000000
00000010
00001000
00010000
00000000
,
01100000
00010000
01100000
10000000
,
01000000
00000000
00010000
00000000
00001000
00010000
01000000
00000000
,
01100000
10010000
01100000
00000000
,
00010000
00001000
00010000
01000000
00010000
00001000
,
00000100
00000000
00000000
00000000
,
00000000
00000000
00000000
00000000
;

//---------------dance-couple - ----------------
#NOTES:
     dance-couple:
     :
     Medium:
     9:
     0.330159,0.689444,0.233333,0.000000,0.033333,208.000000,187.000000,21.000000,0.000000,0.000000,0.000000,0.330159,0.689444,0.233333,0.000000,0.033333,208.000000,187.000000,21.000000,0.000000,0.000000,0.000000:
00000000
00000000
00000000
00000000
,
00000000
00000000
00000000
00000000
,
00000000
00000000
00000000
00000000
,
00000000
00000000
00000000
00000000
,
00000000
00000000
00000000
00000000
,
00000000
00000000
00000000
00000000
,
00000000
00000000
00000000
00000000
,
10001000
10001000
00010001
00010001
,
10001000
10001000
00010001
00010001
,
00100000
00000000
01000000
00000000
01000000
00010000
00010000
00000000
,
00100000
00000000
01000000
00000000
01000000
10000000
10000000
00000000
,
00000010
00000000
00000100
00000000
00000100
00000001
00000001
00000000
,
00000010
00000000
00000100
00000000
00000100
00001000
00001000
00000000
,
00010000
00000000
10000000
00000000
01000000
00010000
10000000
00000000
,
10000000
00000000
00010000
00000000
01000000
10000000
00010000
00000000
,
00000001
00000000
00001000
00000000
00000100
00000001
00001000
00000000
,
00001000
00000000
00000001
00000000
00000100
00001000
00000001
00000000
,
10000000
01000000
10000000
01000000
00010000
01000000
00010000
01000000
,
10000000
00100000
10000000
00100000
00010000
00100000
00010000
00100000
,
10000000
00100000
00010000
10000000
01000000
00010000
10000000
00100000
,
00010000
10000000
01000000
00010000
10000000
00100000
00010000
00000000
,
00001000
00000100
00001000
00000100
00000001
00000100
00000001
00000100
,
00001000
00000010
00001000
00000010
00000001
00000010
00000001
00000010
,
00001000
00000010
00000001
00001000
00000100
00000001
00001000
00000010
,
00000001
00001000
00000100
00000001
00001000
00000010
00000001
00000000
,
00100000
10000000
00000000
00010000
10000000
00100000
01000000
00000000
,
00000000
00010000
01000000
00100000
10010000
00000000
00000000
00000000
,
00000010
00001000
00000000
00000001
00001000
00000010
00000100
00000000
,
00000000
00000001
00000100
00000010
00001001
00000000
00000000
00000000
,
00100000
01000000
00000000
00010000
01000000
00100000
01000000
00000000
,
00000000
00010000
01000000
00100000
10010000
00000000
00000000
00000000
,
00000010
00000100
00000000
00000001
00000100
00000010
00000100
00000000
,
00000000
00000001
00000100
00000010
00001001
00000000
00000000
00000000
,
00100000
10000000
00100000
00000000
01000000
00010000
01000000
00000000
,
00100000
10000000
00100000
10000000
00010000
01000000
00010000
00000000
,
01000000
00010000
01000000
00000000
00100000
10000000
00100000
00000000
,
01000000
00010000
01000000
00010000
10000000
00100000
10000000
00000000
,
00000010
00001000
00000010
00000000
00000100
00000001
00000100
00000000
,
00000010
00001000
00000010
00001000
00000001
00000100
00000001
00000000
,
00000100
00000001
00000100
00000000
00000010
00001000
00000010
00000000
,
00000100
00000001
00000100
00000001
00001000
00000010
00001000
00000000
,
10010000
10010000
10100000
01010000
,
00001001
00001001
00001010
00000101
,
01010000
00000000
10010000
00000000
00100000
10000000
01000000
00000000
,
00000101
00000000
00001001
00000000
00000010
00001000
00000100
00000000
,
00100000
00000000
00100000
00000000
00010000
10000000
01000000
00000000
,
00000010
00000000
00000010
00000000
00000001
00001000
00000100
00000000
,
00000000
10001000
00000000
00010001
,
00000000
00000000
00000000
00000000
00100010
00000000
00000000
10001000
00000000
00000000
00010001
00000000
00000000
10001000
00000000
00000000
,
01000100
00000000
00000110
00000000
00001001
00000000
00000100
00000010
,
00000100
00000000
00001000
00000010
00001000
00000000
00000001
00000010
,
00000001
00000000
01100000
00000000
10010000
00000000
01000000
00100000
,
01000000
00000000
10000000
00100000
10000000
00000000
00010000
00100000
,
00010000
00001001
00001010
10010000
,
11000000
00001001
00000101
10010000
,
01010000
00000000
00000010
00001000
,
00000100
00000000
00000101
00000000
00000010
00001000
00000100
00000000
,
00000001
00001100
00100000
10000000
,
01000000
00000000
01010000
00000000
00100000
10000000
01000000
00000000
,
00010000
11000000
00000011
00000101
,
00001000
00000100
00001000
00000000
00000001
00000000
00000100
00000000
,
00001000
00000100
00000001
00000000
00110000
00000000
01010000
00000000
,
10000000
01000000
10000000
00000000
00010000
00000000
01000000
00000000
,
10000000
01000000
00010000
00000000
00000001
00000000
00000001
00000000
,
00001000
00000000
00001000
00000000
00000010
00001000
00000100
00001000
,
00000001
00000100
00000010
00000000
00010000
00000000
00010000
00000000
,
10000000
00000000
10000000
00000000
00100000
10000000
01000000
10000000
,
00010000
01000000
00100000
00000000
00000001
00000000
00000000
00000000
,
01000000
00000000
00000100
00000000
,
10000000
00000000
00000110
00000110
,
01100000
01100000
00001001
10010000
,
00100010
10001000
01000100
00000000
00010001
00000000
00000000
00000000
,
00010001
00000000
00000000
00000000
00000000
00000000
00000000
00000000
00000000
00000000
01000100
00000000
00000000
00000000
00000000
00000000
00000000
00000000
00000000
00000000
00000000
10001000
00000000
00000000
00000000
00000000
00000000
00000000
00000000
00000000
00000000
00000000
01000100
00000000
00000000
00000000
00000000
00000000
00000000
00000000
00000000
00000000
00000000
00010001
00000000
00000000
00000000
00000000
00000000
00000000
00000000
00000000
00000000
00000000
01000100
00000000
00000000
00000000
00000000
00000000
00000000
00000000
00000000
00000000
,
10001000
00000000
00000000
00000000
;

//---------------dance-solo - ----------------
#NOTES:
     dance-solo:
     :
     Easy:
     7:
     0.387302,0.567778,0.311111,0.000000,0.022222,244.000000,216.000000,28.000000,0.000000,0.000000,0.000000,0.387302,0.567778,0.311111,0.000000,0.022222,244.000000,216.000000,28.000000,0.000000,0.000000,0.000000:
000000
000000
000000
000000
,
000000
000000
000000
000000
,
000000
000000
000000
000000
,
000000
000000
000000
000000
,
000000
000000
000000
000000
,
000000
000000
000000
000000
,
000000
000000
000000
000000
,
100000
000000
000010
000000
,
010000
000000
000001
000000
,
000100
010000
000010
100000
,
000001
100001
001000
001100
,
100000
000010
001000
000001
,
001100
000001
000001
100000
,
000010
010000
001100
001001
,
100001
001000
000100
100000
,
000001
001000
001010
011000
,
100001
000100
000100
000100
,
000000
100000
000000
100000
,
000000
000001
000000
100000
,
000000
000010
000000
000010
,
000000
010000
000000
000010
,
000000
001000
000000
001000
,
000000
000100
000000
001000
,
000000
000001
000000
000001
,
000000
100000
000000
000001
,
001000
000001
100000
000100
,
010010
100001
001100
100001
,
001000
000001
100000
000100
,
010010
100001
001100
100001
,
001000
000001
100000
000100
,
010010
100001
001100
100001
,
001000
000001
100000
000100
,
010010
100001
001100
100001
,
000000
100000
000000
100000
,
000000
000001
000000
000001
,
100000
001000
000001
001000
,
100000
001000
000001
001000
,
100000
000000
100000
000000
,
000001
000000
000001
000000
,
010000
001000
000001
001000
,
010000
001000
000001
001000
,
000000
100000
000000
100000
,
000010
100000
000001
010000
,
000000
000001
000000
000001
,
010000
000001
100000
000010
,
001000
000000
001000
000000
,
000010
001000
000100
010000
,
000000
000010
000000
010000
,
000000
001100
000000
000000
,
000000
010000
000010
010000
,
100000
000001
100000
000001
,
000010
010000
000010
001000
,
001000
000001
100000
000100
,
000100
100000
001000
000001
,
001000
000001
001000
100000
,
010000
001000
000010
001000
,
000001
000001
100000
100000
,
000001
100001
100000
100000
,
000010
100000
000001
010000
,
000100
100000
000001
001000
,
000010
100000
000001
010000
,
000100
100000
000001
001000
,
000000
001000
000000
001000
,
000000
001000
001000
100001
,
010000
010000
000000
000010
,
100000
000000
000010
001000
,
000100
100000
000001
010000
,
001000
000000
000100
000000
,
000001
000000
100000
000000
,
000100
000000
001000
000010
,
010000
000100
100000
000001
,
001000
000010
010000
000000
,
100000
000000
000001
000000
001000
000000
000100
000000
010000
000000
000010
000000
,
100000
000000
000000
000000
;

//---------------dance-solo - ----------------
#NOTES:
     dance-solo:
     :
     Medium:
     9:
     0.477778,0.730000,0.733333,0.000000,0.038889,301.000000,235.000000,66.000000,0.000000,0.000000,0.000000,0.477778,0.730000,0.733333,0.000000,0.038889,301.000000,235.000000,66.000000,0.000000,0.000000,0.000000:
000000
000000
000000
000000
,
000000
000000
000000
000000
,
000000
000000
000000
000000
,
000000
000000
000000
000000
,
000000
000000
000000
000000
,
000000
000000
000000
000000
,
000000
000000
000000
000000
,
000000
010000
000000
010000
,
000000
000010
000000
000010
,
000100
001000
001010
011000
,
101000
101000
000001
001000
,
000010
000010
110000
100100
,
010000
010010
000100
001100
,
110000
010100
000110
000011
,
010010
000001
100000
001100
,
100001
010000
000010
001100
,
000011
000110
010010
110000
,
010000
000010
000000
001000
,
000000
000001
000000
100000
,
000010
010000
000000
001000
,
000000
100000
000000
000001
,
010000
000010
000000
100000
,
000000
000100
000000
001000
,
000010
010000
000000
000001
,
000000
001000
000000
000100
,
001100
100001
010100
000110
,
010010
100001
001100
100001
,
001100
100001
010100
000110
,
010010
100001
001100
100001
,
001100
100001
010100
000110
,
010010
100001
001100
100001
,
001100
100001
010100
000110
,
010010
100001
001100
100001
,
001000
000000
001000
000000
,
000100
000000
000100
000000
,
100000
001000
000001
001000
,
100000
001000
000001
001000
,
000100
100000
000100
000001
,
000100
100000
000100
000001
,
010000
001000
000010
001000
,
010000
001000
000010
001000
,
001100
000010
010000
001000
,
100000
100000
000001
001000
,
000100
110000
000001
100000
,
001000
010000
000010
001000
,
000001
001000
000010
010000
,
000100
000100
000000
000000
,
000000
010000
000000
000010
,
000000
000000
000000
100000
000000
000001
000000
001000
000000
000010
000000
010000
,
000000
000100
100000
000001
,
001000
001000
000001
000001
,
100000
100000
000100
000100
,
100000
001000
000001
001000
,
100000
001000
000001
001000
,
010000
001000
000010
001000
,
001000
001000
100001
000100
,
000010
001000
010000
010000
,
000010
010000
010010
000100
,
100000
001000
000001
000001
,
100001
000001
010010
001000
,
001100
001100
000001
001000
,
010000
001000
000010
000100
,
010010
010010
100000
000001
,
001000
000001
100000
000000
,
010000
000000
000001
000000
,
100000
000000
000010
001000
,
001001
001001
000010
010000
,
110000
110000
100000
000000
,
100000
000000
000001
000000
,
001000
000001
100000
000100
,
100000
000100
001000
000001
,
010000
000010
001000
000000
,
000100
000000
100000
000000
000001
000000
010000
000000
000010
000000
001000
000000
,
000001
000000
000000
000000
;

//---------------dance-solo - ----------------
#NOTES:
     dance-solo:
     :
     Hard:
     13:
     0.695238,0.770556,0.711111,0.000000,0.038889,438.000000,374.000000,64.000000,0.000000,0.000000,0.000000,0.695238,0.770556,0.711111,0.000000,0.038889,438.000000,374.000000,64.000000,0.000000,0.000000,0.000000:
000000
000000
000000
000000
,
000000
000000
000000
000000
,
000000
000000
000000
000000
,
000000
000000
000000
000000
,
000000
000000
000000
000000
,
000000
000000
000000
000000
,
000000
000000
000000
000000
,
010000
010000
000001
000001
,
100000
100000
000010
000010
,
001000
000000
000100
000000
000100
100000
100000
000000
,
000100
000000
001000
000000
001000
000001
000001
000000
,
001000
000000
000100
000000
010000
001000
010000
000000
,
000100
000000
001000
000000
000010
001000
000010
000000
,
010000
000000
000010
000000
100000
000001
001000
000000
,
001000
000000
000100
000000
100000
000001
100000
000000
,
000100
000000
100000
000000
010000
100000
010000
000000
,
001000
000000
000001
000000
000010
000001
000010
000000
,
010000
001000
010000
001000
000010
001000
000010
001000
,
010000
000100
010000
000100
000010
000100
000010
000100
,
100000
000100
010000
000001
001000
000010
100000
000100
,
010000
000001
001000
000010
010000
000001
100000
000000
,
010000
001000
010000
001000
000010
001000
000010
001000
,
010000
000100
010000
000100
000010
000100
000010
000100
,
100000
000010
001000
000001
010000
000010
100000
000100
,
100000
000001
001000
000010
010000
000100
100000
000000
,
001100
100001
010100
000110
,
010010
100001
001100
100001
,
001100
100001
010100
000110
,
010010
100001
001100
100001
,
001100
100001
010100
000110
,
010010
100001
001100
100001
,
001100
100001
010100
000110
,
010010
100001
001100
100001
,
000100
100000
000100
000000
001000
000001
001000
000000
,
000100
100000
000100
010000
000001
001000
000001
000000
,
001000
000001
001000
000000
000100
100000
000100
000000
,
001000
000001
001000
000010
100000
000100
100000
000000
,
100000
000100
001000
000000
000001
001000
000100
000000
,
100000
000100
001000
000010
001000
000100
100000
000000
,
000001
000100
001000
000000
100000
001000
000100
000000
,
000010
000100
001000
100000
001000
000100
000010
000000
,
100001
000000
000100
001000
000010
000000
010000
000000
,
010010
000000
000001
000000
000100
100000
000001
000000
,
001100
000000
000100
000000
010000
000010
001000
000000
,
110000
000000
000100
000000
000001
010000
100000
000000
,
000011
000000
001000
000000
000001
010000
001000
000000
,
001010
000000
000100
000000
000001
000100
100000
000000
,
000000
010000
000000
000010
,
000000
000000
000000
000001
000000
100000
000000
000100
000000
100000
000000
000001
,
000000
100001
001100
001000
,
001000
000100
100000
000100
100000
000100
000001
000100
,
000001
000000
000100
000010
000100
001000
000100
010000
,
000100
000000
000001
001000
000001
000000
100000
001000
,
000100
000000
000100
000010
000100
000000
000100
010000
,
000100
000000
000100
000010
000100
001000
000100
010000
,
000100
001000
000100
100001
,
011000
000000
000010
000000
000100
000001
000100
001000
,
000100
100000
000100
000000
001000
000000
001100
000000
,
001010
000000
010000
000000
000100
000010
000100
001000
,
000100
010000
000100
000000
100000
000000
000011
000000
,
001100
000000
000001
000000
000100
000010
000100
001000
,
000100
010000
000100
000000
000001
000000
010100
000000
,
110000
000000
000001
000000
000100
000010
000100
001000
,
000100
010000
000100
000000
000100
100000
000001
000100
,
001000
100000
000010
001000
000100
010000
001000
000100
,
000001
001000
000100
000000
100001
000000
011000
000000
,
100001
000000
001010
000000
010000
001000
010000
000100
,
000010
010000
001000
000000
000100
000010
010000
000100
,
001000
000001
100000
001000
000100
000001
001000
000100
,
100000
001000
000100
000000
100001
000000
001010
000000
,
100001
000000
011000
000000
000010
001000
000001
000100
,
100000
000001
001000
000000
100001
000000
000000
000000
,
100001
000000
001100
000000
010100
000000
001010
000000
000011
000000
100010
000000
,
001100
000000
000000
000000
;

//---------------dance-single - ----------------
#NOTES:
     dance-single:
     :
     Challenge:
     15:
     0.900000,0.932778,0.400000,0.177778,0.494444,567.000000,531.000000,36.000000,16.000000,0.000000,0.000000,0.900000,0.932778,0.400000,0.177778,0.494444,567.000000,531.000000,36.000000,16.000000,0.000000,0.000000:
0000
0000
0000
0000
,
0000
0000
0000
0000
,
0000
0000
0000
0000
,
0000
0000
0000
0000
,
0000
0000
0000
0000
,
0000
0000
0000
0000
,
0000
0000
0000
0000
,
1000
0100
1000
0001
0100
0001
1000
0010
1000
0001
0010
0001
,
1000
0100
0010
0001
0010
0100
1000
0000
,
1001
0100
1000
0100
0010
0001
0001
0000
,
0100
0010
0100
0010
1000
0001
0001
0000
,
0010
0001
0010
0001
1000
0100
0100
0000
,
1000
0001
1000
0001
0100
0010
0010
0000
,
0110
0001
0100
0001
0010
1000
1000
0000
,
0100
1000
0100
1000
0001
0010
0010
0000
,
0001
1000
0001
1000
0100
0010
0010
0000
,
1000
0010
1000
0010
0100
0001
0001
0000
,
1000
0010
1000
0010
1000
0000
0100
0000
0010
0000
0001
0000
0100
0000
0000
0000
,
1000
0000
0001
0000
0010
0000
0100
0000
0010
0000
0001
1000
0100
0000
0000
0000
,
1000
0100
1000
0100
1000
0000
0001
0000
0100
0000
0010
0000
1000
0000
0000
0000
,
0001
0000
1000
0100
1000
0000
0010
0100
0010
0000
1000
0001
0100
0000
0000
0000
,
0010
0001
0010
0001
0010
0000
0100
0000
1000
0000
0010
0000
1000
0000
0000
0000
,
0100
0000
0010
0000
1000
0000
0001
0000
1000
0000
0010
0100
0001
0000
0000
0000
,
0010
0100
0010
0100
0010
0000
0001
0000
1000
0000
0100
0000
1000
0000
0000
0000
,
0001
0000
0100
0010
0100
0000
0001
0010
0001
0000
1000
0100
1000
0000
0000
0000
,
1010
0010
0001
0010
1000
0100
0010
0001
,
1000
0010
0100
0010
1000
0000
0001
0000
0200
0000
0010
0000
0310
0000
0000
0000
,
0101
0100
1000
0100
0001
0010
0100
1000
,
0010
1000
0001
1000
0010
0000
0100
0000
0002
0000
1000
0000
1003
0000
0000
0000
,
1100
0100
0001
0100
1000
0001
0100
0010
,
1000
0001
0100
0001
1000
0000
0100
0000
0020
0000
0001
0000
0031
0000
0000
0000
,
0011
0010
1000
0010
0001
1000
0010
0100
,
0001
0100
0010
0100
0001
0000
0010
0000
2000
0000
0001
0000
3001
0000
0000
0000
,
0010
0000
1000
0000
0100
0000
0010
0000
0001
0000
1000
0000
0001
0000
0000
0100
,
0001
0000
1000
0000
0010
0000
1000
0000
0001
0000
0100
0010
0100
0000
0001
0000
,
1000
0010
1000
0010
0100
0100
0100
0000
,
0001
0000
1000
0100
1000
0000
0010
0000
0000
0100
0001
0000
0010
0000
0000
0000
,
1000
0000
0000
0001
0100
0000
0010
0000
1000
0000
0100
0000
0010
0000
0001
0000
,
1000
0010
0100
0001
0010
0100
1000
0001
,
1000
0100
1000
0010
0001
0100
0010
1000
,
0001
0001
0010
0010
0100
0100
1000
1000
,
1100
0000
0000
1000
0010
0000
0100
0000
0002
0000
0010
0000
0013
0000
0000
0000
,
0101
0000
0000
0001
1000
0000
0010
0000
0200
0000
0001
0000
0301
0000
0000
0000
,
0011
0000
0000
0010
0001
0000
0100
0000
2000
0000
0010
0000
3010
0000
0000
0000
,
1010
0000
0000
0010
0100
0000
0001
0000
0020
0000
0100
0000
0130
0000
0000
0000
,
0110
0000
0000
0001
0100
0000
0010
0000
2000
0000
0100
0000
3001
0000
0000
0000
,
1001
0000
0000
0010
1000
0000
0100
0000
0020
0000
0100
0000
0031
0000
0000
0000
,
0000
0000
0000
0000
0000
0000
0000
0000
0000
0000
0000
0000
0100
0000
0000
0010
0000
0000
0000
0000
0000
0000
0000
0000
0000
0000
0000
0000
0000
0000
0000
0000
0000
0000
0000
0000
0101
0000
0000
0000
0000
0000
0000
0000
1001
0000
0000
0000
,
0000
1010
0000
1100
0000
0110
0000
0011
0000
1001
0000
0110
,
0000
0000
0000
0000
0101
0000
0000
0010
1000
0000
0100
0000
0010
0000
0001
0000
,
0100
0000
0010
0000
1000
0100
1000
0100
0010
0000
0000
0000
0001
0100
0001
0100
,
0010
0000
0000
0000
1000
0000
0100
0000
0010
0000
0100
0000
1000
0000
0001
0010
,
0001
0000
0000
0000
0010
1000
0010
1000
0001
0000
0000
0000
0100
0001
0100
0001
,
1000
0000
0000
0000
1100
0000
0010
0000
0100
0000
0001
0000
0010
0000
0100
1000
,
0001
0000
1000
1000
0001
0001
1000
0100
,
0010
0000
0010
0000
0100
0000
0100
0000
1010
0000
0100
1000
0100
0000
0010
0000
,
0001
1000
0001
0000
0100
0000
0000
0000
0010
0000
1000
0100
1000
0000
0001
0000
,
0200
0000
0001
0000
0310
0000
0000
0000
0011
0000
0001
1000
0001
0000
0100
0000
,
0010
1000
0010
0000
0100
0000
0000
0000
1000
0000
0001
0100
0001
0000
0010
0000
,
0200
0000
1000
0000
0310
0000
0000
0000
1100
0000
0010
1000
0001
0000
0100
0000
,
0010
1000
0001
0000
0100
0000
0000
0000
0001
0000
1000
0100
1000
0000
0010
0000
,
0200
0000
1000
0000
0301
0000
0000
0000
0011
0000
0100
0010
1000
0000
0001
0000
,
0100
0010
1000
0000
0001
0000
0000
0000
1000
0000
0100
1000
0100
0000
0010
0000
,
0002
1000
0013
0000
0101
0010
1000
0100
,
1000
0000
0001
0000
0100
0000
0010
1000
0001
0000
0010
0000
0100
0000
1000
0000
,
0010
0000
1000
0001
1000
0000
0010
0000
1010
0000
1000
0100
1000
0000
0010
0100
,
0020
0000
0001
0000
0031
0000
0000
0000
1000
0000
0001
0010
0001
0000
2000
0000
,
0000
0000
0100
0000
3010
0000
0000
0000
0010
0000
0000
1000
0100
0000
0010
0000
,
0001
0000
1000
0000
0001
0000
0100
0000
0010
0000
1000
0000
0001
0000
0000
1000
,
0100
1000
0010
0100
0001
0010
0100
1000
,
0010
0000
0100
0000
0001
0000
0000
0000
1000
0010
1000
0010
0100
0010
0100
0010
,
0100
0001
0100
0001
1000
0000
0000
0000
1001
0000
0000
0000
0000
0000
0000
0000
,
1001
0000
0110
0000
0110
0000
1010
0000
1100
0000
0011
0000
,
0101
0000
0000
0000
;

//---------------dance-solo - ----------------
#NOTES:
     dance-solo:
     :
     Challenge:
     16:
     0.960317,0.973333,0.544444,0.177778,0.622222,605.000000,556.000000,49.000000,16.000000,0.000000,0.000000,0.960317,0.973333,0.544444,0.177778,0.622222,605.000000,556.000000,49.000000,16.000000,0.000000,0.000000:
000000
000000
000000
000000
,
000000
000000
000000
000000
,
000000
000000
000000
000000
,
000000
000000
000000
000000
,
000000
000000
000000
000000
,
000000
000000
000000
000000
,
000000
000000
000000
000000
,
010000
001000
100000
000010
001000
000001
010000
000100
100000
000010
000100
000001
,
001000
000100
010000
001000
000100
000010
000100
000001
,
100000
000010
001000
000100
010000
000001
001010
000000
,
100000
000001
000100
000010
010000
001000
100010
000000
,
000001
000010
001000
000100
100000
010000
100100
000000
,
001000
000100
100000
000010
010000
000001
001100
000000
,
000010
000100
100000
010000
000001
001000
010010
000000
,
000100
100000
001000
000010
010000
000001
000110
000000
,
000001
010000
001000
000100
000010
100000
011000
000000
,
000100
000000
001000
000000
010000
000000
000010
000000
100000
000000
000001
000000
001000
000100
001000
000100
,
100000
000000
000010
010000
000010
000000
000100
000000
001000
000000
100000
000000
000001
000000
000000
000000
,
001000
000000
000001
000000
000100
000000
001000
000000
000100
000000
000010
010000
000010
000000
000000
000000
,
010000
000000
001000
100000
001000
000000
000100
000000
000010
000000
100000
000000
000100
000000
000000
000000
,
100000
000000
000001
000010
000001
000000
010000
000100
001000
000000
000010
000000
100000
000000
000000
000000
,
001000
000000
010000
000100
010000
000000
000001
000000
100000
000000
000100
000000
000010
000000
000000
000000
,
001000
000000
000100
000000
100000
000000
001000
000000
010000
000000
000001
000010
000001
000000
000000
000000
,
000100
000000
000010
100000
000010
000000
010000
000000
000001
000000
001000
000000
000100
000000
000000
000000
,
100000
000000
000001
001000
000001
000000
000100
000010
000100
000000
010000
000000
000001
000000
000000
000000
,
010010
000100
100000
000100
000001
000100
100000
000100
,
001000
000001
001000
000001
001000
000000
000010
000000
200000
000000
010000
000000
310000
000000
000000
000000
,
100001
000100
000001
000100
100000
000100
000001
000100
,
010000
001000
010000
001000
010000
000000
000001
000000
002000
000000
000010
000000
003010
000000
000000
000000
,
010010
001000
000001
001000
100000
001000
000001
001000
,
000010
000100
000010
000100
000010
000000
100000
000000
000002
000000
010000
000000
010003
000000
000000
000000
,
100001
001000
100000
001000
000001
001000
100000
001000
,
000100
000001
000100
000001
000100
000000
000010
000000
020000
000000
001000
000000
031000
000000
000000
000000
,
010200
000000
000000
000000
100300
000000
000010
000000
010000
000000
001000
000000
000100
000000
000010
000001
,
002000
000000
000000
000000
003100
000000
001000
000000
000001
000000
010000
000010
100000
000000
001000
000000
,
000100
000000
001000
010000
000100
000000
100000
000001
000020
000000
010000
000000
010030
000000
000000
000000
,
000100
000000
100000
001000
000100
000000
000002
000000
000000
000000
001003
000000
001010
000000
000000
000000
,
110000
000000
000000
000000
000010
000100
000001
010000
000100
000000
001000
000000
000001
000000
100000
000000
,
000000
000000
100000
000010
000100
000000
000001
001000
000100
000000
010000
000000
001000
000000
100000
000000
,
000001
000010
000100
001000
010000
100000
001200
000000
,
100300
000100
100000
000100
001000
000001
001000
000001
010000
000010
010000
000010
001000
000000
000100
000000
,
100010
000000
000000
000010
001000
000000
000100
000000
100000
000000
000001
000000
010000
000000
000000
000000
,
000011
000000
000000
000001
010000
000000
001000
000000
000100
000000
000010
000000
100000
000000
000000
000000
,
011000
000000
000000
001000
000100
000000
100000
000000
110000
000000
101000
000000
000001
000000
000011
000000
,
000101
000000
000000
000100
000001
000000
001000
000000
000100
000000
100100
000000
010100
000000
000000
000000
,
001010
000000
000000
000001
000010
000000
000100
000000
001000
000000
010000
000000
100000
000000
000000
000000
,
010010
000000
000000
100000
010000
000000
001000
000000
000100
000000
000010
000000
000001
000000
000000
000000
,
000000
000000
000000
000000
000000
000000
000000
000000
000000
000000
000000
000000
010000
000000
000000
000010
000000
000000
010000
000000
000000
000000
000000
000000
000000
000000
000000
000000
000000
000000
000000
000000
000000
000000
000000
000000
001100
000000
000000
000000
000000
000000
000000
000000
100100
000000
000000
000000
,
000000
010010
000000
000101
000000
100001
000000
011000
000000
000110
000000
001001
,
000000
000000
000000
000000
100020
000000
000000
000000
000130
000000
000001
000000
010000
001000
010000
001000
,
010000
000000
000001
000000
100000
000100
100000
000100
001000
000000
000000
000000
000001
000100
000001
000100
,
001000
000000
000000
000000
100000
000000
000010
000000
000100
000000
000001
000000
001000
010000
001000
010000
,
001000
000000
000000
000000
000010
100000
000010
100000
001000
000000
000000
000000
010000
000100
010000
000100
,
001000
000000
000000
000000
000001
000100
000001
000100
000010
000000
000000
000000
100000
000100
100000
000100
,
010000
000000
000000
000000
000010
000000
000100
000000
000001
000000
001000
000000
000100
100000
000001
001000
,
000100
100000
000100
000000
100000
000100
100000
000000
100001
000000
000001
000010
000001
000000
001000
000000
,
000100
010000
000100
000000
100000
000000
000000
000000
000001
000000
010000
001000
010000
000010
000100
000000
,
002000
000000
000010
000000
003001
000000
000000
000000
101000
000000
100000
000100
100000
000000
000010
000000
,
010000
000001
010000
000000
001000
000000
000000
000000
000010
000000
100000
000001
100000
000100
010000
000000
,
000020
000000
001000
000000
000130
000000
000000
000000
010010
000000
010000
001000
010000
000000
000001
000000
,
100000
000100
100000
000000
000010
000000
000000
000000
100000
000000
001000
010000
000001
010000
001000
000000
,
000200
000000
100000
000000
000310
000000
000000
000000
001001
000000
001000
000100
001000
000000
000010
000000
,
100000
010000
100000
000000
000001
000000
000000
000000
001000
000000
000010
000100
001000
000010
010000
000000
,
000002
100000
010003
000000
000020
010000
001000
010000
,
001030
000001
000100
000000
001000
000000
100000
000010
010000
000000
001000
000000
000100
000000
000010
000000
,
001000
000000
000001
000100
000001
000000
100000
000000
001000
000000
010000
000100
010000
000000
000010
000100
,
000010
000000
001000
000000
000100
000000
100000
000000
000000
000000
100000
000010
000001
000000
001000
000000
,
000100
000000
010000
000010
001000
000000
000000
000000
001100
000000
000000
000000
000100
000000
100000
001000
,
100000
000000
000010
000100
000001
000000
100000
000000
000100
000000
010000
001000
010000
000000
000010
000000
,
100000
000000
000100
001000
000100
000000
100000
000000
000002
000000
000010
000000
000013
000000
000000
000000
,
100000
000000
000100
000000
010010
000000
000000
000000
100000
001000
100000
001000
000100
000001
000100
000001
,
010000
000010
010000
000010
100000
000000
000001
000000
000101
000000
000000
000000
000000
000000
000000
000000
,
110000
000000
011000
000000
001100
000000
000110
000000
000011
000000
100001
000000
,
001100
000000
000000
000000
;

//---------------dance-solo - ----------------
#NOTES:
     dance-solo:
     :
     Beginner:
     5:
     0.219048,0.324444,0.055556,0.044444,0.000000,138.000000,133.000000,5.000000,4.000000,0.000000,0.000000,0.219048,0.324444,0.055556,0.044444,0.000000,138.000000,133.000000,5.000000,4.000000,0.000000,0.000000:
// measure 0
000000
000000
000000
000000
,  // measure 1
000000
000000
000000
000000
,  // measure 2
000000
000000
000000
000000
,  // measure 3
000000
000000
000000
000000
,  // measure 4
000000
000000
000000
000000
,  // measure 5
000000
000000
000000
000000
,  // measure 6
000000
000000
000000
000000
,  // measure 7
010000
000000
000010
000000
,  // measure 8
001000
000000
000000
000000
,  // measure 9
000010
000010
000000
000000
,  // measure 10
000010
000010
000000
000000
,  // measure 11
010000
010000
000000
000000
,  // measure 12
010000
010000
000000
000000
,  // measure 13
001000
001000
000000
000000
,  // measure 14
001000
001000
000000
000000
,  // measure 15
010000
000010
000000
000000
,  // measure 16
000010
010000
000000
000000
,  // measure 17
001000
001000
000000
000000
,  // measure 18
000000
000000
000000
001000
,  // measure 19
001000
001000
000000
000000
,  // measure 20
000000
010010
000000
000000
,  // measure 21
001000
001000
000000
000000
,  // measure 22
000000
000000
000000
001000
,  // measure 23
001000
001000
000000
000000
,  // measure 24
000000
010010
000000
000000
,  // measure 25
000010
000000
000010
000000
,  // measure 26
010000
010000
010000
000000
,  // measure 27
001000
000000
001000
000000
,  // measure 28
010000
010000
010000
000000
,  // measure 29
000010
000000
000010
000000
,  // measure 30
001000
001000
001000
000000
,  // measure 31
000010
000000
000010
000000
,  // measure 32
000010
000010
000010
000000
,  // measure 33
020000
000000
000000
030000
,  // measure 34
010000
000000
000000
000000
,  // measure 35
000010
000010
000010
000000
,  // measure 36
000000
001000
000000
001000
,  // measure 37
000000
000010
000000
010000
,  // measure 38
000000
000000
010000
000000
,  // measure 39
001000
000000
000000
001000
,  // measure 40
000000
001000
000000
010000
,  // measure 41
000010
000000
000000
000000
,  // measure 42
010000
000000
000000
000000
,  // measure 43
000010
000000
001000
000000
,  // measure 44
001000
000000
001000
000000
,  // measure 45
000010
000010
000000
000000
,  // measure 46
010000
010000
000000
000000
,  // measure 47
000000
020020
000000
000000
,  // measure 48
000000
000000
000000
030030
,  // measure 49
000000
011000
000000
000000
,  // measure 50
000000
000010
000000
001000
,  // measure 51
000000
000010
000010
000010
,  // measure 52
000010
000000
010000
000000
,  // measure 53
000010
000000
010000
000000
,  // measure 54
000010
000000
010000
000010
,  // measure 55
001000
001000
000010
000000
,  // measure 56
000010
000000
000000
001000
,  // measure 57
000010
010000
001000
000000
,  // measure 58
001000
000000
000000
010000
,  // measure 59
000010
001000
000010
000000
,  // measure 60
010000
000000
000000
001000
,  // measure 61
010000
000010
001000
000000
,  // measure 62
001000
000000
000000
000010
,  // measure 63
010000
001000
020000
000000
,  // measure 64
000000
030000
010000
000000
,  // measure 65
000000
000010
001000
001000
,  // measure 66
001000
000000
000000
000010
,  // measure 67
000000
010000
000000
000010
,  // measure 68
000000
001000
000000
000000
,  // measure 69
000010
000000
010000
010000
,  // measure 70
000000
001000
001000
001000
,  // measure 71
001000
001000
010000
000000
,  // measure 72
000010
000000
001000
000000
,  // measure 73
010010
000000
000000
000000
;
