#VERSION:0.83;
#TITLE:AFRONOVA (FROM NONSTOP MEGAMIX);
#SUBTITLE:;
#ARTIST:RE-VENGE;
#TITLETRANSLIT:;
#SUBTITLETRANSLIT:;
#ARTISTTRANSLIT:;
#GENRE:;
#ORIGIN:;
#CREDIT:;
#BANNER:AFRONOVA (FROM NONSTOP MEGAMIX)-bn.png;
#BACKGROUND:AFRONOVA (FROM NONSTOP MEGAMIX)-bg.png;
#PREVIEWVID:;
#JACKET:AFRONOVA (FROM NONSTOP MEGAMIX)-jacket.png;
#CDIMAGE:;
#DISCIMAGE:AFRONOVA (FROM NONSTOP MEGAMIX).png;
#LYRICSPATH:;
#CDTITLE:;
#MUSIC:AFRONOVA (FROM NONSTOP MEGAMIX).ogg;
#OFFSET:0.000000;
#SAMPLESTART:22.799999;
#SAMPLELENGTH:20.000000;
#SELECTABLE:YES;
#DISPLAYBPM:200.000000;
#BPMS:0.000=200.000;
#STOPS:;
#DELAYS:;
#WARPS:;
#TIMESIGNATURES:0.000=4=4;
#TICKCOUNTS:0.000=4;
#COMBOS:0.000=1;
#SPEEDS:0.000=1.000=0.000=0;
#SCROLLS:0.000=1.000;
#FAKES:;
#LABELS:0.000=Song Start;
#BGCHANGES:0.000=AFRONOVA(FROM NONSTOP MEGAMIX).avi=1.000=0=0=0=StretchNoLoop====,
99999=-nosongbg-=1.000=0=0=0 // don't automatically add -songbackground-
;
#KEYSOUNDS:;
#ATTACKS:
;

//---------------dance-single - ----------------
#NOTEDATA:;
#CHARTNAME:;
#STEPSTYPE:dance-single;
#DESCRIPTION:;
#CHARTSTYLE:;
#DIFFICULTY:Hard;
#METER:10;
#RADARVALUES:0.593712,0.696982,0.363248,0.192308,0.000000,389.000000,355.000000,34.000000,18.000000,0.000000,0.000000,0.000000,0.000000,0.000000,0.593712,0.696982,0.363248,0.192308,0.000000,389.000000,355.000000,34.000000,18.000000,0.000000,0.000000,0.000000,0.000000,0.000000;
#CREDIT:;
#DISPLAYBPM:200.000000;
#NOTES:
0000
0000
0000
0000
,
0000
0000
0000
0000
,
0000
0000
0000
0000
,
1000
1000
0001
0001
,
1000
1000
0001
0001
,
0010
1000
0010
0000
0001
0100
0001
0000
,
1000
0001
1000
0001
1000
0001
1000
0000
,
0010
0010
0100
0100
,
0010
0010
0100
0100
,
0001
0010
0001
0000
0100
1000
0100
0000
,
0010
0100
0010
0100
0010
0000
0110
0000
,
0010
1000
0100
1001
,
0010
0001
0100
1001
,
1000
0001
1000
1001
,
0010
0100
0010
0110
,
0010
1000
0001
0101
,
1000
0100
0010
0011
,
0100
1000
0001
0101
,
0010
0001
1001
1100
,
0010
1000
0010
0000
1000
0001
1000
0000
,
0010
1000
0010
1000
0010
1000
0010
0000
,
0100
0010
0100
0000
0001
0100
0001
0000
,
1000
0100
1000
0100
1000
0100
1000
0000
,
0010
0001
0010
0000
0100
1000
0100
0000
,
0001
0100
0001
0100
0001
0100
0001
0000
,
1000
0010
1000
0000
0001
0010
0001
0000
,
0001
1000
0001
1000
0001
1000
0001
0000
,
0220
0330
0001
1000
,
0010
1001
2002
3003
,
2200
3300
0001
0100
,
0010
0101
0202
0303
,
2002
3003
0010
0100
,
0001
1000
2002
3003
,
2200
3300
0001
0100
,
1000
0100
0202
0303
,
0010
0001
0010
0000
0001
0100
0001
0000
,
0010
1000
0010
1000
0001
1000
0001
0000
,
0100
0010
0100
0000
0001
1000
0001
0000
,
1000
0100
1000
0100
1000
0001
1000
0000
,
0001
0100
0001
0000
1000
0100
1000
0000
,
0010
0001
0010
0001
1000
0001
1000
0000
,
0100
1000
0100
0000
0100
0010
0100
0000
,
1000
0001
1000
0001
1000
0000
0101
0000
,
0010
0010
1000
1000
,
0100
0100
0010
0010
,
0001
0001
0100
0100
,
0001
0001
1000
1000
,
0010
1000
0010
0000
0001
0100
0001
0000
,
1000
0100
1000
0000
0010
0001
0010
0000
,
0001
1000
0001
0000
0100
0001
0100
0000
,
0010
1000
0010
1000
0010
0000
1001
0000
,
0010
0100
0000
0000
0001
1000
0001
0000
,
0100
0001
0100
0000
1001
0000
0000
0000
,
1000
0100
0000
0000
0001
1000
0001
0000
,
0100
0010
0100
0000
0101
0000
0000
0000
,
1000
0001
0000
0000
0010
0100
0010
0000
,
0001
0100
0001
0000
1100
0000
0000
0000
,
0010
0100
0000
0000
1000
0100
1000
0000
,
0010
0001
0010
0000
1001
0000
0000
0000
,
1001
0000
0100
0010
0000
0000
0001
1000
,
0000
0010
0100
0000
0001
0000
1000
0000
,
0110
0001
0000
1000
,
0000
1000
0100
0000
0010
0000
0000
0000
,
0101
0000
0010
1000
0000
0000
0100
1000
,
0000
0010
0100
0000
0001
0000
0001
0000
,
1100
0001
0000
0010
,
0000
0100
1000
0000
0001
0000
0000
0000
,
0010
1000
0010
0000
0001
0100
0001
0000
,
1000
0100
1000
0000
0010
0000
0101
0000
,
0010
0100
0010
0000
0100
1000
0100
0000
,
0100
0001
0100
0000
0010
0000
1001
0000
,
0010
1000
0010
0000
0010
0001
0010
0000
,
0100
1000
0100
0000
0001
0000
0101
0000
,
1000
0001
1000
0001
1000
0001
1000
0010
,
0100
0010
0100
0010
0100
0010
0100
0000
,
2002
0000
0000
0000
,
0000
0000
0000
3003
;

//---------------dance-double - ----------------
#NOTEDATA:;
#CHARTNAME:;
#STEPSTYPE:dance-double;
#DESCRIPTION:;
#CHARTSTYLE:;
#DIFFICULTY:Medium;
#METER:10;
#RADARVALUES:0.589133,0.696982,0.331197,0.106838,0.000000,386.000000,355.000000,31.000000,10.000000,0.000000,0.000000,0.000000,0.000000,0.000000,0.589133,0.696982,0.331197,0.106838,0.000000,386.000000,355.000000,31.000000,10.000000,0.000000,0.000000,0.000000,0.000000,0.000000;
#CREDIT:;
#DISPLAYBPM:200.000000;
#NOTES:
00000000
00000000
00000000
00000000
,
00000000
00000000
00000000
00000000
,
00000000
00000000
00000000
00000000
,
00100000
00100000
00010000
00010000
,
00001000
00001000
00000100
00000100
,
00000001
00000010
00000001
00000000
00000100
00001000
00000100
00000000
,
00001000
00010000
00001000
00010000
00001000
00010000
00001000
00000000
,
00100000
00100000
10000000
10000000
,
01000000
01000000
00010000
00010000
,
00001000
00010000
00001000
00000000
00000010
00000100
00000010
00000000
,
00000001
00001000
00000001
00001000
00000001
00000000
00001001
00000000
,
00000100
00001000
00010000
00010100
,
00010000
00100000
01000000
10010000
,
01000000
00100000
00001000
00011000
,
00000100
00000001
00000010
00000110
,
00000001
00000100
00001000
00010100
,
00010000
00001000
00100000
00101000
,
00010000
10000000
00010000
01001000
,
00100000
00010000
00001000
00010100
,
00000010
00000001
00000010
00000000
00000100
00001000
00000100
00000000
,
00100000
00001000
00100000
00001000
00100000
00001000
00100000
00000000
,
00010000
01000000
00010000
00000000
01000000
00100000
01000000
00000000
,
10000000
01000000
10000000
01000000
10000000
01000000
10000000
00000000
,
00100000
00010000
00100000
00000000
00001000
00010000
00001000
00000000
,
00000010
00001000
00000010
00001000
00000010
00001000
00000010
00000000
,
00000001
00000100
00000001
00000000
00000010
00001000
00000010
00000000
,
00001000
01000000
00001000
01000000
00001000
01000000
00001000
00000000
,
01010000
00000000
10000000
01000000
,
00100000
00001000
00022000
00033000
,
00010010
00000000
00000100
00000001
,
00000010
00001000
02002000
03003000
,
10010000
00000000
00100000
01000000
,
00001000
00010000
02020000
03030000
,
00011000
00000000
00000100
00000001
,
00000010
00000100
00020200
00030300
,
00001000
00010000
00001000
00000000
00010000
01000000
00010000
00000000
,
00100000
10000000
00100000
10000000
00010000
10000000
00010000
00000000
,
01000000
00001000
01000000
00000000
00010000
00001000
00010000
00000000
,
00000010
00000100
00000010
00000100
00000001
00000100
00000001
00000000
,
00001000
00000100
00001000
00000000
00010000
00001000
00010000
00000000
,
00100000
00010000
00100000
00010000
10000000
00010000
10000000
00000000
,
01000000
10000000
01000000
00000000
00100000
00010000
00100000
00000000
,
00001000
00010000
00001000
00010000
00001000
00000000
00010010
00000000
,
00001000
00001000
00000010
00000010
,
00000001
00000001
00000100
00000100
,
00010000
00010000
00100000
00100000
,
10000000
10000000
01000000
01000000
,
00100000
10000000
00100000
00000000
00010000
01000000
00010000
00000000
,
00001000
00010000
00001000
00000000
00001000
00000100
00001000
00000000
,
00000010
00000001
00000010
00000000
00000001
00000100
00000001
00000000
,
00000010
00010000
00000010
00010000
00000010
00000000
00011000
00000000
,
00100000
01000000
00000000
00000000
00010000
00100000
00010000
00000000
,
00001000
00010000
00001000
00000000
00000110
00000000
00000000
00000000
,
00000001
00000100
00000000
00000000
00000010
00001000
00000010
00000000
,
00010000
00001000
00010000
00000000
01010000
00000000
00000000
00000000
,
10000000
00010000
00000000
00000000
00100000
01000000
00100000
00000000
,
00010000
01000000
00010000
00000000
00011000
00000000
00000000
00000000
,
00001000
00000010
00000000
00000000
00000001
00000100
00000001
00000000
,
00001000
00010000
00001000
00000000
00101000
00000000
00000000
00000000
,
01100000
00000000
00010000
00001000
00000000
00000000
00000010
00000100
,
00000000
00000001
00001000
00000000
00000100
00000000
00010000
00000000
,
00101000
00010000
00000000
10000000
,
00000000
01000000
00010000
00000000
00001000
00000000
00000000
00000000
,
00010010
00000000
00001000
00010000
00000000
00000100
00000010
00000000
,
00000000
00000001
00000100
00000000
00001000
00000000
00010000
00000000
,
01010000
00010000
00000000
00100000
,
00000000
00001000
00010000
00000000
00000100
00000000
00000000
00000000
,
00000010
00000001
00000010
00000000
00000100
00001000
00000100
00000000
,
00010000
00001000
00010000
00000000
01000000
00000000
11000000
00000000
,
00100000
01000000
00100000
00000000
00001000
00010000
00001000
00000000
,
00000010
00000100
00000010
00000000
00000001
00000000
00000101
00000000
,
00000010
00000100
00000010
00000000
00010000
00001000
00010000
00000000
,
00100000
01000000
00100000
00000000
00010000
00000000
01001000
00000000
,
00010000
00001000
00010000
00001000
00010000
00001000
00010000
00000100
,
00000010
00000100
00000010
00000100
00000010
00000100
00000010
00000000
,
00002002
00000000
00000000
00000000
,
00000000
00000000
00000000
00003003
;

//---------------dance-single - ----------------
#NOTEDATA:;
#CHARTNAME:;
#STEPSTYPE:dance-single;
#DESCRIPTION:;
#CHARTSTYLE:;
#DIFFICULTY:Challenge;
#METER:13;
#RADARVALUES:0.807387,0.737981,0.534188,0.192308,0.000000,529.000000,479.000000,50.000000,18.000000,0.000000,0.000000,0.000000,0.000000,0.000000,0.807387,0.737981,0.534188,0.192308,0.000000,529.000000,479.000000,50.000000,18.000000,0.000000,0.000000,0.000000,0.000000,0.000000;
#CREDIT:;
#DISPLAYBPM:200.000000;
#NOTES:
0000
0000
0000
0000
,
0000
0000
0000
0000
,
0000
0000
0000
0000
,
1000
0100
0010
0000
1000
0001
0100
0001
,
1000
0000
0101
0000
0010
0100
0001
0000
,
0010
0001
1000
0000
0010
0001
0100
0010
,
1000
0000
1100
0000
0010
0100
0001
0000
,
0010
0001
0100
0001
0010
0100
1000
0010
,
0100
0000
1010
0000
1000
0001
0010
0000
,
0100
0010
0001
0100
0001
1000
0010
0100
,
0001
0000
0011
0000
1000
0010
0100
0000
,
0010
1000
0100
0010
0001
0100
0001
1000
,
0001
0010
1000
0000
0001
0100
1000
0000
,
0010
0100
0010
1000
0100
0010
0001
0100
,
0010
1000
0100
0000
0010
0001
0100
0000
,
0001
1000
0100
0010
0100
1000
0010
0100
,
0001
0010
1000
0000
0001
0101
0000
1000
,
1100
0000
0010
1010
0000
0100
0110
0000
,
1000
0011
0000
1001
0010
0100
0001
1000
,
0001
0010
0001
0010
1000
0010
1000
0010
,
0001
0100
0001
0100
1000
0100
1000
0100
,
0001
0010
1000
0001
0100
1000
0001
0010
,
1000
0001
0100
1000
0001
0010
1000
0000
,
0001
0100
0001
0100
1000
0100
1000
0100
,
0001
0010
0001
0010
1000
0010
1000
0010
,
0001
0100
1000
0001
0010
1000
0001
0100
,
1000
0001
0010
1000
0001
0100
1000
0000
,
1100
0001
0000
0100
0001
0010
0100
1000
,
0010
0100
0001
1000
0202
0000
0303
0000
,
0011
1000
0000
0010
1000
0100
0010
0001
,
0100
0010
1000
0001
2020
0000
3030
0000
,
0110
1000
0000
0001
0010
1000
0010
0001
,
0100
0010
1000
0001
2200
0000
3300
0000
,
1001
0010
0000
0100
0001
0100
1000
0100
,
0001
0010
0100
1000
0022
0000
0033
0000
,
0100
0001
0010
0100
1000
0010
1000
0001
,
0010
0100
1010
0000
0001
1000
0110
0000
,
1000
0001
0010
0100
1000
0010
0100
0001
,
0010
0100
1100
0000
1000
0001
0011
0000
,
0100
0001
0010
0100
0010
1000
0010
0001
,
0100
0010
1010
0000
1000
0001
1100
0000
,
1000
0010
0100
0010
0001
0010
1000
0100
,
0010
0001
0110
0000
1000
0100
1001
0000
,
0010
0100
0001
1000
0010
0100
1000
0100
,
0001
1000
0100
0001
1000
0010
0001
0010
,
0100
0001
0010
0100
0001
1000
0010
1000
,
0100
1000
0010
0001
1000
0100
0010
0000
,
0010
0001
0100
0001
1000
0100
0001
0010
,
0001
0010
0100
1000
0100
0010
0100
0001
,
0010
1000
0001
1000
0100
1000
0010
0001
,
0100
0010
1000
0001
1000
0010
0100
0000
,
0101
0010
0000
0100
1000
0001
1000
0100
,
0010
0001
0100
0010
2002
0000
3003
0000
,
1100
0010
0000
1000
0001
0010
0100
0010
,
0001
0100
0010
1000
0220
0000
0330
0000
,
1010
0001
0000
1000
0100
0010
0001
0100
,
0010
1000
0001
0100
2002
0000
3003
0000
,
0011
0100
0000
0010
0100
1000
0010
0100
,
0001
1000
0100
0010
0220
0000
0330
0000
,
1001
0001
1000
0100
0000
1000
0001
0000
,
0100
0001
1000
0000
1100
0000
0101
0000
,
1001
1000
0010
0100
0000
0001
1000
0000
,
0010
1000
0100
0000
0011
0000
1010
0000
,
0110
1000
0100
0010
0000
0001
1000
0000
,
0010
1000
0100
0000
0101
0000
1010
0000
,
0110
0010
1000
0001
0000
0100
0010
0000
,
0001
1000
0100
0000
0011
0000
1100
0000
,
0010
1000
0100
0010
0001
0100
0001
0000
,
1000
0001
0010
0100
1000
0010
0001
0000
,
1000
0100
0010
0100
0010
0001
0100
0000
,
0001
1000
0010
1000
0100
0010
0001
0000
,
1000
0001
0010
0001
0100
0010
1000
0100
,
0010
0001
0100
0000
0110
0000
1001
0000
,
1000
0001
0010
0100
0010
0001
0100
0010
,
1000
0001
0100
0000
0101
0000
1000
0000
,
2002
0000
0000
0000
,
0000
0000
0000
3003
;

//---------------dance-single - ----------------
#NOTEDATA:;
#CHARTNAME:;
#STEPSTYPE:dance-single;
#DESCRIPTION:;
#CHARTSTYLE:;
#DIFFICULTY:Easy;
#METER:5;
#RADARVALUES:0.332723,0.327991,0.224359,0.192308,0.000000,218.000000,197.000000,21.000000,18.000000,0.000000,0.000000,0.000000,0.000000,0.000000,0.332723,0.327991,0.224359,0.192308,0.000000,218.000000,197.000000,21.000000,18.000000,0.000000,0.000000,0.000000,0.000000,0.000000;
#CREDIT:;
#DISPLAYBPM:200.000000;
#NOTES:
0000
0000
0000
0000
,
0000
0000
0000
0000
,
0000
0000
0000
0000
,
1000
0001
1000
0010
,
0000
0100
0000
0100
,
0001
0010
0100
1000
,
0000
0010
0000
0010
,
0001
1000
0100
1000
,
0000
0001
0000
0001
,
1000
0001
0010
0100
,
0000
1000
0000
1000
,
0010
0100
0001
0001
,
0000
0100
0000
1000
,
0010
1000
0100
0100
,
0000
1000
0000
0001
,
0010
0001
0100
1000
,
0000
0010
0000
1000
,
0010
0100
1000
0001
,
0000
1000
0000
1000
,
1001
0010
0000
0100
,
0000
0001
0000
1000
,
1001
0100
0000
0010
,
0000
1001
0000
0000
,
0110
0100
0000
0001
,
0000
0010
0000
1000
,
0110
1000
0000
0001
,
0000
0110
0000
0000
,
0020
0000
1000
0030
,
0010
0100
0200
0300
,
0002
0000
0010
0003
,
0001
0100
0200
0300
,
0200
0000
1000
0300
,
0100
0001
0002
0003
,
2000
0000
0100
3000
,
1000
0010
0020
0030
,
1000
0001
1000
0100
,
0000
0001
0000
0010
,
0100
1000
0100
0010
,
0000
1000
0000
0100
,
0001
1000
0001
0100
,
0000
0010
0000
0010
,
1000
0100
0010
0100
,
0000
1000
0000
0001
,
0110
0100
0000
0010
,
0000
1000
0000
0001
,
0110
0010
0000
1000
,
0000
0110
0000
0000
,
1001
0001
0000
1000
,
0000
0100
0000
0010
,
1001
1000
0000
0100
,
0000
1001
0000
0000
,
0020
0000
1000
0031
,
0010
0100
0200
0300
,
0002
0000
1000
0103
,
0001
0010
0020
0030
,
0200
0000
1000
0310
,
0100
0001
0002
0003
,
2000
0000
0001
3100
,
1000
0010
0020
0030
,
1001
0010
0000
0100
,
0000
0001
1000
0100
,
1000
0001
0000
1000
,
0000
0010
1001
0000
,
0110
0100
0000
0001
,
0000
0010
0001
0100
,
0001
1000
0000
0010
,
0000
0100
0110
0000
,
1100
1000
0000
0001
,
0000
0100
0001
1000
,
0001
0010
0000
0100
,
0000
1000
1100
0000
,
0101
0010
0000
1000
,
0000
0100
0010
0001
,
0100
0010
0000
1000
,
0000
0001
0101
0000
,
2002
0000
0000
0000
,
0000
0000
0000
3003
;

//---------------dance-single - ----------------
#NOTEDATA:;
#CHARTNAME:;
#STEPSTYPE:dance-single;
#DESCRIPTION:;
#CHARTSTYLE:;
#DIFFICULTY:Medium;
#METER:7;
#RADARVALUES:0.491453,0.655983,0.694444,0.021368,0.000000,322.000000,257.000000,65.000000,2.000000,0.000000,0.000000,0.000000,0.000000,0.000000,0.491453,0.655983,0.694444,0.021368,0.000000,322.000000,257.000000,65.000000,2.000000,0.000000,0.000000,0.000000,0.000000,0.000000;
#CREDIT:;
#DISPLAYBPM:200.000000;
#NOTES:
0000
0000
0000
0000
,
0000
0000
0000
0000
,
0000
0000
0000
0000
,
1000
0100
0010
0001
,
0100
0010
1000
0100
,
0010
0100
1000
0010
,
0100
0001
1000
0001
,
0010
0100
0010
0100
,
0100
1000
0010
0100
,
0001
1000
0100
0010
,
0010
0001
0100
0001
,
0010
0100
1000
0010
,
1000
0001
0010
0001
,
0100
0001
0010
0100
,
1000
0010
0100
0010
,
0100
0001
0010
0100
,
1000
0001
1000
0010
,
0100
0010
0001
0100
,
1000
0001
0010
0000
,
1001
0100
0010
1000
,
0000
0001
0000
0100
,
1001
1000
0010
0100
,
0000
0001
0000
0100
,
0110
0010
1000
0100
,
0000
0001
0000
0100
,
0110
0001
0100
0010
,
0000
1000
0000
0000
,
0110
1001
0110
1001
,
1100
0101
1001
0000
,
0110
1001
0110
1001
,
1100
0101
1001
0000
,
0110
1001
0110
1001
,
1100
0101
1001
0000
,
0110
1001
0110
1001
,
1100
0101
1001
0000
,
0001
1000
0100
0010
,
1000
0010
0100
0010
,
1000
0001
0010
0100
,
0010
1000
0001
0010
,
0001
0100
0001
0100
,
1000
0010
0010
0100
,
0010
1000
0010
0001
,
0100
0100
0100
0000
,
0110
0010
0100
1000
,
0000
1000
0000
0001
,
0110
0010
1000
0100
,
0000
1000
0000
0001
,
1001
0100
0001
1000
,
0000
0010
0000
0100
,
1001
1000
0100
0010
,
0000
0100
0000
0000
,
1001
0110
1001
0110
,
0011
1010
0110
0000
,
1001
0110
1001
0110
,
0011
1010
0110
0000
,
1001
0110
1001
0110
,
0011
1010
0110
0000
,
1001
0110
1001
0110
,
0011
1010
0110
0000
,
0010
1000
0100
0010
,
0001
0100
1000
0010
,
1000
0100
0010
0001
,
0100
0001
1000
0000
,
0001
0010
0100
1000
,
0010
1000
0100
0010
,
0100
0010
0001
0100
,
0001
1000
0010
0000
,
1000
0001
0010
0001
,
0100
0001
0010
0100
,
1000
0010
1000
0100
,
0010
0001
0100
0000
,
1000
0010
0001
0010
,
0100
0010
0001
1000
,
0100
0010
0100
0010
,
0001
0100
1000
0000
,
2002
0000
0000
0000
,
0000
0000
0000
3003
;

//---------------dance-single - ----------------
#NOTEDATA:;
#CHARTNAME:;
#STEPSTYPE:dance-single;
#DESCRIPTION:;
#CHARTSTYLE:;
#DIFFICULTY:Beginner;
#METER:1;
#RADARVALUES:0.125153,0.200321,0.010684,0.000000,0.000000,82.000000,81.000000,1.000000,0.000000,0.000000,0.000000,0.000000,0.000000,0.000000,0.125153,0.200321,0.010684,0.000000,0.000000,82.000000,81.000000,1.000000,0.000000,0.000000,0.000000,0.000000,0.000000,0.000000;
#CREDIT:;
#DISPLAYBPM:200.000000;
#NOTES:
0000
0000
0000
0000
,
0000
0000
0000
0000
,
0000
0000
0000
0000
,
1000
0000
0000
0000
,
0000
0000
0000
0000
,
0001
0000
0000
0000
,
0000
0000
0000
0000
,
0100
0000
0000
0000
,
0000
0000
0000
0000
,
0010
0000
0000
0000
,
0000
0000
0000
0000
,
1000
0000
0000
0000
,
0100
0000
0000
0000
,
1000
0000
0000
0000
,
0001
0000
0000
0000
,
0100
0000
0000
0000
,
0010
0000
0000
0000
,
0100
0000
0000
0000
,
0001
0000
0000
0000
,
1000
1000
0000
0000
,
0000
0000
0000
0000
,
0001
0001
0000
0000
,
0000
0000
0000
0000
,
0100
0100
0000
0000
,
0000
0000
0000
0000
,
0010
0010
0000
0000
,
0000
0000
0000
0000
,
1000
0000
1000
0000
,
1000
0000
0000
0000
,
0100
0000
0100
0000
,
0100
0000
0000
0000
,
0010
0000
0010
0000
,
0010
0000
0000
0000
,
0001
0000
0001
0000
,
0001
0000
0000
0000
,
0010
0000
0000
0000
,
0001
0000
0000
0000
,
0100
0000
0000
0000
,
1000
0000
0000
0000
,
0001
0000
0000
0000
,
1000
0000
0000
0000
,
0100
0000
0000
0000
,
0010
0000
0000
0000
,
0010
0010
0000
0000
,
0000
0000
0000
0000
,
0100
0100
0000
0000
,
0000
0000
0000
0000
,
0001
0001
0000
0000
,
0000
0000
0000
0000
,
1000
1000
0000
0000
,
0000
0000
0000
0000
,
0010
0000
0010
0000
,
0010
0000
0000
0000
,
1000
0000
1000
0000
,
1000
0000
0000
0000
,
0100
0000
0100
0000
,
0100
0000
0000
0000
,
0001
0000
0001
0000
,
0001
0000
0000
0000
,
0010
0000
0000
0000
,
0001
0000
0000
0000
,
0100
0000
0000
0000
,
0001
0000
0000
0000
,
0100
0000
0000
0000
,
1000
0000
0000
0000
,
0010
0000
0000
0000
,
0100
0000
0000
0000
,
0001
0000
0001
0000
,
0001
0000
0000
0000
,
1000
0000
1000
0000
,
1000
0000
0000
0000
,
0010
0000
0010
0000
,
0010
0000
0000
0000
,
0100
0000
0100
0000
,
0100
0000
0000
0000
,
1001
0000
0000
0000
;

//---------------dance-double - ----------------
#NOTEDATA:;
#CHARTNAME:;
#STEPSTYPE:dance-double;
#DESCRIPTION:;
#CHARTSTYLE:;
#DIFFICULTY:Easy;
#METER:7;
#RADARVALUES:0.415140,0.450988,0.373932,0.064103,0.000000,272.000000,237.000000,35.000000,6.000000,0.000000,0.000000,0.000000,0.000000,0.000000,0.415140,0.450988,0.373932,0.064103,0.000000,272.000000,237.000000,35.000000,6.000000,0.000000,0.000000,0.000000,0.000000,0.000000;
#CREDIT:;
#DISPLAYBPM:200.000000;
#NOTES:
00000000
00000000
00000000
00000000
,
00000000
00000000
00000000
00000000
,
00000000
00000000
00000000
00000000
,
20200000
00000000
00000000
00000000
,
00000000
00000000
00000000
00300000
,
00010000
00000000
00010000
00000000
,
00010000
00000000
00010000
30000000
,
02002000
00000000
00000000
00000000
,
00000000
00000000
00000000
00003000
,
00010000
00010000
00001000
00001000
,
00100000
00001000
00010000
03001000
,
00011000
00000010
00001000
00000100
,
00001000
00000010
00000100
00000001
,
00000010
00000100
00000010
00000001
,
00001000
00000010
00010000
00000100
,
00001100
00000100
00010000
00001000
,
01000000
00100000
10000000
01000000
,
00100000
00010000
01000000
00001000
,
00010000
00000010
00001000
00000100
,
00001001
00000100
00000001
00001000
,
00000000
00000100
00000000
00000100
,
00001100
00001000
00000001
00000010
,
00000000
00000011
00000000
00000000
,
00001010
00000010
00010000
00001000
,
00000000
00100000
00000000
00100000
,
00110000
00010000
01000000
00100000
,
00000000
10010000
00000000
00000000
,
10000000
00010000
00100000
01000000
,
10000000
00010000
00110000
00000000
,
00100000
00001000
00010000
00000010
,
00001000
00000100
00001100
00000000
,
00001000
00000001
00000010
00000001
,
00000100
00000010
00001010
00000000
,
00000100
00010000
00001000
00100000
,
00001000
01000000
01010000
00000000
,
00011000
00001000
01000000
00100000
,
01000000
00010000
00100000
00001000
,
00000010
00001000
00000100
00000010
,
00000001
00001000
00000010
00010000
,
00010100
00000100
00001000
00000001
,
00000010
00000001
00001000
00000100
,
01000000
00010000
00100000
00001000
,
01000000
00100000
10000000
00010000
,
10010000
10000000
00100000
01000000
,
00000000
00001000
00000000
00010000
,
00011000
00010000
00000100
00001000
,
00000000
00001100
00000000
00000000
,
00001001
00000010
00001000
00000100
,
00000000
00010000
00000000
00000010
,
00000110
00000100
00000001
00001000
,
00000000
00001010
00000000
00000000
,
00000010
00010000
00000100
00001000
,
01000000
00100000
01100000
00000000
,
01000000
00001000
00010000
00001000
,
00100000
00010000
10010000
00000000
,
10000000
00100000
01000000
00001000
,
00010000
00000010
00001010
00000000
,
00000001
00000010
00000001
00001000
,
00000100
00000010
00000011
00000000
,
00010010
00001000
00000100
00010000
,
00000000
00001000
01000000
00100000
,
01100000
00100000
10000000
01000000
,
00000000
10000000
00010000
00000000
,
00101000
00001000
00010000
00000010
,
00000000
00001000
00000100
00000010
,
00000011
00000001
00001000
00000100
,
00000000
00010000
00001000
00000000
,
00101000
00100000
00010000
01000000
,
00100000
10000000
01000000
00100000
,
00110000
00010000
01000000
00001000
,
00010000
00000100
00000010
00000001
,
00001001
00001000
00000010
00000100
,
00000001
00000010
00000100
00001000
,
00001010
00000001
00001000
00000100
,
00010000
00001000
01000000
00100000
,
02200000
00000000
00000000
00000000
,
00000000
00000000
00000000
03300000
;

//---------------dance-double - ----------------
#NOTEDATA:;
#CHARTNAME:;
#STEPSTYPE:dance-double;
#DESCRIPTION:;
#CHARTSTYLE:;
#DIFFICULTY:Hard;
#METER:13;
#RADARVALUES:0.718865,0.737981,0.427350,0.106838,0.000000,471.000000,431.000000,40.000000,10.000000,0.000000,0.000000,0.000000,0.000000,0.000000,0.718865,0.737981,0.427350,0.106838,0.000000,471.000000,431.000000,40.000000,10.000000,0.000000,0.000000,0.000000,0.000000,0.000000;
#CREDIT:;
#DISPLAYBPM:200.000000;
#NOTES:
00000000
00000000
00000000
00000000
,
00000000
00000000
00000000
00000000
,
00000000
00000000
00000000
00000000
,
00000101
00000000
00000001
00001000
00000010
00000100
00000001
00001000
,
00000100
00010000
00001000
00000000
01000000
00100000
10000000
00000000
,
10010000
00000000
10000000
00100000
10000000
01000000
00100000
00001000
,
00010000
00000010
00000100
00000000
00000001
00001000
00000010
00000000
,
00000110
00000000
00000010
00001000
00000001
00000010
00000100
00001000
,
00000010
00010000
00000100
00000000
01000000
00001000
00010000
00000000
,
00100000
00001000
01000000
00100000
10000000
01000000
00100000
00010000
,
00001000
00010000
00000010
00010000
00000100
00000010
00000001
00000100
,
00000110
00000000
00010000
00000010
00001000
00000001
00000100
00000010
,
00001000
00000100
00000010
00000000
00000001
00001000
00000100
00000000
,
00010100
00000000
00010000
00001000
01000000
00001000
00100000
00010000
,
01000000
00100000
10000000
00000000
01000000
00100000
00010000
00000000
,
01010000
00000000
01000000
00001000
00010000
00000010
00001000
00000100
,
00010000
00001000
00100000
00000000
00010000
10000000
00000000
10000000
,
00100000
00000000
00100000
01000000
00000000
01000000
00001000
00000000
,
00001000
00010000
00000000
00010000
00000010
00001000
00000100
00000010
,
00000001
00000100
00000010
00001000
00000100
00000010
00000001
00000000
,
00001000
00001100
00000001
00000101
,
00001000
00000010
00010000
00000100
01000000
00010000
10000000
00000000
,
00100000
11000000
00010000
01010000
,
00001000
00010000
00001000
01000000
00100000
10000000
00010000
00000000
,
00100000
00110000
00001000
00101000
,
00000100
00010000
00000010
00001000
00000100
00000010
00000001
00000000
,
00001000
00001010
00000001
00000011
,
00001000
00000001
00000000
00000001
00000010
00000001
00001000
00000100
,
00010000
00001000
00100000
00001000
02000000
00000000
00000000
00000000
,
03010000
10000000
00000000
10000000
00100000
01000000
00001000
00100000
,
00010000
01000000
00100000
10000000
00020000
00000000
00000000
00000000
,
00130000
00001000
00000000
00001000
00010000
00000010
00001000
00000001
,
00000010
00000100
00001000
00000010
00000200
00000000
00000000
00000000
,
00000301
00000010
00000000
00000010
00000001
00001000
00000100
00010000
,
00001000
00010000
00000010
00100000
00020000
00000000
00030000
00000000
,
10010000
00000000
10000000
00010000
00100000
01000000
10000000
00000000
,
00010000
00100000
00001000
00000000
00011000
00000000
00010100
00000000
,
00000110
00000000
00000001
00001000
00000010
00001000
00000100
00000000
,
00000010
00000001
00001000
00000000
00001100
00000000
00010100
00000000
,
00011000
00000000
00010000
00001000
01000000
00100000
10000000
00000000
,
00010000
00100000
01000000
00000000
11000000
00000000
00110000
00000000
,
01001000
00000000
00001000
00010000
00000100
00001000
00000001
00000000
,
00000010
00000001
00000100
00000010
00001000
00000001
00000100
00000000
,
00000001
00001000
00000100
00000010
00000100
00010000
00001000
00000000
,
01000000
01010000
00100000
10100000
,
10000000
00010000
00100000
00001000
01000000
00100000
10000000
00000000
,
00010000
01010000
01000000
01001000
,
00001000
00010000
00000010
00001000
00000100
00000010
00000001
00000000
,
00001000
00001100
00000001
00000011
,
00001000
00000001
00000100
00000010
00010000
00000100
01000000
00000000
,
00010000
10010000
01000000
01000100
,
00010000
00001000
00000000
00001000
01000000
00100000
10000000
01000000
,
00100000
00001000
00010000
00000100
00002000
00000000
00000000
00000000
,
00003010
00001000
00000000
00001000
00000100
00000010
00000001
00000100
,
00000010
00010000
00000100
00001000
00000020
00000000
00000000
00000000
,
00000130
00000010
00000000
00000010
00010000
00000100
00010000
00001000
,
01000000
00100000
10000000
00010000
00200000
00000000
00000000
00000000
,
00301000
00010000
00000000
00010000
00000010
00001000
00000100
00000010
,
00000001
00001000
00000010
00010000
00002000
00000000
00000000
00000000
,
00103000
00000000
00010000
10000000
00000000
00010000
01000000
00000000
,
00100000
10000000
01000000
00000000
10010000
00000000
01100000
00000000
,
10000000
00000000
00010000
00100000
00000000
00010000
01000000
00000000
,
00001000
00010000
00000100
00000000
00001100
00001000
00000001
00000000
,
00000011
00000000
00000001
00000100
00000000
00000010
00001000
00000000
,
00000100
00010000
00001000
00000000
01001000
00000000
10100000
00000000
,
00010000
00000000
00100000
00001000
00000000
00010000
00000100
00000000
,
00001000
00000001
00000010
00000000
00000011
00000001
00000100
00000000
,
00000001
00001000
00000010
00001000
00000100
00000010
00000001
00000000
,
00001000
00000010
00010000
00000000
00001000
01000000
00100000
00000000
,
01000000
00010000
00100000
00010000
10000000
00100000
01000000
00000000
,
00010000
00100000
00001000
00000000
01000000
00001000
00010000
00000000
,
00000100
00001000
00000010
00010000
00000010
00001000
00000001
00000000
,
00000010
00000100
00001000
00000000
00000100
00010000
00001000
00000000
,
00010000
00000010
00001000
00000100
00010000
00001000
00100000
00000000
,
00010000
01000000
00100000
00000000
10000000
00010000
01000000
00000000
,
00220000
00000000
00000000
00000000
,
00000000
00000000
00000000
00330000
;

//---------------dance-double - ----------------
#NOTEDATA:;
#CHARTNAME:;
#STEPSTYPE:dance-double;
#DESCRIPTION:;
#CHARTSTYLE:;
#DIFFICULTY:Challenge;
#METER:13;
#RADARVALUES:0.848596,0.860978,0.160256,0.106838,0.042735,556.000000,541.000000,15.000000,10.000000,0.000000,0.000000,0.000000,0.000000,0.000000,0.848596,0.860978,0.160256,0.106838,0.042735,556.000000,541.000000,15.000000,10.000000,0.000000,0.000000,0.000000,0.000000,0.000000;
#CREDIT:;
#DISPLAYBPM:200.000000;
#NOTES:
// measure 0
00000000
00000000
00000000
00000000
,  // measure 1
00000000
00000000
00000000
00000000
,  // measure 2
00000000
00000000
00000000
00000000
,  // measure 3
00001000
00010000
00000010
00001000
00000100
00000010
00000001
00000100
,  // measure 4
00000010
00001000
00001100
00000000
00000010
00000001
00000101
00000000
,  // measure 5
00000001
00001000
00000100
00000010
00000001
00000100
00000010
00010000
,  // measure 6
00001000
00100000
00110000
00000000
00010000
01000000
01100000
00000000
,  // measure 7
10000000
00010000
00100000
01000000
10000000
00100000
01000000
00001000
,  // measure 8
00100000
00010000
01010000
00000000
00100000
10000000
11000000
00000000
,  // measure 9
00001000
00010000
00001000
00010000
00001000
00010000
00001000
00010000
00001000
00010000
00001000
00010000
,  // measure 10
00001000
00010000
00000010
00001000
00000100
00000010
00000001
00000100
,  // measure 11
00000010
00001000
00000100
00000010
00000001
00000100
00000010
00010000
,  // measure 12
00001000
01000000
00100000
10000000
01000000
00100000
00010000
01000000
,  // measure 13
00001000
00100000
00010000
01000000
00100000
10000000
00010000
00100000
,  // measure 14
00001000
00010000
00000010
00001000
00000001
00000010
00000100
00000000
,  // measure 15
00001000
00000010
00000100
00000001
00000010
00000001
00001000
00000100
,  // measure 16
00010000
00001000
01000000
00100000
10000000
10010000
00000000
00010000
,  // measure 17
01010000
00000000
01000000
01100000
00000000
00100000
10100000
00000000
,  // measure 18
10000000
00010000
00100000
00001000
00010000
00000010
00000100
00000001
,  // measure 19
00001000
00000100
00001000
00000100
00000001
00000100
00000001
00000100
,  // measure 20
00001000
00000010
00001000
00000010
00000001
00000010
00000001
00000010
,  // measure 21
00001000
00000100
00010000
00001000
00100000
00010000
10000000
01000000
,  // measure 22
00010000
10000000
00100000
00010000
00001000
00000100
00000001
00000000
,  // measure 23
00001000
00000100
00001000
00000100
00010000
00000100
00010000
00000100
,  // measure 24
00001000
00100000
00001000
00100000
00010000
00100000
00010000
00100000
,  // measure 25
00001000
01000000
00010000
10000000
00100000
00010000
10000000
01000000
,  // measure 26
00010000
00001000
00000010
00000001
00001000
00000100
00000001
00000000
,  // measure 27
00000100
00000010
00001000
00000010
00000100
00000010
00001000
00000010
,  // measure 28
00010000
00000100
00001000
00000100
00020000
00001000
00031000
00000000
,  // measure 29
00001000
01000000
00010000
01000000
00001000
01000000
00010000
01000000
,  // measure 30
00100000
10000000
01000000
10000000
00200000
01000000
01300000
00000000
,  // measure 31
00010000
00100000
01000000
00100000
00010000
00100000
01000000
00100000
,  // measure 32
00001000
00010000
00000100
00010000
00002000
00000100
00003100
00000000
,  // measure 33
00000001
00001000
00000100
00001000
00000001
00001000
00000100
00001000
,  // measure 34
00000010
00010000
00001000
00010000
00000020
00001000
00001030
00000000
,  // measure 35
00000001
00001000
00000010
00000100
00000001
00000010
00000100
00010000
,  // measure 36
00001000
00100000
00001000
01000000
00100000
10000000
00010000
00000000
,  // measure 37
00100000
00001000
00010000
00001000
01000000
00100000
10000000
01000000
,  // measure 38
00100000
00001000
00010000
00000100
00010000
00000010
00000100
00000000
,  // measure 39
00000001
00001000
00000100
00000010
00000100
00001000
00000010
00010000
,  // measure 40
00000100
01000000
00001000
00010000
00001000
01000000
00100000
00000000
,  // measure 41
10000000
00010000
00100000
00001000
00010000
00000100
00010000
00001000
,  // measure 42
01000000
00100000
10000000
00010000
00100000
01000000
10000000
00000000
,  // measure 43
10000000
01000000
10000000
01000000
00010000
01000000
00010000
01000000
,  // measure 44
10000000
00100000
10000000
00100000
00010000
00100000
00010000
00100000
,  // measure 45
10000000
01000000
00010000
00001000
00000010
00000001
00001000
00000100
,  // measure 46
00000001
00001000
00000010
00010000
00001000
01000000
00010000
00000000
,  // measure 47
00001000
01000000
00001000
01000000
00010000
00000100
00010000
00000100
,  // measure 48
00001000
00100000
00001000
00100000
00010000
00000010
00010000
00000010
,  // measure 49
00001000
00000100
00000001
00001000
00000010
00010000
00001000
01000000
,  // measure 50
00010000
10000000
00100000
00010000
00001000
00000100
00000001
00000000
,  // measure 51
00000100
00000001
00000010
00000001
00000100
00000001
00000010
00000001
,  // measure 52
00001000
00000100
01000000
00000100
00002000
00000001
00003001
00000000
,  // measure 53
00001000
00000100
00010000
00000100
00001000
00000100
00010000
00000100
,  // measure 54
01000000
00001000
00100000
00001000
02000000
00010000
03010000
00000000
,  // measure 55
10000000
00100000
01000000
00100000
10000000
00100000
01000000
00100000
,  // measure 56
00001000
00000010
00000100
00000010
00002000
00000001
00003001
00000000
,  // measure 57
00001000
00000001
00000010
00000001
00001000
00000001
00000010
00000001
,  // measure 58
00000100
00000010
00010000
00000010
00000200
00000001
00000301
00000000
,  // measure 59
00001000
00000001
00000010
00000001
00001000
00000100
00010000
00000000
,  // measure 60
00001000
01000000
00100000
00000000
01100000
00000000
10010000
00000000
,  // measure 61
10000000
00010000
00100000
00001000
01000000
00100000
10000000
00000000
,  // measure 62
00010000
00100000
00001000
00010000
00000010
00001000
00000100
00000000
,  // measure 63
00010000
00000010
00001000
00000001
00000010
00000100
00001000
00000000
,  // measure 64
00000001
00000100
00000010
00000000
00001010
00000000
00000101
00000000
,  // measure 65
00010000
00000100
00001000
00000010
00010000
00001000
01000000
00000000
,  // measure 66
00100000
10000000
00010000
00100000
00001000
01000000
00010000
00000000
,  // measure 67
10000000
01000000
00100000
00010000
01000000
00100000
10000000
00010000
,  // measure 68
00100000
01000000
00100000
00001000
00010000
00001000
01000000
00100000
,  // measure 69
01000000
00001000
00010000
00000100
00010000
00000010
00000100
00000001
,  // measure 70
00000010
00000100
00001000
00000010
00000100
00000001
00001000
00000100
,  // measure 71
00000010
00000100
00000010
00000001
00001000
00000010
00010000
00000100
,  // measure 72
00001000
00000100
01000000
00001000
00010000
00001000
00100000
00010000
,  // measure 73
10000000
00100000
10000000
00010000
00100000
01000000
10000000
00010000
,  // measure 74
00100000
00001000
00010000
00000100
00001000
00000010
00000100
00000000
,  // measure 75
00000202
00000000
00000000
00000000
,  // measure 76
00000000
00000000
00000000
00000303
;
