#VERSION:0.83;
#TITLE:ACTIVATION;
#SUBTITLE:;
#ARTIST:jun feat. Kathy Sledge;
#TITLETRANSLIT:;
#SUBTITLETRANSLIT:;
#ARTISTTRANSLIT:;
#GENRE:;
#ORIGIN:;
#CREDIT:;
#BANNER:ACTIVATION-bn.png;
#BACKGROUND:ACTIVATION-bg.png;
#PREVIEWVID:;
#JACKET:ACTIVATION-jacket.png;
#CDIMAGE:;
#DISCIMAGE:;
#LYRICSPATH:;
#CDTITLE:;
#MUSIC:ACTIVATION.ogg;
#OFFSET:0.000000;
#SAMPLESTART:34.429489;
#SAMPLELENGTH:20.000000;
#SELECTABLE:YES;
#DISPLAYBPM:136.000000;
#BPMS:0.000=135.930;
#STOPS:;
#DELAYS:;
#WARPS:;
#TIMESIGNATURES:0.000=4=4;
#TICKCOUNTS:0.000=4;
#COMBOS:0.000=1;
#SPEEDS:0.000=1.000=0.000=0;
#SCROLLS:0.000=1.000;
#FAKES:;
#LABELS:0.000=Song Start;
#BGCHANGES:;
#KEYSOUNDS:;
#ATTACKS:
;

//---------------dance-single - ----------------
#NOTEDATA:;
#CHARTNAME:;
#STEPSTYPE:dance-single;
#DESCRIPTION:;
#CHARTSTYLE:;
#DIFFICULTY:Hard;
#METER:12;
#RADARVALUES:0.593984,0.565327,0.259361,0.016210,0.239099,513.000000,481.000000,32.000000,2.000000,0.000000,0.000000,0.000000,0.000000,0.000000,0.593984,0.565327,0.259361,0.016210,0.239099,513.000000,481.000000,32.000000,2.000000,0.000000,0.000000,0.000000,0.000000,0.000000;
#CREDIT:;
#DISPLAYBPM:136.000000;
#NOTES:
0000
0000
0000
0000
,
0000
0000
0000
0000
,
0000
0000
0000
0000
,
0000
0000
0000
0000
,
1000
0010
1000
0100
0010
0001
0100
0001
,
1000
0010
0100
0001
0010
0100
1000
0000
,
0001
1000
0010
1000
0100
0010
0001
0100
,
0010
1000
0010
1000
0100
0010
0001
0000
,
0100
0001
0010
0100
0010
0100
1000
0010
,
1000
0001
0100
0001
0010
0100
1000
0000
,
0100
0010
0001
0100
0010
1000
0001
1000
,
0100
0010
0001
0100
0001
1000
0100
0000
,
1000
0000
0010
0100
0000
0010
0100
0000
0001
0000
0000
0000
0101
0000
0000
0000
,
0100
0000
0001
1000
0000
0001
1000
0000
0010
0000
0000
0000
1010
0000
0000
0000
,
0010
0000
0100
0001
0000
0100
0001
0000
0010
0000
0000
0100
0000
0000
1000
0000
,
0010
1000
0001
0100
0001
0010
0100
1000
,
0010
0000
1000
0100
0000
1000
0100
0000
0010
0000
0000
0000
0110
0000
0000
0000
,
0100
0000
0010
0001
0000
0010
0001
0000
1000
0000
0000
0000
1100
0000
0000
0000
,
0001
1000
0010
1000
0100
0010
0001
0100
,
0010
1000
0001
0000
1001
0000
0011
0000
,
1001
0000
1000
0100
0000
1000
0100
0000
0010
0000
0001
0000
0100
0000
0000
0000
,
0110
0000
0010
1000
0000
0010
1000
0000
0001
0000
0100
0000
0010
0000
0000
0000
,
1000
0001
0010
0100
0010
0001
0100
0010
,
0100
0001
0010
0100
1000
0010
0100
0000
,
0101
0000
0001
1000
0000
0001
1000
0000
0010
0000
0100
0000
0001
0000
0000
0000
,
1000
0010
1000
0100
0010
0001
0100
0000
,
0001
1000
0010
0100
0010
1000
0100
1000
,
0010
0000
1000
0001
0000
1000
0001
0000
0011
0000
0000
0000
1100
0000
0000
0000
,
0101
0000
0001
0010
0000
0001
0010
0000
0100
0000
1000
0000
0001
0000
0000
0000
,
1010
0000
0010
0100
0000
0010
0100
0000
0010
0000
1000
0000
0001
0000
0000
0000
,
0010
0001
1000
0010
0100
0010
1000
0100
,
0010
0001
0100
0001
0010
0100
1000
0001
,
0010
0000
0001
0100
0000
0001
0100
0000
0010
0000
1000
0000
0100
0000
0000
0000
,
1000
0001
0100
0010
1000
0001
0100
0000
,
0010
0100
0001
1000
0100
0010
0100
1000
,
0001
0000
1000
0100
0000
1000
0100
0000
0010
0000
0000
0000
0011
0000
0000
0000
,
1001
0000
0001
1000
0010
1000
0100
0010
,
0000
0000
0001
0100
0000
0100
0010
0000
1000
0000
0010
0000
0100
0000
0001
0000
,
0101
0000
1000
0010
1000
0001
0010
0100
,
0000
0000
1000
0001
0000
0001
0100
0000
0010
0000
1000
0000
0001
0000
0010
0000
,
0110
0000
0001
1000
0010
1000
0100
0010
,
0000
0000
0001
1000
0000
1000
0001
0000
0010
0000
0001
0000
1000
0000
0100
0000
,
1000
0000
0010
0100
0000
0010
0100
0000
0001
0000
0000
1000
0000
0000
0001
0000
,
0101
0000
1001
0110
,
1001
0000
0010
1000
0000
0010
1000
0000
0100
0000
0010
0000
0001
0000
0000
0000
,
0101
0000
1000
0001
0000
1000
0001
0000
0010
0000
0100
0000
1000
0000
0000
0000
,
1100
1000
0010
0100
0001
0010
0001
0100
,
0001
1000
0010
1000
0100
0010
0001
1000
,
0010
0000
1000
0100
0000
1000
0001
0000
0100
0000
0010
0000
1000
0000
0000
0000
,
0001
1000
0010
0100
0001
0010
0100
0000
,
0010
0001
1000
0001
0010
0100
1000
0010
,
1000
0001
0100
0000
0101
0000
1010
0000
,
1100
0000
0010
0100
0000
0010
0100
0000
0001
0000
1000
0000
0100
0000
0000
0000
,
0110
0000
0001
0100
0000
0001
0100
0000
0010
0000
1000
0000
0001
0000
0000
0000
,
0011
0001
1000
0010
1000
0100
0010
0100
,
0010
0001
0100
0001
1000
0010
0100
0001
,
0010
0001
0100
0010
1000
0001
0100
0000
,
0100
0001
0010
0100
1000
0001
0010
0000
,
0010
0001
0100
0001
1000
0010
1000
0100
,
1000
0000
0001
0000
0000
0000
1001
0000
0000
0000
1000
0100
1000
0000
0001
0000
,
0101
0000
0010
1000
0010
0100
0001
0010
,
0000
0000
0001
1000
0000
1000
0001
0000
0010
0000
0100
0000
0010
0000
0001
0000
,
1001
0000
0100
0001
0010
0100
1000
0010
,
0000
0000
0100
0001
0000
0001
0100
0000
0010
0000
0100
0000
0001
0000
1000
0000
,
1010
0000
0001
0010
0001
1000
0010
0100
,
0000
0000
0001
0010
0000
0010
0100
0000
1000
0000
0010
0000
0100
0000
0001
0000
,
0010
0000
0001
0100
0000
0001
0100
0000
0010
0000
0000
1000
0000
0000
0100
0000
,
1000
0000
0001
0000
1000
0000
0010
0100
0000
0100
0001
0000
0010
0000
0001
2000
,
0002
0000
0000
0000
,
0000
0000
0000
3003
;

//---------------dance-single - ----------------
#NOTEDATA:;
#CHARTNAME:;
#STEPSTYPE:dance-single;
#DESCRIPTION:;
#CHARTSTYLE:;
#DIFFICULTY:Medium;
#METER:10;
#RADARVALUES:0.452724,0.452261,0.340412,0.259361,0.044578,391.000000,349.000000,42.000000,32.000000,0.000000,0.000000,0.000000,0.000000,0.000000,0.452724,0.452261,0.340412,0.259361,0.044578,391.000000,349.000000,42.000000,32.000000,0.000000,0.000000,0.000000,0.000000,0.000000;
#CREDIT:;
#DISPLAYBPM:136.000000;
#NOTES:
0000
0000
0000
0000
,
0000
0000
0000
0000
,
0000
0000
0000
0000
,
0000
0000
0000
0000
,
1000
0000
0010
0000
1000
0001
0100
0000
,
0001
0010
0001
1000
0100
0000
0010
0000
,
0100
0000
1000
0000
0010
1000
0001
0000
,
0010
0001
0010
0100
1000
0000
0001
0000
,
0100
0000
0001
0000
0010
0100
1000
0000
,
0010
1000
0100
1000
0001
0000
0100
0000
,
0001
0000
0010
0000
0001
1000
0100
0000
,
1000
0100
1000
0010
0100
0000
0001
0000
,
1000
0000
0000
0010
0000
0000
0100
0000
0001
0000
0000
0000
0101
0000
0000
0000
,
0001
0000
0000
0010
0000
0000
0100
0000
1000
0000
0000
0000
1100
0000
0000
0000
,
0010
0000
0000
1000
0000
0000
0001
0000
0100
0000
0000
0000
0110
0000
0000
0000
,
0001
1000
0010
1000
0100
0010
0001
0000
,
0100
0000
0000
0010
0000
0000
1000
0000
0001
0000
0000
0000
0011
0000
0000
0000
,
0001
0000
0000
0100
0000
0000
0010
0000
1000
0000
0000
0000
1010
0000
0000
0000
,
1000
0000
0000
0001
0000
0000
0010
0000
0001
0000
0000
1000
0000
0000
0100
0000
,
0010
0000
1001
0110
,
1001
0000
1000
0010
0000
0100
0001
0000
,
0011
0000
0001
1000
0000
0010
0100
0000
,
1010
0000
1000
2000
0000
3002
0000
0023
,
0000
0032
0000
0203
0000
0310
1000
0001
,
2000
0000
3010
0100
0001
0000
0101
0000
,
0001
0010
0100
1000
0001
0000
1100
0000
,
0001
0010
0100
0000
0010
0100
1000
0000
,
0001
1000
0100
0000
1100
0000
0101
0000
,
1001
0000
0010
1000
0000
0001
0100
0000
,
0110
0000
0001
0010
0000
0100
1000
0000
,
1010
0000
0010
0020
0000
0230
0000
0302
,
0000
2003
0000
3200
0000
1300
0001
0010
,
0002
0000
1003
0100
0010
0000
0011
0000
,
0001
1000
0010
1000
0100
0000
1001
0000
,
1000
0001
0010
0000
0100
1000
0001
0000
,
0100
0010
1000
0001
0010
0100
1000
0000
,
1100
0000
1000
0010
0100
0000
0001
0001
,
0000
0010
0000
0002
0000
1003
0001
0100
,
0110
0000
0010
1000
0001
0000
0100
0100
,
0000
0001
0000
2000
0000
3010
0100
0001
,
0011
0000
0001
0100
0010
0000
1000
1000
,
0000
0100
0000
0020
0000
0130
1000
0001
,
0010
0000
0000
0001
0000
0000
0100
0000
0010
0000
0000
1000
0000
0000
0100
0000
,
1000
0000
1010
0101
,
0110
0000
0001
1000
0100
1000
0001
0000
,
0101
0000
0010
1000
0100
1000
0010
0000
,
1100
0000
0010
0020
0000
2030
0000
3002
,
0000
0023
0000
0230
0000
1300
0001
0100
,
0020
0000
1030
0001
0100
0000
1010
0000
,
1000
0001
0010
0100
0010
0000
0011
0000
,
0001
0100
1000
0000
0010
1000
0001
0000
,
0010
0100
1000
0000
1001
0000
1100
0000
,
1001
0000
0010
1000
0100
0010
0001
0000
,
0011
0000
0100
0001
0010
0100
1000
0000
,
1010
0000
0001
0002
0000
0023
0000
0032
,
0000
2003
0000
3200
0000
1300
0010
0100
,
0002
0000
1003
0010
0100
0000
0110
0000
,
0100
0001
0010
0001
1000
0000
0101
0000
,
0001
0010
0100
0000
1000
0001
0010
0000
,
0001
0010
0001
0100
0010
1000
0100
0000
,
1100
0000
0010
0001
1000
0000
0100
0100
,
0000
1000
0000
0002
0000
0013
0100
1000
,
1010
0000
0010
0100
0001
0000
1000
1000
,
0000
0010
0000
0200
0000
0310
1000
0001
,
0011
0000
0001
1000
0100
0000
0010
0010
,
0000
0001
0000
2000
0000
3001
1000
0100
,
0010
0000
0000
0001
0000
0000
1000
0000
0010
0000
0000
0100
0000
0000
0001
0000
,
1000
0001
0101
0000
0100
0010
0110
0000
,
2002
0000
0000
0000
,
0000
0000
0000
3003
;

//---------------dance-single - ----------------
#NOTEDATA:;
#CHARTNAME:;
#STEPSTYPE:dance-single;
#DESCRIPTION:;
#CHARTSTYLE:;
#DIFFICULTY:Easy;
#METER:7;
#RADARVALUES:0.292939,0.310930,0.121576,0.129681,0.000000,253.000000,238.000000,15.000000,16.000000,0.000000,0.000000,0.000000,0.000000,0.000000,0.292939,0.310930,0.121576,0.129681,0.000000,253.000000,238.000000,15.000000,16.000000,0.000000,0.000000,0.000000,0.000000,0.000000;
#CREDIT:;
#DISPLAYBPM:136.000000;
#NOTES:
0000
0000
0000
0000
,
0000
0000
0000
0000
,
0000
0000
0000
0000
,
0000
0000
0000
0000
,
1000
0100
0010
0001
,
0100
0001
1000
0001
,
0010
1000
0100
0010
,
0001
0100
0010
1000
,
0100
0010
0100
1000
,
0010
0100
0001
1000
,
0001
0010
0100
1000
,
0010
0100
0001
1000
,
0001
0100
0010
1001
,
0100
0010
1000
0110
,
0010
1000
0001
0010
,
0100
1000
0010
0100
,
0001
1000
0100
0110
,
0100
1000
0010
1001
,
0001
0001
1000
1000
,
0020
0000
0100
0130
,
1010
1000
0100
0010
,
0011
0010
0001
1000
,
0010
1000
0100
0010
,
0001
0100
0001
0010
,
0100
1000
0001
0100
,
0010
0100
0001
1000
,
0010
0010
0100
0100
,
0002
0000
1000
1003
,
0101
0001
0010
0100
,
1100
0001
1000
0010
,
1000
0001
0010
0100
,
0001
0010
0100
1000
,
0010
0100
0001
1000
,
0100
0010
0001
0100
,
0001
1000
0010
1000
,
2002
0000
0000
3003
,
0010
1000
0100
1000
,
0002
0000
0010
0103
,
0001
1000
0010
1000
,
0200
0000
0001
1300
,
0100
1000
0010
0100
,
0020
0000
0100
1030
,
0001
1000
0010
1000
,
0002
0000
0010
0013
,
0011
0001
0100
1000
,
1100
0010
0100
0001
,
1000
0001
0010
0100
,
0010
0001
0100
1000
,
0001
1000
0100
1000
,
0010
0100
0001
0010
,
0001
0100
1000
0001
,
2000
0000
0100
3100
,
1010
0010
1000
0001
,
0101
1000
0100
0010
,
0100
0010
0100
1000
,
0001
0010
0100
1000
,
0001
0001
1000
0010
,
1000
0100
1000
0010
,
0100
0100
0010
1000
,
0220
0000
0000
0330
,
0010
1000
0100
1000
,
0002
0000
0010
1003
,
0001
0100
0010
1000
,
0200
0000
0001
1300
,
0001
1000
0010
1000
,
0020
0000
0001
0130
,
0010
0010
1000
0001
,
0100
0000
0000
0000
,
2002
0000
0000
0000
,
0000
0000
0000
3003
;

//---------------dance-single - ----------------
#NOTEDATA:;
#CHARTNAME:;
#STEPSTYPE:dance-single;
#DESCRIPTION:;
#CHARTSTYLE:;
#DIFFICULTY:Beginner;
#METER:4;
#RADARVALUES:0.147049,0.165343,0.040525,0.064840,0.000000,127.000000,122.000000,5.000000,8.000000,0.000000,0.000000,0.000000,0.000000,0.000000,0.147049,0.165343,0.040525,0.064840,0.000000,127.000000,122.000000,5.000000,8.000000,0.000000,0.000000,0.000000,0.000000,0.000000;
#CREDIT:;
#DISPLAYBPM:136.000000;
#NOTES:
// measure 0
0000
0000
0000
0000
,  // measure 1
0000
0000
0000
0000
,  // measure 2
0000
0000
0000
0000
,  // measure 3
0000
0000
0000
0000
,  // measure 4
1000
0000
0001
0000
,  // measure 5
0100
0000
0010
0000
,  // measure 6
1000
0000
0100
0000
,  // measure 7
0010
0000
0001
0000
,  // measure 8
0100
0000
0001
0000
,  // measure 9
1000
0000
0010
0000
,  // measure 10
0100
0000
0010
0000
,  // measure 11
1000
0000
0001
0000
,  // measure 12
1001
0000
0000
0010
,  // measure 13
0010
0000
0000
0100
,  // measure 14
0100
0000
0001
0000
,  // measure 15
1000
0000
0010
0000
,  // measure 16
0110
0000
0000
0001
,  // measure 17
0001
0000
0000
1000
,  // measure 18
1000
0000
0001
0000
,  // measure 19
0100
0000
0001
0001
,  // measure 20
0002
0000
0003
0000
,  // measure 21
2000
0000
3000
0000
,  // measure 22
0010
0000
1000
0000
,  // measure 23
0010
0000
0100
0000
,  // measure 24
0001
0000
0001
0000
,  // measure 25
1000
0000
1000
0000
,  // measure 26
0010
0000
1000
0000
,  // measure 27
0100
0000
0010
0010
,  // measure 28
0020
0000
0030
0000
,  // measure 29
0200
0000
0300
0000
,  // measure 30
0001
0000
0010
0000
,  // measure 31
0001
0000
1000
0000
,  // measure 32
0100
0000
0100
0000
,  // measure 33
1000
0000
0010
0000
,  // measure 34
1000
0000
0001
0000
,  // measure 35
1001
0000
0000
0000
,  // measure 36
0001
0001
0001
0001
,  // measure 37
0000
0000
0000
0000
,  // measure 38
1000
1000
1000
1000
,  // measure 39
0000
0000
0000
0000
,  // measure 40
0010
0010
0010
0010
,  // measure 41
0000
0000
0000
0000
,  // measure 42
0100
0000
0001
0000
,  // measure 43
1000
0000
0100
0100
,  // measure 44
0200
0000
0300
0000
,  // measure 45
0020
0000
0030
0000
,  // measure 46
0001
0000
0100
0000
,  // measure 47
0010
0000
0100
0000
,  // measure 48
0010
0000
0010
0000
,  // measure 49
1000
0000
0001
0000
,  // measure 50
0010
0000
0001
0000
,  // measure 51
0001
0000
1000
1000
,  // measure 52
2000
0000
3000
0000
,  // measure 53
0002
0000
0003
0000
,  // measure 54
0010
0000
0100
0000
,  // measure 55
1000
0000
0010
0000
,  // measure 56
0100
0000
0100
0000
,  // measure 57
0010
0000
1000
0000
,  // measure 58
0100
0000
0010
0000
,  // measure 59
0110
0000
0000
0000
,  // measure 60
0001
0001
0001
0001
,  // measure 61
0000
0000
0000
0000
,  // measure 62
1000
1000
1000
1000
,  // measure 63
0000
0000
0000
0000
,  // measure 64
0100
0100
0100
0100
,  // measure 65
0000
0000
0000
0000
,  // measure 66
0010
0000
0001
0000
,  // measure 67
1000
0000
0000
0000
,  // measure 68
1001
0000
0000
0000
;
