#TITLE:ABSOLUTE;
#SUBTITLE:;
#ARTIST:dj TAKA;
#TITLETRANSLIT:;
#SUBTITLETRANSLIT:;
#ARTISTTRANSLIT:;
#GENRE:;
#CREDIT:;
#BANNER:ABSOLUTE-bn.png;
#BACKGROUND:ABSOLUTE-bg.png;
#LYRICSPATH:;
#CDTITLE:;
#MUSIC:ABSOLUTE.ogg;
#OFFSET:0.000000;
#SAMPLESTART:20.002001;
#SAMPLELENGTH:15.000000;
#SELECTABLE:YES;
#DISPLAYBPM:38.000000:144.000000;
#BPMS:0.000000=144.000000
,238.000000=130.434998
,239.000000=123.288002
,240.000000=103.447998
,241.000000=98.901001
,242.000000=82.569000
,243.000000=58.064999
,244.000000=38.014999
;
#STOPS:
;
#BGCHANGES:;
#KEYSOUNDS:;
#ATTACKS:;

//---------------dance-single - ----------------
#NOTES:
     dance-single:
     :
     Beginner:
     3:
     0.177922,0.221818,0.127273,0.000000,0.000000,137.000000,123.000000,14.000000,0.000000,0.000000,0.000000,0.177922,0.221818,0.127273,0.000000,0.000000,137.000000,123.000000,14.000000,0.000000,0.000000,0.000000:
0000
0000
0000
0000
,
0000
0000
0000
0000
,
0000
0000
0000
0000
,
1000
0000
0001
0000
,
1000
0000
0001
0000
,
1000
0000
0001
0000
,
1000
0000
0001
0000
,
1000
0000
0001
0000
,
0100
0000
0100
0000
,
0010
0010
0010
0000
,
0100
0100
0100
0000
,
0010
0010
0010
0000
,
1000
0000
1000
0000
,
0100
0000
0100
0000
,
0001
0000
0001
0000
,
0100
0000
0100
0000
,
1000
0000
1000
0000
,
0100
0000
0100
0000
,
0001
0000
0001
0000
,
0100
0000
0100
0000
,
0100
0100
0100
0000
,
1000
0000
0100
0000
,
0001
0000
0100
0000
,
0001
0000
0100
0000
,
1000
0000
0100
0000
,
1000
0000
0100
0000
,
0001
0000
0100
0000
,
0001
0000
0100
0000
,
1000
0000
0100
0000
,
0100
0100
0100
0000
,
0001
0000
0000
0000
,
0001
0000
0000
0000
,
0001
0000
0001
0000
,
0001
0001
0001
0000
,
1000
0000
0000
0000
,
1000
0000
0000
0000
,
1000
0000
1000
0000
,
1000
1000
1000
1000
,
1000
0000
1001
0000
,
1000
0000
1001
0000
,
0010
0000
0110
0000
,
0010
0000
0110
0000
,
0001
0000
1001
0000
,
0001
0000
1001
0000
,
0010
0000
0110
0000
,
0010
0010
0010
0000
,
1000
0000
1001
0000
,
1000
0000
1001
0000
,
0010
0000
0110
0000
,
0010
0000
0110
0000
,
0001
0000
1001
0000
,
0001
0000
1001
0000
,
0010
0000
0110
0000
,
0010
0010
0010
0000
,
1000
0000
1000
0000
,
0100
0000
0100
0000
,
0001
0000
0001
0000
,
0100
0000
0100
0000
,
1000
0000
1000
0000
,
0100
0000
0100
0000
,
0001
0000
0001
0000
,
0001
0000
0000
0000
,
0000
0000
0000
0000
;

//---------------dance-single - ----------------
#NOTES:
     dance-single:
     :
     Easy:
     4:
     0.185714,0.221818,0.009091,0.000000,0.000000,143.000000,142.000000,1.000000,0.000000,0.000000,0.000000,0.185714,0.221818,0.009091,0.000000,0.000000,143.000000,142.000000,1.000000,0.000000,0.000000,0.000000:
0000
0000
0000
0000
,
0000
0000
0000
0000
,
0000
0000
0000
0000
,
1000
0000
0001
0000
,
1000
0000
0001
0000
,
1000
0000
0001
0000
,
1000
0000
0001
0000
,
1000
0000
0010
0010
,
1000
0000
0100
0000
,
0001
0000
0010
0000
,
1000
0100
1000
0000
,
1000
0001
1000
0001
,
0000
0100
0000
0010
,
0000
0100
0000
0100
,
0000
1000
0000
0001
,
0000
1000
0000
0001
,
0000
0100
0000
1000
,
0000
0100
0000
0001
,
0000
0100
0000
1000
,
0000
1000
0100
0001
,
0000
0000
0000
1000
,
0010
0000
0010
0001
,
0000
0100
0000
0100
,
0010
0000
0010
0001
,
0000
1000
0000
1000
,
0100
0000
0100
0010
,
0000
0001
0000
0001
,
0010
0000
0010
0100
,
0000
0001
0000
1000
,
0001
0001
0000
1001
,
0000
0100
0000
0100
,
0000
0100
0000
0100
,
0000
0001
0001
0100
,
0100
0001
0001
1000
,
0000
0001
0000
0100
,
0000
1000
0000
0100
,
0000
1000
0100
0001
,
0100
0000
0100
0001
,
0000
1000
0000
0100
,
0000
0010
0010
0010
,
0000
0001
0000
0010
,
0000
0100
0100
0100
,
0000
0100
0000
0001
,
0000
1000
1000
1000
,
0000
1000
1000
0010
,
0010
0010
0100
0000
,
0000
0100
0000
0010
,
0000
0100
0010
0100
,
0000
1000
0000
0001
,
0000
1000
0001
1000
,
0000
1000
0000
0100
,
0000
1000
0100
1000
,
0000
0100
0100
0100
,
0100
0000
0001
0000
,
0000
0010
0010
0100
,
0000
0001
0000
0010
,
0000
0001
0010
0001
,
0000
0100
0000
0001
,
0000
0100
0001
0100
,
0000
1000
0000
0000
,
0010
0000
0010
0000
,
0010
0000
0000
0000
,
0000
0000
0000
0000
;

//---------------dance-single - ----------------
#NOTES:
     dance-single:
     :
     Medium:
     8:
     0.370130,0.443636,0.300000,0.000000,0.000000,285.000000,252.000000,33.000000,0.000000,0.000000,0.000000,0.370130,0.443636,0.300000,0.000000,0.000000,285.000000,252.000000,33.000000,0.000000,0.000000,0.000000:
0000
0000
0000
0000
,
0000
0000
0000
0000
,
0000
0000
0000
0000
,
1000
0000
0100
0000
0010
0000
0001
0100
,
1000
0100
0001
1000
,
0010
0000
0100
0000
1001
0000
0010
0001
,
1000
0100
0001
1100
,
1000
0100
0001
0100
1000
0000
1000
0100
,
0001
1000
0100
0010
,
0100
0001
0100
0010
,
0001
1000
0010
0100
,
0001
0000
0010
0000
0000
0001
1000
0000
,
1000
0001
1000
0000
1001
0000
0010
0001
,
0010
0000
0010
1001
,
1000
0100
1000
0000
0011
0000
0010
0100
,
0010
0000
0001
0110
,
0010
0100
0001
0000
1001
0000
0010
0100
,
1000
0000
1000
0011
,
0010
0001
0100
0000
0101
0000
0010
1000
,
0100
0100
1001
0100
,
1000
0100
0001
0100
1000
0000
1001
0000
,
0010
0100
0001
0000
0010
0100
1000
0000
,
1001
0000
0011
1100
,
0010
1000
0001
0000
0100
0001
1000
0000
,
0110
0000
1010
0101
,
0010
0100
0001
0000
0100
1000
0100
0000
,
1010
0000
1001
0110
,
0001
0010
1000
0000
0010
0100
0001
0100
,
1000
0000
0000
0000
,
0100
0010
0100
0001
1000
0000
0001
0000
,
1000
0000
0001
0000
,
1000
0000
0001
0100
,
0010
0100
0001
0000
1001
0000
0110
0000
,
1000
0100
0010
0100
1000
0000
1010
0000
,
0101
0000
1000
0000
,
0001
0000
1000
0010
,
0100
0001
1000
0000
0001
0000
0100
0000
,
1000
0100
0010
0001
0010
0000
1100
0000
,
1001
0000
1000
0000
,
0001
0000
1000
0000
,
0001
1000
0010
0001
,
0100
1000
0001
1000
,
0001
0000
0000
0000
,
0000
0100
0010
1000
,
0001
0000
0010
0000
,
0100
0000
0010
1001
,
0100
0000
1001
0000
1000
0100
1000
0000
,
0001
0000
1001
0000
1000
0100
0001
0000
,
0100
0000
1100
0000
1000
0010
1000
0000
,
0010
0000
0110
0000
0010
1000
0001
0000
,
0100
0000
0101
0000
0010
0001
1000
0000
,
0100
0000
1100
0000
0010
1000
0100
0000
,
1000
0000
0100
0000
,
0001
0100
0010
0000
,
0001
0100
0010
1000
0100
0000
0001
1000
,
0100
0000
0000
0000
0010
0010
0010
0000
,
1000
0001
0010
0100
1000
0000
0010
1000
,
0100
0000
0000
0000
1000
1000
1000
0000
,
1000
0100
1000
0001
1000
0000
0001
0010
,
1000
0000
0000
0000
0010
0010
0010
0000
,
0100
0000
1000
0000
0001
0000
1000
0010
,
0100
0000
0000
0000
,
0000
0000
0000
0000
;

//---------------dance-single - ----------------
#NOTES:
     dance-single:
     :
     Hard:
     11:
     0.414286,0.471364,0.072727,0.000000,0.077273,319.000000,311.000000,8.000000,0.000000,0.000000,0.000000,0.414286,0.471364,0.072727,0.000000,0.077273,319.000000,311.000000,8.000000,0.000000,0.000000,0.000000:
0000
0000
0000
0000
,
0000
0000
0000
0000
,
0000
0000
0000
0000
,
0100
0000
0000
0000
0000
0000
0000
0100
,
0010
0000
0000
0000
,
0001
0000
0000
0000
0000
0000
0000
0001
,
1000
0000
0000
0000
,
0010
0000
1000
0100
1000
0000
0001
0000
0100
0000
0000
0000
0001
0000
0010
0000
,
1000
0000
0000
0010
0000
0001
0000
0100
,
0000
0001
0000
0100
0000
1000
0000
0100
,
0000
0001
0000
1000
0000
0010
0000
0001
,
0000
0010
0000
1000
0000
0001
1000
0000
,
1000
0000
0100
0010
0100
0000
1000
0000
0001
0000
0000
0000
0001
0000
0010
0000
,
0001
0100
0010
1000
,
0100
0000
1000
0001
1000
0000
0010
0000
0100
0000
0000
0000
0010
0000
1000
0000
,
0100
0001
0100
1000
,
0010
0000
0100
0001
0100
0000
1000
0000
0100
0000
0000
0000
0001
0000
1000
0000
,
0010
1000
0100
0001
,
0100
0000
0010
0001
1000
0000
0100
0000
0010
0000
0000
0000
0001
0000
0100
0000
,
1000
0100
0010
1000
,
0010
0000
0000
0000
0001
0000
0000
0000
0000
0000
0001
0100
0000
0000
0010
0000
,
1000
0000
0000
0100
0000
0000
1000
0000
0010
0000
0000
0100
0000
0000
0001
0000
,
0100
1000
0100
0001
,
0010
0000
0000
0100
0000
0000
0001
0000
0100
0000
0000
0010
0000
0000
1000
0000
,
0001
1000
0010
0100
,
0001
0000
0000
0010
0000
0000
0100
0000
0001
0000
0000
0100
0000
0000
1000
0000
,
0010
0001
1000
0001
,
1000
0000
0000
0001
0000
0000
0100
0000
0001
0000
0000
1000
0000
0000
0100
0000
,
0001
0100
0010
0001
,
1000
0010
0100
1000
0100
0000
1001
0000
,
1000
0100
0001
0100
,
1000
0010
0100
0001
,
0001
1000
0010
0100
0001
0010
1000
0010
,
0100
1000
0010
1000
0001
0000
0110
0000
,
0010
1000
0100
1000
,
0001
0100
0010
1000
,
0010
0100
1000
0001
1000
0100
0010
0001
,
0010
0100
1000
0100
0010
0000
1001
0000
,
0100
0010
0001
0100
,
1000
0100
0010
0000
0001
0100
1000
0000
,
0010
0101
0010
1100
,
1000
0100
0001
0000
0001
0010
1000
0000
,
1000
0101
0010
1100
,
0010
0100
0100
0000
1000
0001
0001
0000
,
1000
0000
0100
0000
0001
0000
1000
1000
,
1000
0000
1001
0000
1000
0100
0010
0001
,
0010
0001
0100
1000
0100
0001
0010
1000
,
0010
0100
0001
0100
0010
0001
1000
0010
,
1000
0100
0010
0001
0100
0010
1000
0010
,
1000
0100
0001
0100
0010
0001
0100
0001
,
0100
0010
0100
0010
1000
0010
0100
0001
,
0100
0010
1000
0010
1000
0100
0010
0000
,
1000
0001
1000
0001
,
1000
0001
1000
0100
1000
0010
1000
0000
,
0001
0000
0010
0100
0010
0000
1000
0000
0001
0000
0000
0000
1000
0000
0100
0000
,
0001
0100
1000
0001
,
0100
0000
0001
1000
0001
0000
0100
0000
0010
0000
0000
0000
1000
0000
0100
0000
,
0010
0001
0100
0010
,
1000
0000
0010
0100
0001
0000
1000
0000
0001
0000
0000
0000
1000
0000
0100
0000
,
0010
0000
0000
0000
,
0100
0000
0001
0000
1000
0000
0100
0010
,
0001
0000
0000
0000
,
0000
0000
0000
0000
;

//---------------dance-double - ----------------
#NOTES:
     dance-double:
     :
     Easy:
     4:
     0.194805,0.277273,0.136364,0.000000,0.000000,150.000000,135.000000,15.000000,0.000000,0.000000,0.000000,0.194805,0.277273,0.136364,0.000000,0.000000,150.000000,135.000000,15.000000,0.000000,0.000000,0.000000:
00000000
00000000
00000000
00000000
,
00000000
00000000
00000000
00000000
,
00000000
00000000
00000000
00000000
,
00011000
00000000
00000100
00000000
,
00010000
00000000
01000000
00000000
,
00001000
00000000
00000100
00000000
,
00010000
00000000
01000000
00000000
,
00001000
00000000
00010000
00000000
,
00011000
00000000
00010000
00000000
,
00001000
00000000
00000100
00000000
,
00000001
00000000
00000100
00001000
,
00010000
00000000
00010000
00011000
,
00010000
00000000
01000000
10000000
,
00010000
00000000
00000000
00000000
,
01000000
00000000
00001000
00010000
,
00001000
00000000
00000000
00000000
,
00010000
00001000
00010000
00000010
,
00000100
00000000
00000000
00000000
,
00000001
00001000
00000001
00000010
,
00000100
00000000
00000100
00000000
,
00000100
00000000
00001000
00001001
,
00001000
00000000
00000100
00010000
,
00001000
00000000
00000000
00000000
,
00011000
00000000
01000000
00010000
,
10000000
00000000
00000000
00000000
,
10010000
00000000
00100000
00010000
,
00001000
00000000
00000000
00000000
,
00011000
00000000
00000100
00010000
,
00001000
00000000
00000000
00011000
,
00000000
00000000
00000000
00000000
,
00001000
00000000
00000100
00000000
,
00010000
00000000
01000000
00000000
,
00001000
00000100
00010000
01000000
,
00001000
00010000
00001000
00011000
,
00010000
00000000
01000000
00000000
,
10000000
00000000
01000000
00000000
,
00010000
01000000
10000000
01000000
,
10000000
00010000
10000000
10010000
,
00100000
00000000
00100000
00000000
,
00010000
00000000
00010000
00000000
,
00001000
00000000
00001000
00000000
,
00000100
00000000
00000100
00000000
,
00000001
00000001
00000010
00000010
,
00000100
00000100
00001000
00001000
,
00000100
00000000
00010000
00000000
,
00011000
00000000
00001000
00000000
,
00000100
00000000
00000010
00000000
,
00001000
00000000
00010000
00000000
,
00100000
00000000
01000000
00000000
,
10000000
00000000
00010000
00000000
,
01000000
00000000
00010000
00000000
,
00100000
00000000
00001000
00000000
,
00000100
00000000
00000001
00000000
,
00000100
00000000
00000100
00000000
,
00000110
00000000
00001000
00000100
,
00010000
00000000
00000000
00000000
,
00011000
00000000
00001000
01000000
,
00010000
00000000
00000000
00000000
,
10010000
00000000
01000000
00100000
,
01000000
00000000
00000000
00000000
,
01100000
00000000
10000000
01000000
,
00100000
00000000
00000000
00000000
,
00000000
00000000
00000000
00000000
;

//---------------dance-double - ----------------
#NOTES:
     dance-double:
     :
     Medium:
     7:
     0.293506,0.360455,0.100000,0.000000,0.000000,226.000000,215.000000,11.000000,0.000000,0.000000,0.000000,0.293506,0.360455,0.100000,0.000000,0.000000,226.000000,215.000000,11.000000,0.000000,0.000000,0.000000:
00000000
00000000
00000000
00000000
,
00000000
00000000
00000000
00000000
,
00000000
00000000
00000000
00000000
,
10000000
00000000
00010000
00000000
00100000
00000000
00001000
00010000
,
00000100
00000000
00000000
00000000
,
00001000
00000000
00000001
00000000
00000010
00000000
00000100
00001000
,
00000010
00000000
00000000
00000000
,
00010000
00000000
00001000
00000000
00100000
00000000
00010000
00100000
,
10000000
00000000
00000000
10000000
00000000
01000000
00000000
00100000
,
00000000
00010000
00000000
00100000
00000000
00001000
00000000
00010000
,
00000000
00000010
00000000
00010000
00000000
01000000
00000000
00001000
,
00000000
00000100
00000000
00010000
00000000
00001000
00011000
00000000
,
00001000
00000000
00100000
00000000
01000000
00000000
10000000
00010000
,
10000000
00000000
00000000
00000000
,
10000000
00000000
00100000
00000000
00010000
00000000
00010000
00001000
,
00010000
00000000
00000000
00000000
,
00010000
00000000
00000100
00000000
00000010
00000000
00001000
00000001
,
00001000
00000000
00000000
00000000
,
00000001
00000000
00000010
00000000
00000100
00000000
00001000
00000010
,
00000100
00000000
00000100
00000000
,
00001000
00000000
00001000
00011000
,
00010000
00100000
01000000
00000000
10000000
01000000
00010000
00000000
,
10010000
00000000
01000000
00010000
,
01000000
00001000
00010000
00000000
00000010
00001000
00000100
00000000
,
00001001
00000000
00000100
00000010
,
00000010
00000100
00000001
00000000
00001000
00000100
00000010
00000000
,
00001001
00000000
00000000
00000000
,
00000001
00000100
00001000
00000000
00010000
00001000
00010000
00000000
,
00011000
00000000
00010000
00000000
,
00001000
00000000
00010000
00011000
,
00001000
00000000
01000000
00000000
,
00010000
00000000
10000000
00000000
,
01000000
01000000
10000000
00010000
,
10000000
01000000
00100000
00001000
00010000
00000000
00000000
00000000
,
00001000
00000000
00000100
00000000
,
00000001
00000000
00000100
00000000
,
00001000
00000100
00000001
00000100
,
00000001
00000010
00000100
00010000
00001000
00000000
00000000
00000000
,
00001000
00100000
01000000
00100000
,
00001000
00000100
00010000
00000100
,
00001000
00000010
00000100
00001000
,
00000100
00000010
00000001
00000100
,
00010000
01000000
00100000
10010000
,
01000000
00010000
00001000
00010000
,
00011000
00000000
00001100
00000000
,
00001010
00000000
00000000
00000000
00000100
00010000
00001000
01000000
,
00100000
10000000
01000000
00100000
,
00010000
00100000
10000000
00100000
,
00010000
00000000
01000000
00000000
00001000
00000000
00001000
00000100
,
00000001
00000001
00000010
00000100
,
00001000
00000001
00000010
00001000
,
00010000
00100000
01000000
00100000
,
00010000
01000000
00010000
00100000
,
00100000
00010000
01000000
00000000
00001000
00000100
00000001
00000000
,
00000010
00000100
00001000
00000000
00000100
00000000
00010000
00001000
,
00100000
00000000
00000000
00000000
,
00010000
10000000
01000000
00000000
00100000
00000000
01000000
00010000
,
00001000
00000000
00000000
00000000
,
00000100
00000001
00001000
00000000
00000010
00000000
00000100
00001000
,
00010000
00000000
00000000
00000000
,
01000000
00010000
00100000
00001000
,
00001000
00000000
00000000
00000000
,
00000000
00000000
00000000
00000000
;

//---------------dance-double - ----------------
#NOTES:
     dance-double:
     :
     Hard:
     11:
     0.419481,0.499091,0.181818,0.000000,0.050000,323.000000,303.000000,20.000000,0.000000,0.000000,0.000000,0.419481,0.499091,0.181818,0.000000,0.050000,323.000000,303.000000,20.000000,0.000000,0.000000,0.000000:
00000000
00000000
00000000
00000000
,
00000000
00000000
00000000
00000000
,
00000000
00000000
00000000
00000000
,
10000000
00100000
01000000
00010000
00100000
00000000
00001000
00000100
,
00000001
00000000
00000000
00000000
,
00000001
00000100
00000010
00001000
00000100
00000000
00010000
00100000
,
10000000
00000000
00000000
00000000
,
10000000
01000000
00100000
01000000
00010000
00000000
00001000
00000100
,
00000010
00000000
00000000
00000100
00000000
00000010
00000000
00001000
,
00000000
00000100
00000000
00010000
00000000
00100000
00000000
00010000
,
00000000
01000000
00000000
00001000
00000000
00010000
00000000
00000100
,
00000000
00000010
00000000
00001000
00000000
00000001
00001000
00000000
,
00000100
00010000
00001000
00100000
00010000
00000000
00010000
01000000
,
00100000
00000000
10100000
10010000
,
00010000
00100000
00001000
00010000
00000100
00000000
00000010
00001000
,
00000100
00000000
00001100
00001001
,
00000010
00001000
00000100
00000001
00000100
00000000
00001000
00000100
,
00010000
00000000
01001000
00011000
,
00001000
00010000
00100000
01000000
00010000
00000000
10000000
01000000
,
00010000
00001000
00000100
00010000
,
01000000
00001000
00000100
00010000
,
00001000
00000000
00010000
00001000
00000000
00000000
00010000
00000000
01000000
00000000
00100000
01000000
00000000
00000000
10000000
00000000
,
00000000
00000000
00100000
01010000
,
00001000
00000000
00010000
00000100
00000000
00000000
00000010
00000000
00000001
00000000
00000100
00001000
00000000
00000000
00000100
00000000
,
00000000
00000000
00000000
00000000
00000100
00001000
00000100
00000000
,
00010000
00000000
01000000
00010000
00000000
00000000
00100000
00000000
01000000
00000000
00010000
00000100
00000000
00000000
00001000
00000000
,
00000000
00000000
00000000
00000000
00000010
00000001
00000100
00000000
,
00000010
00000000
00000100
00001000
00000000
00000000
00010000
00000000
01000000
00000000
10000000
01000000
00100000
00000000
00010000
00000000
,
00000000
00000000
00000000
00000000
,
00100000
00100000
01000000
01000000
00010000
10000000
10010000
00000000
,
01000000
00000000
00010000
00000000
,
10000000
00000000
00010000
00000000
,
10000000
01000000
00100000
00010000
01000000
00100000
00010000
00001000
,
00100000
00010000
00001000
00000100
00000010
00000000
00000110
00000000
,
00001001
00000000
00000001
00000000
,
00001000
00000000
00000001
00000000
,
00000001
00000010
00000100
00001000
00000010
00000100
00001000
00010000
,
00000100
00001000
00010000
00100000
01000000
00000000
10010000
00000000
,
10000000
00010000
00100000
01000000
00010000
00001000
00000010
00001000
,
00000010
00000001
00000100
00000010
00001001
00000000
00000110
00000000
,
00000100
00001000
00010000
01000000
10000000
01000000
00010000
01000000
,
00100000
01000000
00010000
01000000
01010000
00000000
01100000
00000000
,
00010000
00001000
00100000
00010000
01000000
00001000
00010000
00000010
,
00001000
00000100
00010000
00001000
00011000
00000000
00101000
00000000
,
00010000
00001000
00100000
00000000
00001000
00010010
00000000
00000000
,
00011000
00000000
00000000
00000000
00100000
00001000
00010000
00000010
,
00001000
00000000
00000100
00000000
00010000
00001000
00010000
00000000
,
00010000
00100000
10000000
00000000
10000000
01000000
00010000
00000000
,
00010000
00001000
00000100
00000000
00000100
00000010
00001000
00000000
,
00001000
00100000
01000000
00000000
01000000
00010000
10000000
00000000
,
10010000
00000000
01000000
00000000
00100000
00010000
01000000
00000000
,
01000000
00010000
10000000
00000000
10000000
01000000
00010000
00000000
,
00010000
00001000
00000100
00000000
00000100
00000001
00000100
00000000
,
00000100
00000010
00001000
00000001
00001000
00000100
00010000
00000000
,
00001000
00000000
00100000
00010000
00100000
00000000
00001000
00000000
00000100
00000000
00000000
00000000
00000001
00000000
00000100
00000000
,
00000010
00000000
00000000
00000000
00001000
00001000
00000001
00000000
,
00000010
00000000
00001000
00000100
00001000
00000000
00000010
00000000
00001000
00000000
00000000
00000000
00001000
00000000
01000000
00000000
,
00100000
00000000
00000000
00000000
,
00010000
00000000
00100000
01000000
00100000
00000000
10000000
00000000
01000000
00000000
00000000
00000000
00010000
00000000
00001000
00000000
,
00000010
00000000
00000000
00000000
,
00000001
00000000
00000100
00000000
00000010
00000000
00001000
00010000
,
01000000
00000000
00000000
00000000
,
00000000
00000000
00000000
00000000
;

//---------------dance-single - ----------------
#NOTES:
     dance-single:
     :
     Challenge:
     15:
     0.670130,0.835227,0.327273,0.527273,0.663636,516.000000,480.000000,36.000000,58.000000,0.000000,0.000000,0.670130,0.835227,0.327273,0.527273,0.663636,516.000000,480.000000,36.000000,58.000000,0.000000,0.000000:
0000
0000
0000
0000
,
0000
0000
0000
0000
,
0000
0000
0000
0000
,
2000
0000
3002
0000
0023
0000
0031
1000
,
0200
0000
0000
0300
,
0020
0000
0230
0000
2300
0000
3010
0100
,
0002
0000
0000
0003
,
0200
0000
0302
0000
2003
0000
3010
0100
,
0020
0001
0000
1000
0000
0001
0000
0100
,
0000
1000
0000
0100
0000
1000
0000
0031
,
1000
0010
0100
0001
0010
0100
1000
0001
,
0100
0010
0100
0010
0100
0010
0100
0010
0100
0000
0110
0000
1001
0000
0000
0000
,
0010
0000
1000
0001
1000
0000
0100
0000
0010
0000
0000
0001
0100
0000
0001
0000
,
1000
0000
0010
0100
0001
0100
0010
0000
0000
0000
1000
0001
0010
0001
1000
0000
,
0010
0000
0100
0001
0100
0000
0010
0000
1000
0000
0000
0100
1000
0000
0001
0000
,
0010
0000
0001
1000
0100
1000
0001
0000
0000
0000
1000
0010
0100
0010
1000
0000
,
0001
0000
0010
0100
0000
0000
1000
0000
0010
0000
0100
0001
0000
0000
1000
0000
,
0001
0010
0001
0000
0100
0010
0000
1000
0000
0001
0000
1000
0000
0100
0010
0000
,
0001
0000
1000
0100
0000
0000
0010
0000
0100
0000
1000
0001
0000
0000
0010
0000
,
0100
1000
0000
1000
0010
0000
0000
0000
0100
0001
0000
0001
0010
0000
0000
0000
,
0001
1000
0000
0010
0000
0100
0000
0001
1000
0001
0000
0100
0010
0000
1001
0000
,
0100
0000
0001
0010
0000
0100
1000
0000
0010
0000
0100
0001
0000
1000
0100
0000
,
1000
0001
0010
0000
0100
1000
0000
0001
0000
0010
0000
0001
0000
0100
0010
0000
,
1000
0000
0001
1000
0000
0100
0010
0000
0100
0000
0010
0001
0000
0100
0010
0000
,
1010
0000
1010
0000
1010
0000
0000
0001
0000
1000
0100
0010
0001
0100
0010
1000
,
0001
0000
1000
0100
0000
0010
0001
0000
1000
0000
0010
0100
0000
0001
1000
0000
,
0001
1000
0100
0000
1000
0010
0000
0100
0000
0001
0000
0010
0000
0001
1000
0000
,
0010
0000
1000
0100
0000
1000
0001
0000
0010
0000
0001
0100
0000
0010
1000
0000
,
0100
1000
0000
1000
0010
0000
0000
0000
0100
0001
0000
0001
0010
0000
0000
0000
,
0001
1000
0001
0010
0100
1000
0010
0100
0001
0000
1000
0100
0010
0000
0000
0000
,
1002
0010
1000
0103
,
0012
1000
1003
0000
2010
0001
3001
0000
,
0101
0000
0110
0000
0101
0000
0001
0010
0100
0000
1100
0000
1010
0000
0010
0100
,
0001
0011
0110
1100
1002
0100
0103
0000
,
1020
0001
1000
0130
,
0201
0010
1000
0301
,
0011
0000
0110
0000
0011
0000
0001
1000
0100
0000
1100
0000
1010
0000
0010
0100
,
0001
0011
0110
1100
1001
0100
0110
1000
,
2100
0000
0001
0000
0001
0000
0000
0000
3010
1000
0000
0001
0100
0000
0010
0000
,
2000
0001
0000
0000
3020
1000
0000
0000
0230
0010
0000
0000
0302
0100
0000
0000
,
2003
0000
0001
0000
3001
0000
0000
0000
1000
0100
0000
0010
0001
0000
1000
0000
,
0020
0100
0000
0000
2030
0010
0000
0000
3002
1000
0000
0000
0203
0001
0000
0000
,
0320
0000
0100
0000
0130
0000
0000
0000
0001
1000
0000
0100
0010
0000
0001
0000
,
0100
0000
0000
0000
0002
1000
0000
0000
0023
0100
0000
0000
0032
0100
0000
0000
,
2003
0000
0100
0000
3100
0000
0010
0000
0001
1000
0000
0010
0100
0000
0001
0000
,
2000
0100
3100
0000
1100
0110
0011
0101
,
2001
0000
0010
0000
3010
0000
0000
0000
1000
0010
0000
1000
0001
0000
0100
0000
,
0002
1000
0000
0000
0203
0010
0000
0000
0320
0001
0000
0000
2030
0100
0000
0000
,
3002
0000
0100
0000
0103
0000
0000
0000
0001
0010
0000
0100
1000
0000
0010
0000
,
2000
0010
0000
0000
3200
0001
0000
0000
0320
0100
0000
0000
0032
1000
0000
0000
,
0203
0000
0010
0000
0310
0000
0000
0000
0001
1000
0000
0100
0010
0000
0001
0000
,
1000
0000
0000
0000
0002
1000
0000
0000
0203
0001
0000
0000
0320
0100
0000
0000
,
2030
0000
0100
0000
3100
0000
0000
0000
1000
0010
0000
0100
0001
0000
1000
0000
,
0002
0023
0230
2300
3002
0203
0320
2030
,
3010
0000
1000
0100
1000
0000
0001
0000
0100
0000
0000
0010
1000
0000
0001
0000
,
0010
0001
0010
0001
0100
0010
1000
0000
0001
1000
0001
1000
0100
0010
0001
0000
,
0100
0000
0001
0010
0001
0000
1000
0000
0100
0000
0000
1000
0010
0000
0100
0000
,
0001
0010
0001
0010
0100
1000
0010
0000
0100
0001
0100
0001
1000
0010
0100
0000
,
0001
0000
1000
0100
1000
0000
0010
0000
0100
0000
0000
0001
0010
0000
0001
0000
,
1000
0010
1000
0010
0100
0001
0010
0000
0001
1000
0001
1000
0010
0100
0001
0000
,
0010
0000
0001
1000
0001
0000
0100
0000
0010
0000
1000
0100
1000
0000
0001
0000
,
0200
0310
0000
0000
;

//---------------dance-solo - ----------------
#NOTES:
     dance-solo:
     :
     Easy:
     5:
     0.207792,0.305000,0.118182,0.318182,0.000000,160.000000,147.000000,13.000000,35.000000,0.000000,0.000000,0.207792,0.305000,0.118182,0.318182,0.000000,160.000000,147.000000,13.000000,35.000000,0.000000,0.000000:
000000
000000
000000
000000
,
000000
000000
000000
000000
,
000000
000000
000000
000000
,
000001
000000
001000
000000
,
000002
000000
000000
000003
,
100000
000000
001000
000000
,
200000
000000
000000
300000
,
000100
000000
000100
000000
,
200002
000000
000000
300000
,
000000
001000
000000
001000
,
000000
001000
000000
001003
,
100000
000001
000100
010010
,
000100
010000
001000
100000
,
000020
000000
000000
000030
,
000100
000001
001000
000100
,
020000
000000
000000
030000
,
001000
010000
000100
100000
,
000002
000000
000000
000003
,
010000
001000
100000
000100
,
002000
000000
000000
003000
,
000001
000000
000000
010010
,
000010
000010
010000
020000
,
000000
000000
000000
030000
,
000100
000100
001000
002000
,
000000
000000
000000
003000
,
000001
000001
100000
200000
,
000000
000000
000000
300000
,
100000
000001
010000
000020
,
000000
000000
000000
000030
,
001000
000100
100000
010010
,
000002
000000
000000
000000
,
000200
000300
200000
300003
,
000010
000010
010000
010000
,
000010
010000
000020
000030
,
002000
000000
000000
000000
,
000200
000000
000000
003300
,
010000
010000
000010
000010
,
010000
000010
010000
001000
,
002200
000000
000300
003010
,
002000
000100
100000
013000
,
002002
000000
003000
010003
,
000200
100000
000010
001300
,
000202
000000
000000
000000
,
000300
100000
000010
010003
,
202000
000000
003000
300002
,
020000
000003
000100
031000
,
100001
000001
100000
001000
,
010000
000100
001000
000001
,
000110
000001
001000
000100
,
100000
000010
001000
000100
,
011000
000001
100000
000100
,
001000
000010
010000
001000
,
020020
000000
000000
030000
,
100000
000100
010000
001030
,
000001
000100
100000
001000
,
020000
000000
000000
030000
,
000100
001000
000010
100000
,
002000
000000
000000
003000
,
000010
000100
000001
001000
,
200000
000000
000000
300000
,
000010
000000
010000
000000
,
010010
000000
000000
000000
;

//---------------dance-solo - ----------------
#NOTES:
     dance-solo:
     :
     Medium:
     8:
     0.349351,0.415909,0.381818,0.245455,0.040909,269.000000,227.000000,42.000000,27.000000,0.000000,0.000000,0.349351,0.415909,0.381818,0.245455,0.040909,269.000000,227.000000,42.000000,27.000000,0.000000,0.000000:
000000
000000
000000
000000
,
000000
000000
000000
000000
,
000000
000000
000000
000000
,
010010
000000
000000
000000
000000
000000
000000
000100
,
001000
000000
000000
000000
,
010010
000000
000000
000000
000000
000000
000000
000001
,
100000
000000
000000
000000
,
000100
000000
100000
000001
001000
000000
000001
010000
,
000200
001000
000000
001000
,
000000
000001
000000
000001
,
000000
100000
000000
100300
,
100000
000001
000100
001000
010000
000000
010010
000000
,
001000
000000
000001
100000
000100
000000
010000
000010
,
002000
000000
000000
003000
,
000001
000000
000100
001000
100000
000000
000010
010000
,
000002
000000
000000
000003
,
001000
000000
100000
000010
000100
000000
000001
010000
,
000020
000000
000000
000030
,
010000
000000
001000
100000
000100
000000
000001
000010
,
000200
000000
000000
000300
,
001100
000000
000000
000000
000000
000000
000000
000000
000000
000000
000000
000001
100000
000000
100000
000000
,
000100
000000
000000
100000
000000
000000
001000
000000
010000
000000
000000
000001
000000
000000
000020
000000
,
000000
000000
000000
000030
,
000001
000000
000000
010000
000000
000000
000010
000000
001000
000000
000000
000100
000000
000000
200000
000000
,
000000
000000
000000
300000
,
000100
000000
000000
100000
000000
000000
000001
000000
010000
000000
000000
000010
000000
000000
002000
000000
,
000000
000000
000000
003000
,
000010
000000
000000
000100
000000
000000
001000
000000
100000
000000
000000
000001
000000
000000
020000
000000
,
000000
000000
000000
030000
,
000100
010000
000010
001000
000001
000000
100001
000000
,
100200
000001
010000
001300
,
201000
300001
001002
100003
,
000001
010000
000100
000000
001000
000010
100000
000000
,
000010
010000
001000
100000
000002
000000
000003
000000
,
002010
000100
100000
003001
,
100020
001000
000001
010030
,
000100
100000
010000
000000
000001
001000
000010
000000
,
010000
000100
001000
000010
200000
000000
300001
000000
,
000102
000100
100000
001003
,
001001
001010
010010
011000
,
201000
000100
001000
300010
,
010010
011000
001100
000101
,
200001
000010
000100
001000
,
310000
101000
001100
000101
,
002001
010000
000010
003100
,
100100
000000
010010
000000
000001
100000
000001
100000
,
000200
000001
010000
000310
,
010100
100100
100001
000011
,
002001
000010
000100
013000
,
001100
010100
100100
101000
,
021000
000010
000100
001000
,
030001
000110
101000
010001
,
120000
000000
000010
000000
001000
000000
130000
000001
,
000100
000001
001000
000000
000100
100000
001000
000000
,
010000
000000
000100
001000
000001
000000
100000
000010
,
002000
000100
000001
003100
,
000010
000000
010000
001000
100000
000000
000001
000100
,
000020
010000
000100
010030
,
001000
000000
000001
100000
000010
000000
010000
000100
,
002000
000000
000000
003000
,
000010
000010
010000
010000
,
010010
000000
000000
000000
;

//---------------dance-solo - ----------------
#NOTES:
     dance-solo:
     :
     Hard:
     11:
     0.489610,0.501136,0.163636,0.381818,0.095455,377.000000,359.000000,18.000000,42.000000,0.000000,0.000000,0.489610,0.501136,0.163636,0.381818,0.095455,377.000000,359.000000,18.000000,42.000000,0.000000,0.000000:
000000
000000
000000
000000
,
000000
000000
000000
000000
,
000000
000000
000000
000000
,
000100
000000
100000
000000
000010
000000
000100
001000
,
020000
000000
000000
030000
,
000001
000000
100000
000000
000100
000000
010000
001000
,
000020
000000
000000
000030
,
000001
000100
001000
100000
000010
000100
001000
010000
,
200002
000000
300000
001000
000000
000100
000000
010000
,
000000
000100
000000
001000
000000
000010
000000
100000
,
000000
000100
000000
001000
000000
000010
000000
010003
,
000001
100000
000100
010000
000010
001000
010010
000000
,
000001
100000
000100
001000
000010
000100
001000
010000
,
000002
001000
001000
000000
100000
001000
001003
000000
,
000010
010000
001000
100000
000100
001000
000001
010000
,
000200
001000
001000
000000
100000
001000
001300
000000
,
000010
010000
001000
000100
000001
001000
000010
100000
,
002000
100000
100000
000000
000010
100000
103000
000000
,
000100
001000
000100
010000
000001
000100
001000
100000
,
000020
001000
001000
000000
010000
001000
001030
000000
,
010000
000000
000000
000000
000010
000000
000000
000000
010000
000000
000000
000001
100000
000000
100000
000000
,
000001
000000
000000
001000
000000
000000
000100
000000
100000
000000
000000
000010
000000
000000
020000
000000
,
001000
001000
001000
000000
000100
000001
030001
000000
,
000100
000000
000000
000010
000000
000000
100000
000000
001000
000000
000000
010000
000000
000000
000002
000000
,
010000
010000
010000
000000
000010
100000
100003
000000
,
001000
000000
000000
100000
000000
000000
000001
000000
010000
000000
000000
000010
000000
000000
000200
000000
,
100000
100000
100000
000000
001000
000001
000301
000000
,
000010
000000
000000
000001
000000
000000
010000
000000
001000
000000
000000
100000
000000
000000
000200
000000
,
000010
000010
000010
000000
001000
100000
100300
000000
,
000100
001000
000010
010000
000001
100000
010010
000000
,
100002
100000
000100
000000
100000
100000
100003
000000
,
201000
000001
300001
000000
001002
100000
100003
000000
,
000100
001000
000100
100000
001000
010000
000010
001000
,
000001
000100
000010
100000
000002
010000
010003
000000
,
002100
000100
000010
000000
000100
000100
003100
000000
,
020010
000010
001000
000000
000010
000010
030010
000000
,
100000
000010
000100
001000
000100
000001
010000
001000
,
100000
000100
010000
000010
000100
000001
100000
001000
,
201000
000000
000000
000000
000001
000000
000000
000000
300100
100000
000000
000100
001000
000000
000000
000000
,
000020
000000
000230
000000
000302
001000
001003
000000
,
001020
000000
000000
000000
100000
000000
000000
000000
010030
000010
000000
010000
001000
000000
000000
000000
,
200000
000000
300200
000000
020300
000010
030010
000000
,
010200
000000
000000
000000
001000
000000
000000
000000
100300
000100
000000
100000
000010
000000
000000
000000
,
000101
200000
300020
020030
,
030200
000000
000000
000000
001000
000000
000000
000000
010300
000100
000000
010000
001000
000000
000000
000000
,
100100
000000
001001
000000
010000
000010
001000
000100
,
200100
000000
010000
000000
010000
000000
000000
000000
300001
100000
000000
000001
000100
000000
000000
000000
,
000001
100000
000100
100000
001000
000100
000001
000000
,
020001
000000
000100
000000
000100
000000
000000
000000
030010
010000
000000
000010
100000
000000
000000
000000
,
001000
100000
000100
001000
000010
010000
000001
000000
,
000210
100000
100000
000000
000001
000001
000301
000000
,
010010
200000
302000
003200
,
000302
100000
100000
100000
000100
000100
001003
000001
,
100000
000100
010000
000100
001000
000010
001000
000001
,
000100
000010
100000
001000
010000
000001
000100
000010
,
020000
001000
001000
000000
000100
001000
031000
000000
,
000001
100000
001000
010000
000100
100000
000010
000100
,
000002
010000
010000
000000
000100
010000
010003
000000
,
000010
000100
000001
100000
001000
010000
001000
000100
,
000002
010000
000010
100003
,
001000
100000
000100
001000
000010
100000
000001
010000
,
000002
100003
000000
000000
;

//---------------dance-solo - ----------------
#NOTES:
     dance-solo:
     :
     Challenge:
     15:
     0.716883,0.723864,0.272727,0.509091,0.618182,552.000000,522.000000,30.000000,56.000000,0.000000,0.000000,0.716883,0.723864,0.272727,0.509091,0.618182,552.000000,522.000000,30.000000,56.000000,0.000000,0.000000:
000000
000000
000000
000000
,
000000
000000
000000
000000
,
000000
000000
000000
000000
,
010020
000000
001000
000000
100000
000000
000130
000101
,
202000
000000
000000
300000
,
203000
000010
000000
000010
000000
000010
000000
300010
,
020000
000010
000000
000010
000000
000010
000000
030010
,
000100
000000
000001
100000
000001
000000
000100
000000
001000
000000
010000
000100
010000
000000
000010
000000
,
100002
100000
000000
000010
000000
000100
000000
010000
,
000000
001000
000000
000100
000000
010000
000000
000013
,
100000
000001
000100
001000
010000
000010
010000
001000
,
100000
000001
100000
000001
001000
000100
001000
000100
100000
000000
000010
001000
000010
000000
010000
000000
,
000001
000000
100000
001000
100000
000000
000100
000000
001000
000000
000010
010000
000010
000000
000100
000000
,
000001
100000
000100
001000
000100
100000
000001
000000
000000
000000
010000
000010
001000
000010
010000
000000
,
000001
000000
000100
000010
000100
000000
001000
000000
100000
000000
000001
010000
000001
000000
100000
000000
,
000100
010000
001000
010000
000001
001000
000100
000000
000000
000000
000010
100000
000001
100000
000010
000000
,
101000
000000
000000
001100
000000
000000
000101
000000
001001
000000
000000
100001
000000
000000
100100
000000
,
000001
000100
000010
001000
000100
010000
001000
100000
,
100100
000000
000000
001001
000000
000000
000101
000000
101000
000000
000000
100001
000000
000000
001100
000000
,
100000
000010
000100
001000
100000
000001
010000
000100
,
001000
000100
000000
000100
100000
001000
100000
000001
010000
001000
010000
000001
100000
000000
100000
000000
,
000100
000000
010000
001000
000000
100000
000001
000000
000100
000000
000010
010000
000000
000010
100000
000000
,
000001
100000
001000
000000
100000
000100
000000
001000
000000
000010
010000
000000
000001
010000
000010
000100
,
000001
000000
100000
001000
000000
010000
000010
000000
000100
000000
000001
100000
000000
000100
010000
000000
,
000001
000000
000001
000000
000001
000000
000000
100000
000000
000100
001000
000010
010000
000010
010000
001000
,
100000
000000
000010
000100
000000
000001
001000
000000
000100
000000
010000
001000
000000
100000
000001
000000
,
000100
000010
000100
000000
000001
100000
000000
001000
000000
010000
000000
000010
000000
010000
001000
000000
,
010000
000000
000001
100000
000000
001000
010000
000000
000100
000000
001000
000010
000000
100000
000001
000000
,
000100
000001
010000
000010
000100
001000
100000
000010
,
010000
001000
010000
001000
100000
000001
100000
000001
000100
000000
000010
010000
000010
000000
000100
000000
,
100001
000000
000000
000001
001000
000000
000000
001000
000010
000000
000000
000010
100000
000000
000000
100000
,
000100
000000
000000
000100
010000
000000
000000
010000
000001
000000
000000
000001
000100
000000
000000
000100
,
000020
000000
200030
000000
302000
000000
013000
000100
002000
000000
003002
000000
000203
000000
000310
010000
,
000001
000101
001100
101000
200001
000001
300001
000000
,
001100
000000
000000
000100
010000
000000
000000
010000
001000
000000
000000
001000
100000
000000
000000
100000
,
000001
000000
000000
000001
000100
000000
000000
000100
000010
000000
000000
000010
001000
000000
000000
001000
,
000200
002300
003020
200030
302000
023000
030200
200300
,
300002
000023
000032
002003
003200
020300
030020
200030
,
300002
000000
001000
000000
001003
000000
000000
000100
100000
000100
010000
000000
000010
000000
010000
000001
,
200000
301000
020000
030010
000200
000301
002000
003010
,
200000
000000
000001
000000
300001
000000
000000
000100
000010
010000
000010
000000
100000
000000
001000
010000
,
000002
010003
000200
001300
000020
000130
000002
100003
,
002000
000000
010000
000000
013000
000000
000000
000010
100000
001000
100000
000000
000001
000000
000100
000010
,
002000
003001
000200
001300
200000
300010
002000
003001
,
000100
000000
000010
000000
001000
000000
000100
000000
100000
000001
100000
000000
000100
000000
001000
000000
,
001010
000000
000000
000000
100010
000000
000000
000000
001000
000100
010000
000010
100000
001000
000100
000001
,
020000
000000
000010
000000
030010
000000
000100
000001
100000
000001
001000
000000
000100
000000
100000
001000
,
010000
000100
010000
000000
000010
000100
000010
000000
010000
001000
010000
000000
000010
001000
000010
000000
,
000200
000000
000001
000000
000301
000000
010000
001000
100000
001000
010000
000000
000010
000000
000100
000010
,
001000
000001
001000
000000
000100
100000
000100
000000
001000
100000
001000
000000
000100
000001
000100
000000
,
000002
000000
000100
000000
000103
000000
000010
100000
000001
100000
000010
000000
001000
000000
010000
000001
,
100000
101000
001100
000101
,
010010
000001
000100
001000
100000
001000
000100
000001
,
020000
032000
203000
300200
020300
030002
000203
000320
,
100030
000000
000001
001000
000010
000000
000100
000000
000001
000000
010000
001000
100000
000000
000100
000000
,
001000
000010
000100
000010
100000
001000
010000
000000
000000
000000
010000
000001
100000
000001
000100
000000
,
001000
000000
000100
100000
000010
000000
000100
000000
000001
000000
010000
001000
100000
000000
000010
000000
,
000100
000001
010000
001000
100000
000001
000100
000000
000000
000000
001000
000010
010000
000010
100000
000000
,
000001
000000
000100
000010
001000
000000
000100
000000
100000
000000
000001
010000
000010
000000
100000
000000
,
002000
100000
100000
000000
000010
100000
103000
000000
,
000001
000000
010000
001000
010000
000000
000010
000000
001000
000000
000100
100000
000100
000000
010000
000000
,
010010
001100
000000
000000
;

//---------------dance-solo - ----------------
#NOTES:
     dance-solo:
     :
     Beginner:
     1:
     0.080519,0.110909,0.000000,0.027273,0.000000,62.000000,62.000000,0.000000,3.000000,0.000000,0.000000,0.080519,0.110909,0.000000,0.027273,0.000000,62.000000,62.000000,0.000000,3.000000,0.000000,0.000000:
// measure 0
000000
000000
000000
000000
,  // measure 1
000000
000000
000000
000000
,  // measure 2
000000
000000
000000
000000
,  // measure 3
000010
000000
000000
000000
,  // measure 4
000010
000000
000000
000000
,  // measure 5
010000
000000
000000
000000
,  // measure 6
010000
000000
000000
000000
,  // measure 7
001000
000000
000000
000000
,  // measure 8
002000
000000
000000
000000
,  // measure 9
000000
000000
000000
000000
,  // measure 10
000000
000000
000000
000000
,  // measure 11
003000
000000
000000
000000
,  // measure 12
010000
000000
000000
000000
,  // measure 13
000010
000000
000000
000000
,  // measure 14
010000
000000
000000
000000
,  // measure 15
000010
000000
000000
000000
,  // measure 16
001000
000000
000000
000000
,  // measure 17
001000
000000
000000
000000
,  // measure 18
000010
000000
000000
000000
,  // measure 19
010000
000000
000000
000000
,  // measure 20
000000
000000
000000
000000
,  // measure 21
000010
000000
000010
000000
,  // measure 22
000000
000000
000000
000000
,  // measure 23
010000
000000
010000
000000
,  // measure 24
000000
000000
000000
000000
,  // measure 25
000010
000000
010000
000000
,  // measure 26
000000
000000
000000
000000
,  // measure 27
010000
000000
000010
000000
,  // measure 28
000000
000000
000000
000000
,  // measure 29
001000
000000
000000
000000
,  // measure 30
000010
000000
000000
000000
,  // measure 31
010000
000000
000010
000000
,  // measure 32
002000
000000
000000
000000
,  // measure 33
000000
000000
003000
000000
,  // measure 34
010000
000000
000000
000000
,  // measure 35
000010
000000
000000
000000
,  // measure 36
002000
000000
000000
000000
,  // measure 37
000000
000000
003000
000000
,  // measure 38
000010
000000
000000
000000
,  // measure 39
000010
000000
010000
000000
,  // measure 40
001000
000000
000000
000000
,  // measure 41
010000
000000
000010
000000
,  // measure 42
001000
000000
000000
000000
,  // measure 43
000000
000000
001000
000000
,  // measure 44
000010
000000
000000
000000
,  // measure 45
010000
000000
010000
000000
,  // measure 46
010000
000000
000000
000000
,  // measure 47
000010
000000
001000
000000
,  // measure 48
010000
000000
000000
000000
,  // measure 49
001000
000000
010000
000000
,  // measure 50
000010
000000
000000
000000
,  // measure 51
000000
000000
010000
000000
,  // measure 52
000010
000000
000000
000000
,  // measure 53
001000
000000
000000
000000
,  // measure 54
000010
000000
000010
000000
,  // measure 55
000010
000000
000000
000000
,  // measure 56
010000
000000
010000
000000
,  // measure 57
010000
000000
000000
000000
,  // measure 58
001000
000000
001000
000000
,  // measure 59
001000
000000
000000
000000
,  // measure 60
010000
000000
000000
000000
,  // measure 61
000010
000000
000000
000000
;
