#TITLE:5.1.1.;
#SUBTITLE:;
#ARTIST:dj nagureo;
#TITLETRANSLIT:;
#SUBTITLETRANSLIT:;
#ARTISTTRANSLIT:;
#GENRE:;
#CREDIT:;
#BANNER:5.1.1.-bn.png;
#BACKGROUND:5.1.1.-bg.png;
#LYRICSPATH:;
#CDTITLE:;
#MUSIC:5.1.1..ogg;
#OFFSET:0.000000;
#SAMPLESTART:49.903000;
#SAMPLELENGTH:20.000000;
#SELECTABLE:YES;
#BPMS:0.000000=101.000000
;
#STOPS:
;
#BGCHANGES:;
#KEYSOUNDS:;
#ATTACKS:;

//---------------dance-single - ----------------
#NOTES:
     dance-single:
     :
     Beginner:
     1:
     0.076512,0.145373,0.127520,0.000000,0.000000,42.000000,32.000000,10.000000,0.000000,0.000000,0.000000,0.076512,0.145373,0.127520,0.000000,0.000000,42.000000,32.000000,10.000000,0.000000,0.000000,0.000000:
0000
0000
0000
0000
,
0000
0000
0000
0000
,
0000
0000
0000
0000
,
0000
0000
0000
0000
,
0000
0000
0000
0000
,
1000
0000
0000
0000
,
1000
0000
0000
0000
,
0001
0000
0000
0000
,
0001
0000
0000
0000
,
1000
0000
1000
0000
,
0001
0000
0001
0000
,
1001
0000
0000
0000
,
1001
0000
0000
0000
,
1000
0000
0000
0000
,
1000
0000
0000
0000
,
0001
0000
0000
0000
,
0001
0000
0000
0000
,
1000
0000
1000
0000
,
0001
0000
0001
0000
,
1001
0000
0000
0000
,
1001
0000
0000
0000
,
0010
0000
0000
0000
,
1001
0000
0000
0000
,
0010
0000
0000
0000
,
1001
0000
0000
0000
,
0110
0000
0001
0000
,
0110
0000
1000
0000
,
0110
0000
0001
0000
,
0110
0000
1000
0000
,
0000
0000
0000
0000
;

//---------------dance-single - ----------------
#NOTES:
     dance-single:
     :
     Easy:
     3:
     0.087442,0.163545,0.000000,0.000000,0.000000,48.000000,48.000000,0.000000,0.000000,0.000000,0.000000,0.087442,0.163545,0.000000,0.000000,0.000000,48.000000,48.000000,0.000000,0.000000,0.000000,0.000000:
0000
0000
0000
0000
,
0000
0000
0000
0000
,
0000
0000
0000
0000
,
0000
0000
0000
0000
,
0000
0000
0000
0000
,
0010
0000
0000
0000
,
1000
0000
0000
0010
,
1000
0000
0000
0100
,
0001
0000
0000
0010
,
0100
0010
1000
0001
,
0001
1000
0010
0100
,
0100
0000
0000
0000
,
1000
0000
0000
0000
,
0001
0000
0000
0000
,
0001
0000
0000
0000
,
1000
0000
0000
0000
,
0001
0000
0000
0000
,
0100
0010
1000
0001
,
0100
1000
0010
0001
,
0010
0000
0000
0000
,
0010
0000
0000
0010
,
0010
0000
0000
1000
,
0010
0000
0000
0010
,
0010
0000
0000
0100
,
0010
0000
0000
0010
,
1000
0000
0100
0000
,
0001
0000
0010
0000
,
0001
0000
0100
0000
,
1000
0000
0010
0000
,
0000
0000
0000
0000
;

//---------------dance-single - ----------------
#NOTES:
     dance-single:
     :
     Medium:
     6:
     0.178528,0.308917,0.178528,0.000000,0.102016,98.000000,84.000000,14.000000,0.000000,0.000000,0.000000,0.178528,0.308917,0.178528,0.000000,0.102016,98.000000,84.000000,14.000000,0.000000,0.000000,0.000000:
0000
0000
0000
0000
,
0000
0000
0000
0000
,
0000
0000
0000
0000
,
0000
0000
0000
0000
,
0000
0000
0000
0000
,
0011
0000
0000
0000
,
1100
0000
0000
0000
0000
0000
0010
1000
,
0100
0000
0000
1100
0000
0000
0100
0000
,
0101
0000
0000
0101
0000
0000
0010
0000
,
0100
0010
0000
0000
1000
0001
0000
0000
0100
0010
0000
0000
1000
0001
0000
0000
,
1000
0001
0000
0000
0100
0010
0000
0000
1000
0001
0000
0000
0100
0010
0000
0000
,
0010
0000
0000
0100
0000
0000
0000
0000
,
0010
0000
0000
0100
0000
0000
0000
0000
,
1010
0000
0000
0000
0000
0000
0000
0010
,
1000
0000
0000
0000
0000
0000
0000
0100
,
0001
0000
0000
0000
0000
0000
0000
0100
,
1000
0000
0000
0000
0000
0000
0000
0100
,
0100
0010
0000
0000
1000
0001
0000
0000
0100
0010
0000
0000
1000
0001
0000
0000
,
0001
1000
0000
0000
0010
0100
0000
0000
0001
1000
0000
0000
0010
0100
0000
0000
,
0100
0000
0000
1000
0000
0000
0000
0000
,
0010
0000
0000
1000
0000
0000
0010
0000
,
0010
0000
0000
0010
0000
0000
0010
1000
,
0100
0000
0000
0010
0000
0000
0010
0000
,
0010
0000
0000
0010
0000
0000
0010
0001
,
0100
0000
0000
0010
0000
0000
0010
0000
,
1010
0000
0101
0000
,
0011
0000
1100
0000
,
0011
0010
1100
0100
,
1010
0010
0101
0000
;

//---------------dance-single - ----------------
#NOTES:
     dance-single:
     :
     Hard:
     8:
     0.191280,0.311627,0.025504,0.000000,0.197656,105.000000,103.000000,2.000000,0.000000,0.000000,0.000000,0.191280,0.311627,0.025504,0.000000,0.197656,105.000000,103.000000,2.000000,0.000000,0.000000,0.000000:
0000
0000
0000
0000
,
0000
0000
0000
0000
,
0000
0000
0000
0000
,
0000
0000
0000
0000
,
0000
0000
0000
0000
,
0011
0000
0000
0000
,
1100
0000
0000
0000
0000
0000
0010
1000
,
0100
1000
0000
0000
0000
0000
0100
1000
0000
0000
0000
0000
0100
0000
0000
0000
,
0100
0001
0000
0000
0000
0000
0100
0000
0000
0000
0000
0000
0010
0000
0000
0000
,
0010
0001
0000
0000
0001
0100
0000
0000
0100
1000
0000
0000
1000
0010
0000
0000
,
0010
0001
0000
0000
0001
0100
0000
0000
0100
1000
0000
0000
1000
0010
0000
0000
,
0010
0000
0000
0100
0000
0000
0000
0000
,
0010
0000
0000
0100
0000
0000
0000
0000
,
0010
1000
0000
0000
0000
0000
0000
0000
0000
0000
0000
0000
0000
0000
0010
0000
,
1000
0100
0000
0000
0000
0000
0000
0000
0000
0000
0000
0000
0000
0000
0100
0000
,
0001
0010
0000
0000
0000
0000
0000
0000
0000
0000
0000
0000
0000
0000
0100
0000
,
1000
0010
0000
0000
0000
0000
0000
0000
0000
0000
0000
0000
0000
0000
0010
0000
,
0010
1000
0000
0000
1000
0100
0000
0000
0100
0001
0000
0000
0001
0010
0000
0000
,
0010
0001
0000
0000
0001
0100
0000
0000
0100
1000
0000
0000
1000
0010
0000
0000
,
0010
0000
0000
1000
0000
0000
0000
0000
,
0010
0000
0000
1000
0000
0000
0010
0000
,
0010
0000
0000
0010
0000
0000
0010
1000
,
0100
0000
0000
0010
0000
0000
0010
0000
,
0010
0000
0000
0010
0000
0000
0010
0001
,
0100
0000
0000
0010
0000
0000
0010
0000
,
0010
1000
0000
0000
0000
0000
0000
0000
0100
0001
0000
0000
0000
0000
0000
0000
,
0010
0001
0000
0000
0000
0000
0000
0000
0100
1000
0000
0000
0000
0000
0000
0000
,
0010
0001
0000
0000
0001
0000
0100
0000
0100
1000
0000
0000
1000
0000
0010
0000
,
0010
1000
0000
0000
1000
0000
0100
0000
0100
0001
0000
0000
0001
0000
0000
0000
;

//---------------dance-double - ----------------
#NOTES:
     dance-double:
     :
     Easy:
     3:
     0.092908,0.163545,0.000000,0.000000,0.000000,51.000000,51.000000,0.000000,0.000000,0.000000,0.000000,0.092908,0.163545,0.000000,0.000000,0.000000,51.000000,51.000000,0.000000,0.000000,0.000000,0.000000:
00000000
00000000
00000000
00000000
,
00000000
00000000
00000000
00000000
,
00000000
00000000
00000000
00000000
,
00000000
00000000
00000000
00000000
,
00000000
00000000
00000000
00000000
,
00000010
00000000
00000000
00000000
,
01000000
00000000
00000000
00100000
,
00001000
00000000
00000000
00010000
,
01000000
00000000
00000000
00010000
,
10000000
00010000
00001000
00000001
,
00001000
00010000
10000000
00010000
,
00001000
00000000
00000000
00000000
,
00000001
00000000
00000000
00000000
,
00000100
00000000
00000000
00000000
,
00010000
00000000
00000000
00000000
,
01000000
00000000
00000000
00000000
,
00010000
00000000
00000000
00000000
,
00001000
00000001
00001000
00010000
,
10000000
00010000
00001000
00000001
,
00001000
00000000
00000000
00000000
,
00010000
00000000
00000000
00100000
,
00100000
00000000
00000000
00010000
,
00000100
00000000
00000000
00000010
,
00000010
00000000
00000000
00001000
,
01000000
00000000
00000000
00100000
,
00010000
00000000
00001000
00000000
,
00000010
00000000
00010000
00000000
,
00100000
00001000
00000100
00010000
,
01000000
00010000
00001000
00000000
;

//---------------dance-double - ----------------
#NOTES:
     dance-double:
     :
     Medium:
     6:
     0.176706,0.308917,0.165776,0.000000,0.102016,97.000000,84.000000,13.000000,0.000000,0.000000,0.000000,0.176706,0.308917,0.165776,0.000000,0.102016,97.000000,84.000000,13.000000,0.000000,0.000000,0.000000:
00000000
00000000
00000000
00000000
,
00000000
00000000
00000000
00000000
,
00000000
00000000
00000000
00000000
,
00000000
00000000
00000000
00000000
,
00000000
00000000
00000000
00000000
,
00000011
00000000
00000000
00000000
,
11000000
00000000
00000000
00000000
00000000
00000000
00100000
00010000
,
00001000
00000000
00000000
00000101
00000000
00000000
00001000
00000000
,
00010000
00000000
00000000
01010000
00000000
00000000
01000000
00000000
,
10000000
00100000
00000000
00000000
01000000
00010000
00000000
00000000
00010000
00001000
00000000
00000000
00001000
00000100
00000000
00000000
,
00000001
00000010
00000000
00000000
00000100
00001000
00000000
00000000
00001000
00010000
00000000
00000000
00010000
01000000
00000000
00000000
,
01000000
00000000
00000000
00010000
00000000
00000000
00000000
00000000
,
00001000
00000000
00000000
00000100
00000000
00000000
00000000
00000000
,
00001100
00000000
00000000
00000000
00000000
00000000
00000000
00001000
,
00010000
00000000
00000000
00000000
00000000
00000000
00000000
00010000
,
00001000
00000000
00000000
00000000
00000000
00000000
00000000
00000100
,
00000001
00000000
00000000
00000000
00000000
00000000
00000000
00000001
,
00000001
00000010
00000000
00000000
00000100
00001000
00000000
00000000
00001000
00010000
00000000
00000000
00010000
01000000
00000000
00000000
,
10000000
00100000
00000000
00000000
01000000
00010000
00000000
00000000
00010000
00001000
00000000
00000000
00001000
00000100
00000000
00000000
,
00000100
00000000
00000000
00001000
00000000
00000000
00000000
00000000
,
00010000
00000000
00000000
00100000
00000000
00000000
00100000
00000000
,
00100000
00000000
00000000
00100000
00000000
00000000
00010000
00001000
,
00000100
00000000
00000000
00000010
00000000
00000000
00000010
00000000
,
00000010
00000000
00000000
00000010
00000000
00000000
00001000
00010000
,
01000000
00000000
00000000
00100000
00000000
00000000
00100000
00000000
,
00110000
00000000
00001100
00000000
,
00001010
00000000
01010000
00000000
,
00110000
00001000
00000101
00001000
,
01010000
00001000
00000011
00000000
;

//---------------dance-double - ----------------
#NOTES:
     dance-double:
     :
     Hard:
     10:
     0.316979,0.589143,0.102016,0.102016,0.095640,174.000000,166.000000,8.000000,8.000000,0.000000,0.000000,0.316979,0.589143,0.102016,0.102016,0.095640,174.000000,166.000000,8.000000,8.000000,0.000000,0.000000:
00000000
00000000
00000000
00000000
,
00000000
00000000
00000000
00000000
,
00000000
00000000
00000000
00000000
,
00000000
00000000
00000000
00000000
,
00000000
00000000
00000000
00000000
,
00000010
00000001
00000010
00000001
00000100
00000001
00000100
00000001
,
00000100
00001000
00010000
00001000
00000100
00001000
00010000
00001000
,
00000100
00001000
00000100
00001000
00010000
00001000
00010000
00001000
,
00010000
01000000
10000000
01000000
00010000
01000000
10000000
01000000
,
10000000
01000000
10000000
01000000
00010000
00001000
00010000
00001000
,
00000100
00000001
00000100
00000001
00000010
00001000
00010000
00100000
,
20000000
00000000
00000000
02000000
00000000
00000000
33000000
00000000
,
00200000
00000000
00000000
00020000
00000000
00000000
00330000
00000000
,
00100000
01000000
00100000
01000000
00010000
01000000
00010000
01000000
,
00010000
00001000
00000100
00001000
00010000
00001000
00000100
00001000
,
00010000
00001000
00010000
00001000
00000100
00001000
00000100
00001000
,
00000100
00000010
00000001
00000010
00000100
00000010
00000001
00000010
,
00000001
00000010
00000001
00000010
00000100
00001000
00000100
00001000
,
00010000
00100000
00010000
00100000
01000000
10000000
01000000
10000000
,
02000000
00000000
00000000
00020000
00000000
00000000
03030000
00000000
,
00200000
00000000
00000000
00020000
00300000
00000000
00130000
00000000
,
01100000
00000000
00000000
11000000
00000000
00000000
00010000
00001000
,
00000100
00000000
00000000
00000110
00000000
00000000
00001100
00000000
,
00000110
00000000
00000000
00000101
00000000
00000000
00001000
00010000
,
01000000
00000000
00000000
01100000
00000000
00000000
01010000
00000000
,
10000000
01000000
00010000
01000000
00010000
00001000
00010000
00001000
,
00000100
00001000
00000100
00000001
00000100
00000001
00000010
00000001
,
00000010
00000001
00000010
00000001
00000100
00000001
00000100
00000001
00000100
00001000
00010000
00001000
00000100
00001000
00010000
00001000
,
00000100
00001000
00000100
00001000
00010000
00001000
00010000
00001000
00010000
01000000
10000000
01000000
00010000
01000000
10000000
00000000
;

//---------------dance-single - ----------------
#NOTES:
     dance-single:
     :
     Challenge:
     12:
     0.562910,0.649635,0.637601,0.063760,0.408064,309.000000,259.000000,50.000000,5.000000,0.000000,0.000000,0.562910,0.649635,0.637601,0.063760,0.408064,309.000000,259.000000,50.000000,5.000000,0.000000,0.000000:
0000
0000
0000
0000
,
0000
0000
0000
0000
,
0000
0000
0000
0000
,
0000
0000
0000
0000
,
0000
0000
0000
0000
,
1100
0000
0001
0000
0100
0000
0010
0000
1000
0001
0010
0000
0100
0000
1000
0000
,
0101
0000
0010
0000
0001
0000
1000
0000
0010
1000
0100
0000
1001
0000
1010
0000
,
0011
0000
0010
0100
1000
0000
1001
0000
0001
0100
0001
0000
1010
0000
0000
0000
,
0101
0000
0001
1000
0100
0000
0110
0000
0010
0001
1000
0000
1100
0000
0000
0000
,
1000
0001
0010
0000
0001
1000
0010
0000
1000
0001
0100
0000
0001
1000
0100
0000
,
0010
0001
0100
0000
0010
1000
0100
0000
1000
0010
0100
0000
0001
0010
0100
0000
,
1100
0000
1000
0010
0100
0000
0110
0000
0010
1000
0001
0000
0011
0000
0000
0000
,
0101
0000
0100
0001
1000
0000
1001
0000
0001
1000
0010
0000
1010
0000
0000
0000
,
0011
0000
0010
0000
0100
1000
0001
0000
0100
0000
0010
0000
1000
0000
1001
0000
,
0110
0000
0010
0000
1000
0100
0010
0000
0001
0000
1000
0000
0100
0000
1010
0000
,
0101
0000
0100
0000
0010
1000
0001
0000
1000
0000
0100
0000
0010
0000
0011
0000
,
1100
0000
0001
0000
1000
0010
0100
0000
0010
0000
1000
0000
0001
0000
0110
0000
,
1000
0100
0010
0000
0001
0100
0010
0000
1000
0010
0100
0000
0001
0010
0100
0000
,
0010
0001
1000
0000
0010
1000
0001
0000
0100
0001
1000
0000
0100
1000
0001
0000
,
0101
0000
0010
0000
1000
0000
1100
0000
1000
0001
0100
0000
0010
1000
0100
0000
,
1001
0001
1000
1010
0010
0110
1010
0101
,
1001
0000
0010
0001
1000
0100
1000
0000
0010
0100
0001
0000
0011
0000
0110
0000
,
1100
0000
1000
0010
0100
0001
1000
0000
0100
0010
0001
0000
0110
0000
1000
0000
,
1010
0000
0100
1000
0001
0010
0100
0000
0010
0001
1000
0000
1010
0000
1001
0000
,
0101
0000
0001
1000
0100
0010
0100
0000
1000
0001
0010
0000
0110
0000
0100
0000
,
1200
1000
1000
1300
2001
0001
0001
3001
,
0012
0010
0010
0013
0120
0100
0100
0130
,
0010
0001
1000
0001
1000
0100
1000
0100
0010
0100
1000
0001
0100
0001
0100
0010
,
1000
0100
0010
0001
0100
0010
1000
0001
0010
0001
0100
0001
1000
0100
1000
0010
,
0200
0000
0001
0000
0000
1000
0000
0000
0010
0000
0000
1000
0000
0000
0301
0000
,
0000
0000
0101
0000
0000
1100
0000
0000
0011
0000
0000
1010
0000
0000
1001
0000
;

//---------------dance-solo - ----------------
#NOTES:
     dance-solo:
     :
     Easy:
     2:
     0.109303,0.176456,0.012752,0.025504,0.000000,60.000000,59.000000,1.000000,2.000000,0.000000,0.000000,0.109303,0.176456,0.012752,0.025504,0.000000,60.000000,59.000000,1.000000,2.000000,0.000000,0.000000:
000000
000000
000000
000000
,
000000
000000
000000
000000
,
000000
000000
000000
000000
,
000000
000000
000000
000000
,
000000
000000
000000
000000
,
100000
000000
000000
000000
,
000001
000000
000000
001000
,
000100
000000
100000
000010
,
000100
000000
000001
010000
,
001000
000100
001000
000100
,
100000
000001
100000
000001
,
000100
000000
000010
000000
,
010000
000000
000100
000000
,
001000
000000
000000
000000
,
000001
000000
000000
000000
,
100000
000000
000000
000000
,
000100
000000
000000
000000
,
010000
000010
010000
000010
,
001000
000100
001000
000100
,
100000
000000
000010
000000
,
000100
000000
000010
010000
,
000001
000000
000001
001000
,
100000
000000
100000
000100
,
010000
000000
010000
000100
,
000010
000000
000010
100000
,
001000
000000
001000
000000
,
100000
000000
100000
000000
,
000010
000000
000010
000000
,
000100
000000
000100
000000
,
020020
000000
000000
000000
,
000000
000000
000000
030030
;

//---------------dance-solo - ----------------
#NOTES:
     dance-solo:
     :
     Medium:
     5:
     0.176706,0.274487,0.216784,0.382560,0.000000,97.000000,80.000000,17.000000,30.000000,0.000000,0.000000,0.176706,0.274487,0.216784,0.382560,0.000000,97.000000,80.000000,17.000000,30.000000,0.000000,0.000000:
000000
000000
000000
000000
,
000000
000000
000000
000000
,
000000
000000
000000
000000
,
000000
000000
000000
000000
,
000000
000000
000000
000000
,
200000
000000
000000
300000
,
000002
000000
000000
000000
000003
000000
001000
000100
,
020000
000000
000000
030020
000000
000000
002030
000000
,
003002
000000
000000
200003
000000
000000
302000
000000
,
103000
101000
000001
001001
,
010000
010100
000010
000110
,
000002
000000
000000
000200
000000
000000
000303
000000
,
200000
000000
000000
002000
000000
000000
303000
000000
,
020000
000000
000000
000000
000000
000000
030000
000100
,
002000
000000
000000
000000
000000
000000
003000
000001
,
200000
000000
000000
000000
000000
000000
300000
000010
,
000200
000000
000000
000000
000000
000000
000300
000001
,
010000
011000
000010
001010
,
100000
100100
000001
000101
,
020000
000000
000000
000020
000000
000000
030030
000000
,
000200
000000
000000
000302
000000
100003
000100
001000
,
000001
000000
100000
000100
000000
000000
001000
000010
,
000100
000000
000001
001000
000000
000000
000010
000000
,
100000
000000
001000
010000
000000
000000
000001
100000
,
000100
000000
010000
000010
000000
000000
100000
000000
,
201000
300100
002001
003010
,
100200
001300
000102
100003
,
021000
030100
002010
003001
,
010200
100300
000120
001030
,
020020
000000
000000
000000
,
000000
000000
000000
030030
;

//---------------dance-solo - ----------------
#NOTES:
     dance-solo:
     :
     Hard:
     8:
     0.344304,0.392124,0.701361,0.357056,0.000000,189.000000,134.000000,55.000000,28.000000,0.000000,0.000000,0.344304,0.392124,0.701361,0.357056,0.000000,189.000000,134.000000,55.000000,28.000000,0.000000,0.000000:
000000
000000
000000
000000
,
000000
000000
000000
000000
,
000000
000000
000000
000000
,
000000
000000
000000
000000
,
000000
000000
000000
000000
,
200100
000001
010000
300100
,
001002
000000
000010
000000
100000
000000
001003
000100
,
020100
000000
030010
001020
000000
100030
101000
000000
,
000102
000000
010003
020010
000000
030100
001100
000000
,
010010
100100
011000
100001
,
001010
010001
001100
110000
,
000201
000000
000301
200001
000000
001000
301000
000000
,
010200
000000
100300
100020
000000
001000
001030
000000
,
002100
000000
000100
000000
010000
000000
003001
100000
,
200010
000000
000010
000000
010000
000000
300100
001000
,
001002
000000
000010
000000
100000
000000
010003
000100
,
020100
000000
001000
000000
000001
000000
030100
100000
,
101000
000011
010100
001001
,
100010
001100
010010
100100
,
102000
000000
103000
100002
000000
000010
000013
000000
,
002001
000000
003100
200100
000000
301000
100000
000001
,
000101
000001
100000
101000
000000
100000
000100
001000
,
001100
000100
010000
010010
000000
000010
100010
000000
,
011000
010000
000001
000011
000000
000010
001000
000100
,
100100
100000
000010
000110
000000
000100
000101
000000
,
120000
100000
130000
000000
002010
000010
003010
000000
,
000102
000100
000103
000000
010020
010000
010030
000000
,
001200
001000
001300
000000
200100
000100
300100
000000
,
000012
000010
000013
000000
100002
001000
001003
000000
,
010020
000100
010000
000001
,
200030
001000
000001
301000
;

//---------------dance-solo - ----------------
#NOTES:
     dance-solo:
     :
     Challenge:
     12:
     0.575662,0.649635,0.637601,0.051008,0.439944,316.000000,266.000000,50.000000,4.000000,0.000000,0.000000,0.575662,0.649635,0.637601,0.051008,0.439944,316.000000,266.000000,50.000000,4.000000,0.000000,0.000000:
000000
000000
000000
000000
,
000000
000000
000000
000000
,
000000
000000
000000
000000
,
000000
000000
000000
000000
,
000000
000000
000000
000000
,
100100
000000
000001
000000
100000
000000
000010
001000
000010
001000
000010
000000
010000
000000
000001
000000
,
000101
000000
100000
000000
000010
000000
010000
001000
010000
001000
010000
000000
000001
000000
000100
000000
,
001100
000000
001000
000000
100000
000000
101000
000000
100000
000001
000100
000000
000101
000000
000001
000000
,
001001
000000
001000
000000
000100
000000
010100
000000
010000
000010
010000
000000
010010
000000
000010
000000
,
100000
001000
100000
000000
000001
000100
000001
000000
010000
000100
010000
000000
000010
001000
000010
000000
,
100000
000100
100000
000000
000010
000100
000010
000000
010000
001000
010000
000000
000001
001000
000001
000000
,
000011
000000
000001
000000
100000
000000
100100
000000
000100
001000
000100
000000
010100
000000
000000
000000
,
001010
000000
000010
000000
100000
000000
100001
000000
000001
010000
000001
000000
001001
000000
000000
000000
,
100001
000000
000010
000000
010000
000000
000100
100000
000100
001000
000001
000000
010000
000000
011000
000000
,
010010
000000
000010
000000
100000
000000
001000
010000
000001
100000
001000
000000
000100
000000
000011
000000
,
010010
000000
010000
000000
001000
000000
100000
000100
010000
000010
100000
000000
000001
000000
001010
000000
,
100010
000000
010000
000000
000100
000000
001000
000001
010000
001000
100000
000000
000100
000000
010010
000000
,
100000
000010
010000
000000
000001
001000
000100
000000
010000
001000
000100
000000
100000
000001
000010
000000
,
001000
000100
100000
000000
000010
010000
000001
000000
000100
000010
010000
000000
001000
100000
000001
000000
,
001001
000000
000001
000000
100000
000000
110000
000000
010000
000100
001000
000000
000001
000000
100000
000000
,
100010
000010
000100
000101
000001
000011
001100
110000
,
100001
000000
000100
010000
001000
000000
011000
000000
010000
000010
000100
000000
000110
000000
000101
000000
,
010001
000000
001000
000100
100000
000000
101000
000000
100000
000010
000100
000000
001100
000000
011000
000000
,
000011
000000
000010
010000
001000
000000
001100
000000
000100
000001
100000
000000
100100
000000
001100
000000
,
010010
000000
010000
001000
100000
000000
001010
000000
000010
000100
000001
000000
000011
000000
100100
000000
,
001000
010000
001000
000000
100000
000001
100000
000000
000010
000100
000010
000000
000100
000001
010000
000000
,
000010
000100
000010
000000
100000
001000
100000
000000
010000
000001
010000
000000
000001
001000
000100
000000
,
100000
000100
100000
000100
100000
000100
100000
000100
001000
000001
001000
000001
001000
000001
001000
000001
,
100000
001000
100000
001000
100000
001000
100000
001000
000100
000001
000100
000001
000100
000001
000100
000001
,
001000
000000
000020
000000
000000
020030
000000
000000
030200
000000
000000
002300
000000
000000
003001
000000
,
000000
000000
000011
000000
000000
000110
000000
000000
001100
000000
000000
011000
000000
000000
110000
000000
;

//---------------dance-solo - ----------------
#NOTES:
     dance-solo:
     :
     Beginner:
     1:
     0.060117,0.092452,0.000000,0.000000,0.000000,33.000000,33.000000,0.000000,0.000000,0.000000,0.000000,0.060117,0.092452,0.000000,0.000000,0.000000,33.000000,33.000000,0.000000,0.000000,0.000000,0.000000:
// measure 0
000000
000000
000000
000000
,  // measure 1
000000
000000
000000
000000
,  // measure 2
000000
000000
000000
000000
,  // measure 3
000000
000000
000000
000000
,  // measure 4
000000
000000
000000
000000
,  // measure 5
010000
000000
000000
000000
,  // measure 6
000010
000000
000000
000000
,  // measure 7
010000
000000
000000
000000
,  // measure 8
000010
000000
000000
000000
,  // measure 9
001000
000000
001000
000000
,  // measure 10
001000
000000
001000
000000
,  // measure 11
000010
000000
000000
000000
,  // measure 12
010000
000000
000000
000000
,  // measure 13
000010
000000
000000
000000
,  // measure 14
010000
000000
000000
000000
,  // measure 15
000010
000000
000000
000000
,  // measure 16
010000
000000
000000
000000
,  // measure 17
001000
000000
001000
000000
,  // measure 18
001000
000000
001000
000000
,  // measure 19
010000
000000
000000
000000
,  // measure 20
000010
000000
000000
000000
,  // measure 21
001000
000000
000000
000000
,  // measure 22
000010
000000
000000
000000
,  // measure 23
001000
000000
000000
000000
,  // measure 24
010000
000000
000000
000000
,  // measure 25
000010
000000
000010
000000
,  // measure 26
010000
000000
010000
000000
,  // measure 27
000010
000000
000010
000000
,  // measure 28
010000
000000
010000
000000
,  // measure 29
001000
000000
000000
000000
;
