#TITLE:2001;
#SUBTITLE:;
#ARTIST:quannnic;
#TITLETRANSLIT:;
#SUBTITLETRANSLIT:;
#ARTISTTRANSLIT:;
#GENRE:;
#CREDIT:;
#BANNER:2001-bn.png;
#BACKGROUND:2001-bg.png;
#LYRICSPATH:;
#CDTITLE:;
#MUSIC:2001.ogg;
#OFFSET:0.375000;
#SAMPLESTART:43.546001;
#SAMPLELENGTH:20.000000;
#SELECTABLE:YES;
#DISPLAYBPM:131.000000;
#BPMS:0.000000=131.145996
;
#STOPS:
;
#BGCHANGES:;
#KEYSOUNDS:;
#ATTACKS:;

//---------------dance-single - ----------------
#NOTES:
     dance-single:
     :
     Hard:
     13:
     0.545363,0.545614,0.154386,0.266667,0.157895,544.000000,522.000000,22.000000,38.000000,0.000000,0.000000,0.545363,0.545614,0.154386,0.266667,0.157895,544.000000,522.000000,22.000000,38.000000,0.000000,0.000000:
0000
0000
0000
0000
,
0000
0000
0000
0000
,
0000
0000
0000
0000
,
0000
0000
0000
0000
,
1000
0010
0100
0001
0010
0100
1000
0000
,
0001
0100
0010
1000
0100
0010
0001
0000
,
1000
0001
0010
0100
0010
0100
1000
0000
,
1001
0000
0000
0001
0010
0000
1100
0000
0000
0101
0000
0000
1000
0100
0000
0000
,
0011
0000
1000
0001
0001
0100
0010
1000
,
0100
0000
0000
0010
0001
0000
0001
0000
1000
0000
0010
0000
1000
0000
0100
0000
,
0020
0000
0130
0010
0001
0100
0010
1000
,
0200
0000
0000
0000
0310
0000
0001
0000
1000
0000
0001
0100
0001
0000
1000
0000
,
0010
0000
1000
0001
0010
0100
1000
0000
,
1010
0000
0000
0001
1000
0000
0010
0000
0100
0000
1000
0000
0100
0000
0001
0000
,
0010
0000
0100
1000
0010
0100
0001
0000
,
1000
0100
0000
0100
0001
0000
1000
0010
0000
0010
0001
0000
0100
0000
0001
1000
,
0001
0010
1000
0001
0100
0010
1000
0100
,
0010
0001
0100
0010
1000
0100
1000
0001
,
0110
0000
0001
0010
1000
0100
0001
0000
,
2000
0000
0000
0000
3002
0000
0000
0000
0103
0010
0100
0010
0100
0000
0001
0000
,
0010
0010
0100
1000
0001
0100
0010
1000
,
0200
0000
1300
0001
0010
0010
0001
0100
,
0002
0000
0013
0001
0001
1000
0010
0100
,
0020
0000
1030
0001
0010
0100
0100
1000
,
0001
0010
2000
0000
3100
1000
0010
0100
,
0000
0110
0000
2001
0001
0100
3200
0000
,
1300
0001
0010
0100
0100
1000
0000
1000
,
0010
0000
0001
0000
0100
0000
0010
1000
0001
0000
0001
0000
0100
0000
1010
0000
,
0000
1000
1000
0001
0201
0010
0320
0000
,
1030
0100
0001
0000
0011
0000
1100
0010
,
2000
0100
0000
0001
0000
0010
3010
0000
,
1000
1000
1000
0010
0100
0001
0010
0100
,
0000
0100
0010
0001
1000
0001
0100
0010
,
0010
1000
0001
0010
0100
1000
0000
0010
,
1000
0102
0000
0103
1001
0100
0010
1000
,
1000
0001
0010
0100
2000
0000
3020
0000
,
1030
0001
0010
0000
1100
0000
1010
0001
,
0200
0010
0000
1000
1300
0100
0001
0010
,
0100
0000
0000
1000
0001
0000
0010
0000
0010
0000
0001
0000
1000
0000
0100
0000
,
1000
0010
0001
0100
0100
0010
1000
0001
,
0010
0001
0100
0100
0100
0010
1000
0001
,
0010
0000
0001
0000
1000
0000
0010
0000
1000
0000
0100
0000
0010
0000
0001
1000
,
0001
0000
0010
0100
2000
0000
3002
0000
,
1003
0001
0010
0100
0010
0001
0100
1000
,
0010
0000
1000
0001
0010
0001
0200
0000
,
0310
0000
0100
0000
0001
0000
1000
0000
0001
0010
0001
0010
0001
0010
0001
0010
,
0001
0000
0100
0100
0010
1000
0001
0010
,
0000
0100
1000
0001
1000
0010
0100
0001
,
0010
0001
0000
1000
1000
0010
0000
0100
,
0001
0010
0100
1000
0010
0100
0001
1000
,
1000
0001
0010
0100
0010
0001
1000
0010
,
0110
0000
0001
1000
1000
0010
0100
0001
,
1001
0100
0000
1000
1000
0001
0010
0100
,
1000
0000
0010
0000
0100
0000
0000
0000
0001
1000
0001
0000
0100
0010
0100
0000
,
0002
0010
0013
0000
2000
0100
3100
0000
,
0020
0100
0130
0000
0200
0001
0301
0000
,
2000
0001
3001
0000
0020
0100
0130
0000
,
0002
0010
0013
0000
0200
1000
1300
0000
,
0020
0100
0130
0000
0020
1000
1030
0000
,
0200
0010
0310
0000
0200
1000
1300
0000
,
2000
0010
3010
0000
0002
0100
0103
0000
,
2000
0100
3100
0000
0002
1000
1003
0000
,
1000
0000
0001
0000
0010
0000
0000
0001
0000
1000
0000
0001
0100
0000
0000
0000
,
0010
0000
1000
0000
0100
0000
0000
0010
0000
0001
0000
1000
0001
0000
0000
0000
,
0100
0000
0001
0000
0010
0000
0000
0100
0000
1000
0000
0010
1000
0000
0000
0000
,
1000
0000
0100
0000
0001
0000
0000
1000
0000
0001
0000
0010
0100
0000
0000
0000
,
0010
0000
0001
0000
1000
0000
0000
0010
0000
0100
0000
0001
1000
0000
0000
0000
,
0100
0000
0010
0000
0100
0000
0000
1000
0000
0010
0000
0100
0001
0000
0000
0000
,
0010
0000
0100
0000
1000
0000
0000
0001
0000
0010
0000
0100
0010
0000
0000
0000
,
0002
0103
0020
1030
,
1100
1000
0010
1000
0100
0010
0001
0000
,
0010
0001
1000
0010
1000
0100
0001
0000
,
0010
0100
1000
0010
0100
0001
1000
0000
,
0001
1000
0100
0001
0100
1000
0010
0000
,
1000
0100
0010
1000
0010
0001
0100
0000
,
0010
1000
0100
0010
0001
1000
0001
0000
,
1000
0100
0001
1000
0010
0100
0001
0000
,
1001
0000
0000
0001
0100
0000
1000
0010
1000
0000
1100
0000
0101
0000
0000
0000
;

//---------------dance-single - ----------------
#NOTES:
     dance-single:
     :
     Medium:
     10:
     0.395990,0.409211,0.252632,0.449123,0.010526,395.000000,359.000000,36.000000,64.000000,0.000000,0.000000,0.395990,0.409211,0.252632,0.449123,0.010526,395.000000,359.000000,36.000000,64.000000,0.000000,0.000000:
0000
0000
0000
0000
,
0000
0000
0000
0000
,
0000
0000
0000
0000
,
0000
0000
0000
0000
,
1000
0000
0010
0000
1000
0100
0001
0000
,
0010
0000
0100
0000
1000
0010
0001
0000
,
0100
0000
0010
0000
1000
0001
0100
0000
,
1001
0000
0000
0000
0000
0000
1100
0000
0000
0110
0000
0000
0011
0000
0000
0000
,
0100
0000
0000
1000
0001
0100
0000
0020
,
0000
0000
1030
0001
2000
0000
3010
0200
,
0000
0000
0301
0010
0002
0000
1003
0020
,
0000
0000
1030
0100
0002
0000
0013
0100
,
1000
0000
0001
0000
0010
0001
0100
0000
,
0001
0000
0010
0100
1000
0000
0001
0100
,
0010
0000
1000
0000
0001
1000
0100
0000
,
0020
0000
0000
0032
0000
0000
2003
0000
0000
3002
0000
0000
0103
0000
0010
0000
,
1000
0100
0001
0000
0010
0100
1000
0000
,
0010
0100
0000
0002
0000
2003
0000
3200
,
0000
0000
1300
0020
0000
0230
0000
0302
,
0010
0000
0103
0000
0001
1000
0001
0010
,
0100
1000
0000
1100
0000
1001
0000
0101
,
0000
0000
0001
1000
0010
0100
0000
0110
,
0000
0000
1000
0010
0100
0001
0000
0001
,
1000
0000
0000
0011
0000
0100
0010
0000
,
2000
0000
3002
0000
0023
0000
0130
2000
,
0000
3020
0000
0230
0000
0301
0010
0001
,
0100
0000
0010
1000
0000
1010
0000
0110
,
0000
0101
0000
1000
0001
0010
0100
2000
,
0000
3002
0000
1003
0010
0000
0110
0000
,
1001
0000
0002
0000
0103
0000
1000
0001
,
2000
0010
0000
0100
0000
3010
0100
0000
,
0001
1000
0100
0000
1001
0000
0010
2000
,
0000
3002
0000
0023
0000
0130
1000
0001
,
0100
0000
1010
0000
0000
2000
0000
3020
,
0000
0230
0000
0301
0010
0100
0010
0002
,
0000
0203
0000
0310
2000
0000
3002
0000
,
0023
0000
0230
0000
2300
0000
3010
0100
,
0002
0000
1000
0013
,
0001
0100
1000
0000
0010
0100
0000
0110
,
0000
0000
0101
0000
0001
0010
0001
0100
,
0000
0000
0011
0000
1000
0100
1000
0001
,
0000
0000
1100
0000
0010
0100
0001
1000
,
0010
0000
1000
0000
0100
0010
0001
0000
,
1000
0000
0001
0000
0010
0100
1000
0000
,
0010
0000
1000
0000
0100
1000
0001
0000
,
0010
0001
0100
0000
0010
1000
0100
0000
,
2000
0000
3002
0000
0013
0100
0000
1100
,
0000
0101
0000
0200
0000
0320
0000
1030
,
0001
0000
0000
1001
0000
1010
0000
1000
,
0100
0000
0001
0000
0010
0001
1000
0000
,
0010
0100
0000
0110
0000
0101
0000
1100
,
0000
0000
0001
0010
0100
1000
0000
1010
,
0000
0000
1000
0100
0010
0001
0000
1001
,
0000
0000
0010
1000
0100
0010
0001
0000
,
2000
3010
0200
0301
,
0020
0130
2000
3001
,
0020
0031
0200
0310
,
2000
3001
2000
3100
,
0002
0013
0002
0103
,
0020
0130
0002
0013
,
0200
1300
0020
0130
,
0002
0013
2000
3001
,
0010
0000
0001
0000
0100
0010
1000
0000
,
0010
0000
1000
0000
0001
0010
0100
0000
,
1000
0000
0001
0000
1000
0100
0010
0000
,
0001
0000
0010
0000
1000
0001
0100
0000
,
0010
0000
0100
0000
0001
1000
0001
0000
,
1000
0000
0100
0000
0001
1000
0010
0000
,
0100
0000
0010
0000
1000
0100
0001
0000
,
2000
3002
2003
3002
,
0013
0100
1000
0000
0110
0000
1001
0000
,
0001
0000
1000
0000
0100
0010
0100
0000
,
1000
0000
0010
0000
0100
0001
1000
0000
,
0001
0000
0010
0000
1000
0100
0001
0000
,
1100
0000
0001
0000
1000
0001
0100
0000
,
0010
0000
1000
0000
1000
0100
0001
0000
,
0010
0000
0100
0000
0010
0001
1000
0000
,
1010
0101
0011
1100
;

//---------------dance-single - ----------------
#NOTES:
     dance-single:
     :
     Easy:
     6:
     0.229574,0.245526,0.042105,0.252632,0.000000,229.000000,223.000000,6.000000,36.000000,0.000000,0.000000,0.229574,0.245526,0.042105,0.252632,0.000000,229.000000,223.000000,6.000000,36.000000,0.000000,0.000000:
0000
0000
0000
0000
,
0000
0000
0000
0000
,
0000
0000
0000
0000
,
0000
0000
0000
0000
,
0000
1000
0001
1000
,
0000
0010
0100
0010
,
0000
1000
0100
0010
,
0001
0100
0010
1000
,
1001
0000
0010
0100
,
0001
0000
0010
0100
,
1000
0000
0001
1000
,
0100
0000
1000
0010
,
0001
1000
0100
1000
,
0000
0001
0100
0001
,
0000
0010
0001
0100
,
0010
1000
0001
1000
,
0010
0001
1000
0000
,
0110
0000
0001
0100
,
1000
0000
0010
0100
,
0001
0000
0010
0100
,
1000
0001
1000
0100
,
0010
0000
0001
1000
,
0001
0000
0010
0100
,
1000
0010
0100
0001
,
0010
0000
0001
0000
1000
0000
0000
0010
,
0000
0100
0000
0001
0000
0000
1000
0000
,
0100
0000
0001
0000
0000
0010
0000
0100
,
0000
1000
0000
0000
0001
0000
0010
0000
,
0001
0000
1000
1000
,
0001
0100
0010
2000
,
0002
0000
0000
3003
,
0010
0000
0001
0000
0100
0000
0000
0001
,
0000
0010
0000
1000
0000
0000
0100
0000
,
1000
0000
0001
0000
0000
1000
0000
0010
,
0000
0100
0000
0000
0010
0000
1000
0000
,
0010
0000
0001
0001
,
1000
0100
1000
0020
,
0200
0000
0330
0001
,
1001
0000
1000
0100
,
0001
0000
0010
0100
,
0010
0000
0001
0100
,
1000
0000
0010
0100
,
0110
0001
0010
1000
,
0000
0100
0010
0001
,
0000
1000
0001
1000
,
0010
0100
0010
1000
,
0001
0100
1000
0100
,
0001
0000
0010
0100
,
1000
0000
0001
1000
,
0010
0000
0100
0010
,
1000
0001
0010
0100
,
0010
0000
0001
1000
,
0100
0000
1000
0010
,
0001
0000
0010
0100
,
2000
3000
0002
0003
,
0020
0030
0200
0300
,
0020
0030
0002
0003
,
2000
3000
0200
0300
,
0002
0003
0020
0030
,
0200
0300
2000
3000
,
0200
0300
2000
3000
,
0020
0030
0002
0003
,
0020
0030
0200
0300
,
0020
0030
0002
0003
,
2000
3000
0200
0300
,
2000
3000
0002
0003
,
2000
3000
0020
0030
,
0200
0300
0002
0003
,
0020
0030
0200
0300
,
2000
3001
0002
1003
,
1001
0100
0010
0001
,
0000
0100
0010
1000
,
0000
0001
0010
0001
,
1000
0001
1000
0100
,
0000
0001
0010
1000
,
0000
0100
0010
0001
,
0000
1000
0010
1000
,
0001
0100
0001
0110
;

//---------------dance-single - ----------------
#NOTES:
     dance-single:
     :
     Beginner:
     2:
     0.105263,0.163158,0.014035,0.014035,0.000000,105.000000,103.000000,2.000000,2.000000,0.000000,0.000000,0.105263,0.163158,0.014035,0.014035,0.000000,105.000000,103.000000,2.000000,2.000000,0.000000,0.000000:
// measure 0
0000
0000
0000
0000
,  // measure 1
0000
0000
0000
0000
,  // measure 2
0000
0000
0000
0000
,  // measure 3
0000
0000
0000
0000
,  // measure 4
1000
0000
0010
0000
,  // measure 5
0000
0000
0100
0000
,  // measure 6
0000
0000
0001
0000
,  // measure 7
1000
0000
0001
0000
,  // measure 8
0000
0000
0010
0000
,  // measure 9
0010
0000
0001
0000
,  // measure 10
1000
0000
0010
0000
,  // measure 11
1000
0000
0100
0000
,  // measure 12
0001
0000
0000
0000
,  // measure 13
0000
0000
0100
0000
,  // measure 14
0100
0000
0000
0000
,  // measure 15
0001
0000
1000
0000
,  // measure 16
0010
0000
0010
0000
,  // measure 17
1000
0000
0001
0000
,  // measure 18
0100
0000
0000
0000
,  // measure 19
0001
0000
0000
0000
,  // measure 20
1000
0000
0001
0000
,  // measure 21
0010
0000
0100
0000
,  // measure 22
1000
0000
0001
0000
,  // measure 23
0100
0000
0000
0000
,  // measure 24
0010
0000
0010
0000
,  // measure 25
1000
0000
0000
0001
,  // measure 26
0000
0100
0000
0100
,  // measure 27
0000
0000
0001
0000
,  // measure 28
1000
0000
0001
0000
,  // measure 29
0000
0010
0000
0100
,  // measure 30
0200
0000
0300
0000
,  // measure 31
1000
0000
1000
0000
,  // measure 32
0100
0000
0000
0010
,  // measure 33
0000
0010
0000
0001
,  // measure 34
0000
0000
0010
0000
,  // measure 35
0001
0000
1000
0000
,  // measure 36
0000
0001
0000
0010
,  // measure 37
0020
0000
0030
0000
,  // measure 38
0001
0000
1000
0000
,  // measure 39
1000
0000
0010
0000
,  // measure 40
0010
0000
1000
0000
,  // measure 41
0100
0000
0001
0000
,  // measure 42
0010
0000
0000
0000
,  // measure 43
0000
0000
0001
0000
,  // measure 44
0100
0000
0000
0000
,  // measure 45
1000
0000
0001
0000
,  // measure 46
1000
0000
0010
0000
,  // measure 47
1000
0000
0001
0000
,  // measure 48
0010
0000
0000
0000
,  // measure 49
0100
0000
0000
0000
,  // measure 50
0010
0000
0010
0000
,  // measure 51
0010
0000
0001
0000
,  // measure 52
1000
0000
0100
0000
,  // measure 53
0100
0000
0000
0000
,  // measure 54
1000
0000
0000
0000
,  // measure 55
0000
0000
0000
0000
,  // measure 56
0010
0000
0000
0000
,  // measure 57
0000
0000
0000
0000
,  // measure 58
0100
0000
0000
0000
,  // measure 59
0000
0000
0000
0000
,  // measure 60
0001
0000
0000
0000
,  // measure 61
0000
0000
0000
0000
,  // measure 62
0010
0000
0000
0000
,  // measure 63
0010
0000
0000
0000
,  // measure 64
0100
0000
0000
0000
,  // measure 65
0100
0000
0000
0000
,  // measure 66
1000
0000
0000
0000
,  // measure 67
0001
0000
0000
0000
,  // measure 68
1000
0000
0000
0000
,  // measure 69
0001
0000
0000
0000
,  // measure 70
0000
0000
0100
0000
,  // measure 71
0000
0000
0010
0000
,  // measure 72
0000
0000
1000
0000
,  // measure 73
0100
0000
0010
0000
,  // measure 74
0000
0000
0001
0000
,  // measure 75
0000
0000
1000
0000
,  // measure 76
0000
0000
0001
0000
,  // measure 77
0110
0000
1001
0000
;
