#TITLE:1998;
#SUBTITLE:;
#ARTIST:NAOKI;
#TITLETRANSLIT:;
#SUBTITLETRANSLIT:;
#ARTISTTRANSLIT:;
#GENRE:;
#CREDIT:;
#BANNER:1998.png;
#BACKGROUND:1998-bg.png;
#LYRICSPATH:;
#CDTITLE:;
#MUSIC:1998.ogg;
#OFFSET:0.000000;
#SAMPLESTART:28.009001;
#SAMPLELENGTH:20.000000;
#SELECTABLE:YES;
#DISPLAYBPM:150.000000;
#BPMS:0.000000=150.000000
;
#STOPS:
;
#BGCHANGES:;
#KEYSOUNDS:;
#ATTACKS:;

//---------------dance-single - ----------------
#NOTES:
     dance-single:
     :
     Beginner:
     3:
     0.188492,0.240079,0.138889,0.000000,0.000000,133.000000,119.000000,14.000000,0.000000,0.000000,0.000000,0.188492,0.240079,0.138889,0.000000,0.000000,133.000000,119.000000,14.000000,0.000000,0.000000,0.000000:
0000
0000
0000
0000
,
0000
0000
0000
0000
,
0000
0000
0000
0000
,
1000
0000
0001
0000
,
0100
0000
0010
0010
,
0010
0000
0001
0000
,
1000
0000
0001
0000
,
1000
0000
0001
0000
,
0100
0000
0010
0010
,
0000
0001
0000
0001
,
0000
1000
0000
1000
,
0000
0110
0000
1000
,
0000
0110
0000
0001
,
0000
0001
0001
0000
,
0000
1000
1000
0000
,
1000
0000
0001
0000
,
0100
0100
0000
0010
,
0000
0000
0000
0000
,
0001
0000
0001
0000
,
0100
0000
0100
0000
,
0010
0000
0010
0000
,
1000
0000
1000
0000
,
0100
0000
0010
0000
,
0001
0000
1000
0000
,
0100
0000
0010
0000
,
0100
0000
1001
0000
,
1000
0000
0010
0000
,
0001
0000
0010
0000
,
0001
0000
0100
0000
,
1000
0000
0100
0000
,
1000
0000
1001
0000
,
0001
0000
1001
0000
,
0100
0000
0110
0000
,
0010
0000
0110
0000
,
0000
1000
0000
0001
,
0000
0100
0000
1000
,
0000
0001
0000
1000
,
0000
0100
0000
0001
,
0000
0010
0000
1000
,
0000
0010
0000
0001
,
0000
0100
0000
0010
,
0000
0001
0000
1001
,
0000
0000
0000
0000
,
1000
1000
0000
0001
,
0000
0001
0000
1000
,
0000
0100
0000
0010
,
0000
0100
0100
0100
,
0100
0000
0110
0000
,
0001
0000
1001
0000
,
0010
0000
0110
0000
,
1000
0000
1001
0000
,
0100
0100
0000
0010
,
0000
1000
0000
0001
,
0000
0100
0000
0010
,
0000
0001
0000
1000
,
0000
0010
0000
0100
,
0000
1000
0000
0100
,
0000
0001
0000
0100
,
0000
0010
0010
0010
,
0010
0000
0100
0000
,
1001
0000
0110
0000
,
0000
0000
0000
0000
;

//---------------dance-single - ----------------
#NOTES:
     dance-single:
     :
     Easy:
     4:
     0.255102,0.301339,0.029762,0.019841,0.000000,180.000000,177.000000,3.000000,2.000000,0.000000,0.000000,0.255102,0.301339,0.029762,0.019841,0.000000,180.000000,177.000000,3.000000,2.000000,0.000000,0.000000:
0000
0000
0000
0000
,
0000
0000
0000
0000
,
0000
0000
0000
0000
,
1000
0000
0001
0000
,
0100
0000
0010
0010
,
1000
0000
0001
0000
,
1000
0000
0001
0000
,
1000
0000
0001
0000
,
0100
0000
0010
0010
,
1000
0000
0001
0001
,
0001
0000
1000
1000
,
0001
0000
0110
1000
,
1000
0000
0110
0001
,
1000
0100
0001
0100
,
1000
0100
0001
0100
,
1000
0100
0001
0100
,
1000
1000
0100
0001
,
1000
0000
0000
0000
,
0001
1000
0001
1000
,
0100
0010
0100
0010
,
0001
0000
0100
0000
,
1000
0000
0100
0000
,
0100
0000
0010
0010
,
0001
0000
1000
0010
,
1000
0000
0001
0010
,
1000
0001
1000
0000
,
1000
0100
0010
0001
,
0001
0100
0010
1000
,
0001
0000
1000
0000
,
0010
0000
0100
0000
,
0100
0000
0001
0001
,
0100
0000
1000
1000
,
0001
0000
1000
0010
,
1000
0000
0001
0010
,
1000
0000
0001
0000
,
0100
0010
1000
0001
,
0001
0000
1000
0000
,
0100
0010
0001
0001
,
1000
0010
1000
1000
,
0001
0010
0001
0001
,
1000
0001
0100
0100
,
0001
0001
1000
1000
,
0100
0000
0000
0000
,
0100
0000
0010
0000
,
1000
0000
0001
0000
,
1000
0000
0001
0000
,
1000
0001
1000
0001
,
0100
0100
1000
1000
,
0100
0100
0001
0001
,
0001
0010
0001
0010
,
1000
0010
1000
0010
,
0001
0010
1000
0010
,
0001
0010
1000
0010
,
1000
0001
1000
0001
,
0100
0100
1000
1000
,
1000
0000
0001
0000
,
0001
0000
1000
0000
,
0100
0100
0010
0010
,
1000
0001
0100
0010
,
1000
0000
0001
0000
,
2002
0000
0000
3003
,
0000
0000
0000
0000
;

//---------------dance-single - ----------------
#NOTES:
     dance-single:
     :
     Medium:
     6:
     0.348639,0.419271,0.148810,0.009921,0.004960,246.000000,231.000000,15.000000,1.000000,0.000000,0.000000,0.348639,0.419271,0.148810,0.009921,0.004960,246.000000,231.000000,15.000000,1.000000,0.000000,0.000000:
0000
0000
0000
0000
,
0000
0000
0000
0000
,
0000
0000
0000
0000
,
0001
0000
1000
0000
,
0010
0010
0100
0100
,
0001
1000
0001
1000
,
0001
1000
0001
1000
,
0001
0000
1000
0000
,
0010
0010
0100
1001
,
0010
0010
1000
1000
,
0010
0010
0001
0001
,
1000
1000
0110
0001
,
0001
0001
0110
1000
,
0001
0100
1000
0100
,
0010
0001
1000
0100
,
0001
0100
1000
0100
,
0001
0001
0110
1000
,
0002
0000
0000
0003
,
1000
0001
0010
0100
,
0001
0100
1000
0100
,
0010
0100
0001
1000
,
0010
0000
0100
0000
0001
1000
0001
0000
,
0010
0010
0100
0100
,
1000
1000
0001
0100
,
0001
0001
1000
0100
,
0001
1000
0001
0101
,
0001
0010
0100
1000
,
1000
0010
0100
0001
,
1000
0100
0001
0100
,
0001
0000
1000
0000
0001
1000
0001
0000
,
0010
0010
1000
0100
,
0010
0010
0001
0100
,
1000
1000
0001
0100
,
0001
0001
1000
0100
,
0001
0100
1000
0100
,
0010
0000
0100
0000
0001
1000
0100
0000
,
1000
0100
0001
0100
,
0010
0000
0100
0000
1000
0001
0100
0000
,
1001
0000
0100
0000
0001
0100
0001
0000
,
1001
0000
0100
0000
1000
0100
1000
0000
,
0001
0000
1000
0000
0010
0100
0010
0000
,
1001
0000
1000
0000
0001
0100
0001
0000
,
0010
1000
0100
0001
,
0010
0000
0100
0000
,
0001
0000
1000
0000
,
0001
0000
1000
0000
,
0001
1000
0001
1001
,
0010
1000
0010
0000
0001
0000
0101
0000
,
0010
0001
0010
0000
1000
0000
1100
0000
,
1000
0010
0100
0000
1000
0000
1100
0000
,
0001
0010
0100
0000
0001
0000
0101
0000
,
1000
0100
0001
0100
,
1000
0100
0001
0100
,
0001
1000
0001
1000
,
0010
0000
0100
0000
0001
1000
0001
0000
,
0001
0100
1000
1000
,
1000
0100
0001
0001
,
0010
0010
0100
0100
,
0001
1000
0010
0100
,
0001
0001
1000
1000
,
1001
0000
0000
0010
0000
0000
1001
0000
0000
0000
0000
0000
0000
0000
0000
0000
,
0000
0000
0000
0000
;

//---------------dance-single - ----------------
#NOTES:
     dance-single:
     :
     Hard:
     9:
     0.504535,0.512277,0.446429,0.109127,0.029762,356.000000,311.000000,45.000000,11.000000,0.000000,0.000000,0.504535,0.512277,0.446429,0.109127,0.029762,356.000000,311.000000,45.000000,11.000000,0.000000,0.000000:
0000
0000
0000
0000
,
0000
0000
0000
0000
,
0000
0000
0000
0000
,
0001
1000
0000
0000
0100
0000
0000
0000
0001
0000
0000
0000
0100
0000
0000
0000
,
1000
0001
0000
0000
0100
0000
0000
0000
1000
0000
0000
0000
0100
0000
0000
0000
,
0001
1000
0000
0000
0100
0000
0000
0000
0001
0000
0000
0000
0100
0000
0000
0000
,
1000
0001
0000
0000
0100
0000
0000
0000
1000
0000
0000
0000
0100
0000
0000
0000
,
0001
1000
0000
0000
0100
0000
0000
0000
0001
0000
0000
0000
1000
0000
0000
0000
,
0001
0000
0001
0000
0001
0010
0100
0000
,
1100
0000
0001
0000
0001
0010
0100
0000
,
0011
0000
1100
0000
1000
0010
0101
0000
,
1001
0000
0100
0000
1000
0001
0100
0000
,
0010
1000
0100
0010
0001
1000
1100
0000
,
0011
0000
0100
0000
1000
0010
0100
0000
,
0001
0010
0100
1000
0010
0100
0001
0000
,
0220
0000
0330
0000
1001
0000
0000
0010
,
1000
0100
1000
0001
0010
0100
1000
0000
,
2002
3000
0010
0013
,
0010
0100
1000
0100
,
0010
0100
0001
0100
,
0010
1000
0100
0000
0010
0001
0100
0000
,
0010
1000
0100
0010
0001
0100
0101
0000
,
1010
0000
0101
0000
0010
1000
0100
0000
,
1000
0001
0100
0000
0010
0001
0100
0000
,
0001
0100
1000
0000
1000
0100
0001
0000
,
1000
0010
0001
0010
0001
0010
0110
0000
,
0110
0000
1010
0000
0001
1000
0100
0000
,
1001
0000
0101
0000
1000
0010
0100
0000
,
0001
1000
0100
0000
1000
0001
0100
0000
,
0010
0001
0100
1000
0100
0001
0011
0000
,
1001
0100
1000
0100
,
0001
0100
0001
0100
,
1000
0100
1000
0000
0001
0100
0001
0000
,
1000
0010
0100
0001
0010
0100
1000
0000
,
0001
0000
1000
0000
0010
0100
0001
0000
,
0010
0100
0001
0010
0001
1000
0100
0000
,
1001
0000
0101
0000
0010
1000
0100
1000
,
0001
0000
1001
0000
0010
1000
0100
0000
,
0001
0100
0001
0000
1000
0100
1000
0000
,
0101
0000
0010
1000
0100
0010
0001
0000
,
0100
0010
1000
0100
0010
0001
0100
0000
,
1010
0000
0001
1000
0100
0000
0101
0000
,
0010
1000
0100
0001
,
0010
0000
1000
0000
0001
1000
0100
0000
,
0010
0001
2000
3000
,
0202
0303
2002
3003
,
0010
0001
0100
0010
1000
0001
0100
0000
,
1001
0000
1100
0000
0010
0001
0100
0000
,
0101
0000
1010
0000
0001
0010
0100
0000
,
0001
0100
0001
0000
1000
0100
1000
0000
,
0001
0010
0100
1000
0010
0100
0101
0000
,
1001
0000
1100
0000
0010
0001
0100
0000
,
0101
0000
1010
0000
0010
0100
0001
0000
,
1000
0100
1000
0000
0001
0100
0001
0000
,
1000
0100
0010
0001
1000
0001
0101
0000
,
0010
1000
0100
0000
0010
0001
0100
0000
,
0110
0000
0101
0000
1000
0100
0010
0000
,
0001
1000
0100
0000
1000
0001
0100
0000
,
0001
1000
0010
0100
0001
0010
0100
0000
,
1010
0100
0101
0010
,
1010
0000
0000
1001
0000
0000
0202
0000
0000
0000
0000
0000
0303
0000
0000
0000
,
0000
0000
0000
0000
;

//---------------dance-double - ----------------
#NOTES:
     dance-double:
     :
     Easy:
     5:
     0.259354,0.301339,0.029762,0.019841,0.000000,183.000000,180.000000,3.000000,2.000000,0.000000,0.000000,0.259354,0.301339,0.029762,0.019841,0.000000,183.000000,180.000000,3.000000,2.000000,0.000000,0.000000:
00000000
00000000
00000000
00000000
,
00000000
00000000
00000000
00000000
,
00000000
00000000
00000000
00000000
,
00001000
00000000
00010000
00000000
,
00000010
00000000
00000100
00001000
,
00010000
00000000
00001000
00000000
,
00010000
00000000
00001000
00000000
,
00100000
00000000
10000000
00000000
,
01000000
00000000
00010000
00001000
,
00000010
00000001
00000100
00000100
,
00001000
00010000
01000000
01000000
,
10000000
00000000
01100000
00001000
,
00010000
00000000
00000110
00000001
,
00000001
00000100
00001000
00000100
,
00010000
00001000
00100000
01000000
,
10000000
01000000
00010000
01000000
,
00001000
00010000
00000010
00000100
,
00000001
00000000
00000000
00000000
,
00000001
00001000
00000001
00001000
,
00000100
00010000
00000100
00010000
,
00001000
00000000
01000000
00000000
,
00010000
00000000
10000000
00000000
,
00100000
00000000
00001000
00010000
,
00000010
00000000
00000100
00000001
,
00000010
00000000
00000100
00001000
,
00010000
00001000
00010000
00001000
,
00010000
00100000
10000000
01000000
,
00010000
00001000
00000010
00000001
,
00000100
00000000
00010000
00000000
,
00100000
00000000
01000000
00000000
,
00010000
00000000
00001000
00001000
,
00000100
00000000
00000001
00000001
,
00000010
00000000
00001000
00010000
,
00100000
00000000
10000000
01000000
,
00010000
00000000
00001000
00000000
,
00000010
00000100
00000001
00000100
,
00001000
00000000
00010000
00000000
,
01000000
00100000
00001000
00010000
,
00000010
00000100
00000001
00000001
,
00000010
00000100
00010000
00001000
,
00010000
00100000
01000000
01000000
,
00001000
00010000
00001000
00001000
,
00000100
00000000
00000000
00000000
,
00000001
00000000
00000100
00000000
,
00001000
00000000
00010000
00000000
,
00010000
00000000
10000000
00000000
,
00100000
00001000
00010000
00000100
,
00000010
00000010
00000001
00000001
,
00000100
00000100
00001000
00001000
,
00010000
00100000
00010000
00100000
,
10000000
01000000
10000000
01000000
,
00010000
00001000
00010000
00001000
,
00000010
00000001
00000100
00001000
,
00010000
00001000
00010000
00001000
,
01000000
01000000
00100000
00100000
,
10000000
00000000
01000000
00000000
,
00010000
00000000
00001000
00000000
,
00000100
00000100
00000001
00000001
,
00000010
00001000
00010000
01000000
,
10000000
00000000
00010000
00000000
,
00022000
00000000
00000000
00033000
,
00000000
00000000
00000000
00000000
;

//---------------dance-double - ----------------
#NOTES:
     dance-double:
     :
     Medium:
     6:
     0.364229,0.419271,0.218254,0.019841,0.004960,257.000000,235.000000,22.000000,2.000000,0.000000,0.000000,0.364229,0.419271,0.218254,0.019841,0.004960,257.000000,235.000000,22.000000,2.000000,0.000000,0.000000:
00000000
00000000
00000000
00000000
,
00000000
00000000
00000000
00000000
,
00000000
00000000
00000000
00000000
,
00001000
00000000
00010000
00000000
,
00100000
10000000
01000000
00010000
,
00001000
00010000
00001000
00010000
,
00000010
00000100
00000001
00000100
,
00001000
00000000
01000000
00000000
,
00100000
10000000
01000000
01001000
,
00100000
00001000
01000000
00001000
,
00100000
00001000
00000100
00000001
,
00000001
00000010
00000110
00010000
,
00001000
00010000
01100000
10000000
,
10000000
00100000
01100000
00001000
,
00010000
00001000
00000110
00000001
,
00000001
00000110
00010000
00011000
,
00001000
00010000
01100000
10000000
,
00020000
00000000
00000000
00030000
,
00010000
00001000
00000100
00000001
,
00000010
00000100
00010000
00001000
,
00100000
01000000
00010000
00001000
,
00000010
00000000
00000001
00000000
00000100
00001000
00000100
00000000
,
00001000
00001000
00010000
00010000
,
01000000
01000000
00010000
00001000
,
00010000
00010000
00000010
00000100
,
00000001
00001000
00000100
00010100
,
00001000
00100000
01000000
10000000
,
00100000
00010000
00001000
00000010
,
00000001
00000100
00001000
00010000
,
00100000
00000000
10000000
00000000
01000000
00010000
00001000
00000000
,
00010000
00010000
00001000
00000100
,
00000001
00000001
00000010
00000100
,
00010000
00010000
00001000
01000000
,
00100000
00100000
10000000
01000000
,
00010000
00001000
00000010
00000001
,
00001000
00000000
00000010
00000000
00000100
00001000
00010000
00000000
,
00001000
00010000
01000000
10000000
,
00100000
00000000
01000000
00000000
00001000
00010000
00001000
00000000
,
00010010
00000000
00001000
00000000
00000010
00000100
00000001
00000000
,
00001001
00000000
00000100
00000000
00010000
00001000
00010000
00000000
,
00010000
00000000
00100000
00000000
00100000
01000000
00100000
00000000
,
01010000
00000000
00100000
00000000
00001000
00010000
00002000
00000000
,
00000010
00000001
00003100
00010000
,
00001000
00000000
00010000
00000000
,
00001000
00000010
00000001
00000100
,
00011000
00000100
00011000
01000000
,
00010000
10000000
01000000
01010000
,
00001000
00010000
00000100
00000000
00000010
00000000
00001100
00000000
,
00000010
00001000
00000100
00000000
00010000
00000000
00010100
00000000
,
00010000
00001000
01000000
00000000
00100000
00000000
11000000
00000000
,
00100000
00010000
01000000
00000000
00001000
00000000
00011000
00000000
,
00001000
00000010
00000001
00000100
,
00001000
00010000
01000000
01000000
,
00010000
00001000
00010000
00001000
,
00000010
00000000
00000100
00000000
00000001
00000100
00000001
00000000
,
00001000
00010000
01000000
01000000
,
10000000
01000000
00010000
00010000
,
00001000
00001000
00000100
00000100
,
00000001
00000010
00000100
00001000
,
00010100
00010000
00011000
01000000
,
01100000
00000000
00000000
10000000
00000000
00000000
00010000
00000000
00000000
00000000
00000000
00000000
00000000
00000000
00000000
00000000
,
00000000
00000000
00000000
00000000
;

//---------------dance-double - ----------------
#NOTES:
     dance-double:
     :
     Hard:
     9:
     0.501701,0.512277,0.406746,0.099206,0.004960,354.000000,313.000000,41.000000,10.000000,0.000000,0.000000,0.501701,0.512277,0.406746,0.099206,0.004960,354.000000,313.000000,41.000000,10.000000,0.000000,0.000000:
00000000
00000000
00000000
00000000
,
00000000
00000000
00000000
00000000
,
00000000
00000000
00000000
00000000
,
00010000
00001000
00010000
00000000
00000010
00000000
00000100
00000000
,
00000001
00000010
00000100
00000000
00010000
00000000
00001000
00000000
,
00001000
00010000
01000000
00000000
10000000
00100000
01000000
00000000
,
00001000
00100000
01000000
00000000
00010000
00001000
00000100
00000000
,
00000001
00000010
00000100
00000000
00010000
00000000
00001100
00000000
,
00010000
00000000
00001000
00000000
00010000
01000000
10000000
00000000
,
11000000
00000000
00010000
00000000
00010000
00001000
00000100
00000000
,
00000110
00000000
00000101
00000000
00000010
00000100
00001000
00000000
,
00010100
00000000
00001000
00000000
00010000
00100000
01000000
00000000
,
00100000
10000000
01000000
00010000
00001000
00000100
00000001
00000000
,
00000011
00000000
00000100
00000000
00010000
00001000
00010000
00000000
,
00010000
00100000
01000000
00010000
00100000
01000000
00010000
00000000
,
00022000
00033000
00000100
00000001
,
00000001
00000010
00000100
00001000
00000100
00010000
00001000
00000000
,
00020000
00000000
00100000
00130000
,
10000000
01000000
00010000
00001000
,
00010000
00001000
00000010
00000001
,
00000010
00000001
00000100
00000000
00000010
00001000
00000100
00000000
,
00010000
00001000
00010000
00100000
10000000
01000000
00010000
00000000
,
00011000
00000000
00010100
00000000
00001000
00000001
00000100
00000000
,
00000010
00010000
00001000
00000000
00100000
00010000
01000000
00000000
,
00010000
10000000
01000000
00000000
00100000
00001000
00010000
00000000
,
00001000
00010000
00001000
00000100
00000001
00000010
00000100
00000000
,
00010100
00000000
00011000
00000000
00001000
00010000
01000000
00000000
,
10010000
00000000
01010000
00000000
00001000
00010000
00000100
00000000
,
00000010
00000001
00000100
00000000
00000010
00001000
00000100
00000000
,
00010000
00001000
00010000
01000000
10000000
00100000
01100000
00000000
,
10010000
01000000
00010000
00001000
,
00000100
00000001
00000010
00000100
,
00000001
00000100
00000001
00000000
00001000
00000100
00001000
00000000
,
00010000
00001000
01000000
00010000
00100000
01000000
10000000
00000000
,
10100000
00000000
01010000
00000000
00100000
01000000
00010000
00000000
,
00001000
00000100
00000001
00000010
00000100
00001000
00000010
00000000
,
00000101
00000000
00001010
00000000
00001000
00010000
01000000
10000000
,
00010000
00000000
11000000
00000000
00100000
00010000
01000000
00000000
,
00010000
00001000
00010000
00000000
00001000
00000100
00001000
00000000
,
00000101
00000000
00000010
00000100
00010000
00001000
00000100
00000000
,
00001000
00010000
00100000
01000000
00100000
10000000
01000000
00000000
,
10100000
00000000
00010000
10000000
01000000
00000000
00110000
00000000
,
00001000
00010000
00001000
00000100
,
00000001
00000000
00000010
00000000
00001000
00010000
00001000
00000000
,
00100000
00010000
20000000
30000000
,
02020000
03030000
00020020
00030030
,
00000010
00000001
00000100
00001000
00010000
00001000
01000000
00000000
,
01010000
00000000
11000000
00000000
00100000
00010000
01000000
00000000
,
01001000
00000000
00011000
00000000
00010000
00001000
00000100
00000000
,
00000001
00000010
00000100
00000000
00001000
00000010
00000100
00000000
,
00001000
00010000
01000000
10000000
00100000
01000000
01010000
00000000
,
01001000
00000000
00011000
00000000
00100000
00010000
01000000
00000000
,
01001000
00000000
00011000
00000000
00000010
00001000
00000100
00000000
,
00000001
00000100
00000001
00000000
00001000
00000100
00001000
00000000
,
00010000
00001000
00100000
00010000
10000000
00100000
01100000
00000000
,
00100000
10000000
01000000
00000000
00100000
00001000
00010000
00000000
,
00010100
00000000
00011000
00000000
00001000
00000100
00000001
00000000
,
00000001
00000010
00000100
00000000
00010000
00001000
00000100
00000000
,
00001000
00010000
00100000
01000000
00010000
00100000
01000000
00000000
,
10010000
01000000
01001000
00010000
,
00010100
00000000
00000000
00000010
00000000
00000000
00002002
00000000
00000000
00000000
00000000
00000000
00003003
00000000
00000000
00000000
,
00000000
00000000
00000000
00000000
;

//---------------dance-single - ----------------
#NOTES:
     dance-single:
     :
     Challenge:
     13:
     0.698696,0.662946,0.416667,0.099206,0.669643,493.000000,451.000000,42.000000,10.000000,0.000000,0.000000,0.698696,0.662946,0.416667,0.099206,0.669643,493.000000,451.000000,42.000000,10.000000,0.000000,0.000000:
// measure 0
0000
0000
0000
0000
,  // measure 1
0000
0000
0000
0000
,  // measure 2
0000
0000
0000
0000
,  // measure 3
0001
1000
0000
0010
0000
0100
0000
0001
1000
0000
0001
0000
0100
0000
0010
0000
,  // measure 4
1000
0100
0000
1000
0000
0010
0000
0100
0001
0000
0010
0000
0100
0000
1000
0000
,  // measure 5
0010
1000
0000
0100
0000
0010
0000
0100
1000
0000
0001
0000
0100
0000
0001
0000
,  // measure 6
0100
0001
0000
0010
0000
0100
0000
1000
0010
0000
0100
0000
0001
0000
1000
0000
,  // measure 7
0001
0010
0000
0001
0000
0100
0000
0010
1000
0000
0100
0000
0010
0000
0001
0000
,  // measure 8
0012
0103
2010
3100
,  // measure 9
1001
0000
0000
0000
0110
0000
0000
0010
1000
0000
0100
0000
0010
0000
0001
0000
,  // measure 10
0100
0000
0010
0000
0100
0000
0000
0001
1000
0000
0100
0000
0010
0000
0001
0000
,  // measure 11
1000
0000
0100
0000
0010
0000
0000
0010
0100
0000
1000
0000
0001
0000
0100
0000
,  // measure 12
0001
0010
0100
1000
0010
0100
0001
1000
,  // measure 13
1100
0000
0000
0000
0101
0000
0000
0001
1000
0000
0100
0000
1000
0000
0010
0000
,  // measure 14
0100
0000
0001
0000
1000
0000
0000
1000
0001
0000
0010
0000
0100
0000
1000
0000
,  // measure 15
0120
0000
0000
0000
0001
0000
0000
0000
1030
0000
1100
0000
0000
0101
0000
0000
,  // measure 16
0011
0000
0000
0101
0000
0000
1001
0000
2100
0000
0000
0000
3001
0000
0000
0000
,  // measure 17
2002
0000
0000
0000
3000
0000
0000
0000
0100
0000
0000
1000
0000
0000
0013
0000
,  // measure 18
0011
0000
0000
0001
0100
0000
0000
0100
0010
0000
0000
0010
1000
0000
0000
1000
,  // measure 19
0010
0000
0000
0010
0001
0000
0000
0001
0010
1000
0010
0000
0100
0000
0000
0000
,  // measure 20
0101
0000
0000
0001
1000
0000
0000
1000
0100
0000
0000
0100
0010
0000
0000
0010
,  // measure 21
1000
0000
0000
1000
0010
0000
0000
0010
0001
0000
0000
0001
0100
0000
0000
0000
,  // measure 22
0010
1000
0000
0100
0000
1000
0000
0010
0100
0000
0001
0000
0010
0000
0100
0000
,  // measure 23
1000
0010
0000
0001
0000
0100
0000
0010
1000
0000
0100
0000
0010
0000
0001
0000
,  // measure 24
0010
0001
0000
0100
0000
0001
0000
1000
0100
0000
0010
0000
0100
0000
1000
0000
,  // measure 25
0001
1000
0000
0100
0000
0010
0000
1000
0100
0000
0001
0000
1000
0000
0010
0000
,  // measure 26
1010
0000
1000
0000
0100
0000
0010
0000
0001
0100
0001
0000
1000
0000
0000
0000
,  // measure 27
0101
0000
0001
0000
0010
0000
0100
0000
1000
0010
1000
0000
0001
0000
0000
0000
,  // measure 28
0110
0000
0100
0000
0001
0000
1000
0000
0010
0100
0010
0000
1000
0000
0000
0000
,  // measure 29
1100
0000
0001
0000
0100
0000
0010
0000
1000
0100
1000
0000
0010
0000
0000
0000
,  // measure 30
1000
0100
0000
0010
0000
0100
0000
0010
0001
0000
1000
0000
0100
0000
1000
0000
,  // measure 31
0010
0100
0000
0001
0000
0010
0000
1000
0100
0000
1000
0000
0010
0000
0100
0000
,  // measure 32
0001
1000
0000
0100
0000
0001
0000
0100
1000
0000
0010
0000
0100
0000
0010
0000
,  // measure 33
1000
0100
0001
0100
1000
0010
0100
0000
,  // measure 34
1000
0000
0100
0000
0001
0000
0100
0000
1000
0010
0100
0000
0001
0000
0000
0000
,  // measure 35
0010
0001
0101
0000
1000
0100
1010
0000
,  // measure 36
0100
0000
0010
0000
1000
0000
0100
0000
1000
0001
0100
0000
0010
0000
0000
0000
,  // measure 37
1000
0001
0011
0000
0100
0010
1001
0000
,  // measure 38
1000
0000
0010
0000
1000
0000
0100
0000
0010
0001
1000
0000
0001
0000
0000
0000
,  // measure 39
0100
0000
0010
0000
1000
0000
0100
0000
1000
0001
0010
0000
0100
0000
0000
0000
,  // measure 40
0001
0000
1000
0000
0010
0000
0100
0000
0010
1000
0100
0000
0010
0000
0000
0000
,  // measure 41
1000
0001
0100
0000
0010
0000
0000
0000
0110
0000
0000
0000
1001
0000
0000
0000
,  // measure 42
0001
0100
0001
1000
0100
1000
0001
0100
0001
1000
0100
1000
,  // measure 43
1001
0000
0000
1100
0000
0000
0102
0000
0000
0000
1000
0000
0103
0000
0000
0000
,  // measure 44
0010
0000
0000
1000
0000
0000
0200
0000
1000
0000
0001
0000
0301
0000
0100
0000
,  // measure 45
1100
0000
0000
0001
0101
0000
0000
1000
,  // measure 46
1100
0100
0110
0010
0011
0001
1001
0000
,  // measure 47
0010
1000
0000
0100
0000
0010
0000
0100
1000
0000
0001
0000
1000
0000
0010
0000
,  // measure 48
0100
0001
0000
0100
0000
1000
0000
0010
0100
0000
0001
0000
1000
0000
0010
0000
,  // measure 49
1000
0100
0000
1000
0000
0001
0000
0100
0010
0000
1000
0000
0001
0000
0010
0000
,  // measure 50
0001
0100
0000
0010
0000
1000
0000
0001
1000
0000
0010
0000
1000
0000
0100
0000
,  // measure 51
1001
0000
0010
0000
1000
0000
0100
0000
0010
0001
0100
0000
0001
0000
0000
0000
,  // measure 52
0011
0000
0001
0000
0100
0000
1000
0000
0010
0100
0001
0000
1000
0000
0000
0000
,  // measure 53
1100
0000
0100
0000
0010
0000
0001
0000
1000
0100
0001
0000
1000
0000
0000
0000
,  // measure 54
0110
0000
1000
0000
0010
0000
0100
0000
0010
1000
0001
0000
0010
0000
0000
0000
,  // measure 55
0001
0100
0000
1000
0000
0001
0000
0100
1000
0000
0001
0000
0100
0000
1000
0000
,  // measure 56
0010
1000
0000
1000
0000
0100
0000
0100
1000
0000
0010
0000
0100
0000
0010
0000
,  // measure 57
1000
0001
0000
0001
0000
0001
0000
1000
0010
0000
0010
0000
1000
0000
1000
0000
,  // measure 58
0100
0010
0000
0010
0000
0001
0000
0100
0001
0000
0010
0000
0001
0000
0100
0000
,  // measure 59
0001
1000
0000
1100
0000
0010
0000
0101
0000
0010
0000
1001
0000
0100
0000
1000
,  // measure 60
0002
0000
0000
1000
0000
0000
0020
0000
0000
0000
0000
0000
0033
0000
0000
0000
;
