#TITLE:(I Just) Died In Your Arms;
#SUBTITLE:;
#ARTIST:Cutting Crew;
#TITLETRANSLIT:;
#SUBTITLETRANSLIT:;
#ARTISTTRANSLIT:;
#GENRE:;
#CREDIT:;
#BANNER:(I Just) Died In Your Arms-bn.png;
#BACKGROUND:(I Just) Died In Your Arms-bg.png;
#LYRICSPATH:;
#CDTITLE:;
#MUSIC:(I Just) Died in Your Arms.ogg;
#OFFSET:0.000000;
#SAMPLESTART:69.199997;
#SAMPLELENGTH:20.000000;
#SELECTABLE:YES;
#DISPLAYBPM:125.000000;
#BPMS:0.000000=124.919998
;
#STOPS:
;
#BGCHANGES:;
#KEYSOUNDS:;
#ATTACKS:;

//---------------dance-single - x scale 9----------------
#NOTES:
     dance-single:
     :
     Hard:
     9:
     0.329492,0.375246,0.071796,0.287184,0.000000,257.000000,249.000000,8.000000,32.000000,0.000000,0.000000,0.329492,0.375246,0.071796,0.287184,0.000000,257.000000,249.000000,8.000000,32.000000,0.000000,0.000000:
0000
0000
0000
0000
,
0000
0000
0000
0000
,
0000
0000
0000
0000
,
0000
0000
0000
0000
,
0000
0000
0000
0000
,
0000
0000
0000
0000
,
0000
0000
0000
0000
,
0000
0000
0000
0000
,
1001
1000
1000
1000
,
0100
0100
0010
0010
,
0100
0100
0100
0100
,
0001
0001
1000
1000
,
0110
0010
0010
0010
,
1000
1000
0001
0001
,
1000
1000
1000
1000
,
0010
0010
0100
0100
,
0010
0100
0001
2000
0000
0000
3100
0000
,
1000
0010
0100
0000
0001
0010
1000
0000
,
0001
1000
0010
0200
0000
0302
0000
0023
,
0000
0000
0031
0000
0100
0010
1000
0000
,
0001
0100
0010
0000
1000
0001
1000
0200
,
0000
1300
0100
0010
0000
0010
0001
0000
,
0100
0000
0100
0010
1000
0010
0000
1000
,
0001
0000
0001
1000
0000
1000
0010
0100
,
0000
0101
0000
1100
0000
0100
1000
0001
,
0000
0001
1000
0010
0000
1000
0010
0001
,
0100
0001
0100
0020
0000
2030
0000
3002
,
0000
0000
1003
0000
0001
0100
0010
0000
,
1000
0100
0010
0001
0000
0001
0010
0200
,
0000
0302
0000
2003
0000
3001
0100
0000
,
0010
1000
0001
0010
0000
0000
0000
0001
,
1000
0010
0100
0020
0000
0130
0010
2000
,
0000
3001
1000
0001
0000
0100
0010
1000
,
0000
1010
0000
0011
0000
0010
0001
1000
,
0001
1000
0001
0200
0000
0320
0000
1030
,
0000
1000
1000
0100
0002
0010
0013
0000
,
0110
0000
0010
0000
0100
0001
0100
0020
,
0000
1030
0010
0200
0000
0310
1000
0002
,
0100
0100
0100
0103
,
1000
0001
2000
0000
3010
0100
0001
0100
,
0010
0000
0010
0000
1000
0001
1000
0002
,
0000
1003
0001
0200
0000
0301
0100
0020
,
1000
1000
1000
1030
,
0010
0001
0001
0100
2000
0010
3010
0000
,
1001
0000
1000
0000
0001
0010
0001
2000
,
0000
3010
1000
0002
0000
1003
0010
0200
,
0010
0010
0010
0310
,
0001
0100
0020
0000
1030
0100
1000
0010
,
0100
0000
0100
0000
0010
1000
0001
0010
,
0002
0000
1003
0020
0100
0000
0130
2000
,
0001
0001
0001
3001
,
0001
0100
0100
0010
1000
1000
1000
0000
,
0001
0010
0001
0000
1000
0100
1000
0000
,
0010
1000
0010
0000
0001
0100
0001
0200
,
0000
0000
0000
0000
,
0000
0000
0000
0300
;

//---------------dance-single - x scale 11----------------
#NOTES:
     dance-single:
     :
     Challenge:
     11:
     0.394877,0.425278,0.080770,0.125643,0.000000,308.000000,299.000000,9.000000,14.000000,0.000000,0.000000,0.394877,0.425278,0.080770,0.125643,0.000000,308.000000,299.000000,9.000000,14.000000,0.000000,0.000000:
0000
0000
0000
0000
,
0000
0000
0000
0000
,
0000
0000
0000
0000
,
0000
0000
0000
0000
,
0000
0000
0000
0000
,
0000
0000
0000
0000
,
0000
0000
0000
0000
,
0000
0000
0000
0000
,
1001
0000
1000
0000
1000
0001
1000
0001
,
0100
0001
0100
0001
0010
0001
0010
0001
,
0100
0100
0100
0100
,
0001
1000
0001
0010
0100
1000
0010
0100
,
0110
0000
0010
0000
0010
0100
0010
0100
,
0001
0100
0001
0100
1000
0100
1000
0100
,
0001
0001
0001
0001
,
0010
0010
0100
0100
,
0010
0100
1000
0001
1000
0010
0100
0000
,
0001
0100
0010
0000
1000
0010
0001
0000
,
0010
0100
0010
2000
0000
3001
1000
0002
,
0100
0100
1003
0000
0001
1000
0010
0000
,
0100
0010
1000
0001
0010
0001
1000
0100
,
1000
0010
0001
1000
0100
0010
0001
0000
,
0001
0000
0011
0001
1000
0000
0010
0100
,
0001
1000
0001
1000
0010
0100
0010
0200
,
0000
0310
1000
0020
0000
1030
0100
0001
,
1000
0010
1000
0001
0000
0001
0100
0010
,
1000
0100
1000
0002
0000
0103
0001
0020
,
0001
0031
1000
0000
0010
0100
1000
0000
,
0010
1000
0010
0100
0001
0100
0001
1000
,
0010
1000
0100
0010
0001
0100
0001
0000
,
0001
0010
0100
1000
0010
1000
0001
0000
,
0001
1000
0010
0200
0000
0301
0100
2000
,
0000
3100
0001
0020
0000
0031
1000
0200
,
0000
0310
0001
1000
0000
0100
0010
0100
,
0010
1000
0010
0002
0000
0103
0001
2000
,
0000
3001
0001
1000
0010
0010
1010
0000
,
0101
0000
0001
0000
1000
0010
1000
0001
,
0100
0010
0100
0010
1000
0001
1000
0001
,
0010
0010
0010
0010
,
0001
1000
0010
0001
1000
0100
0010
0100
,
1000
0000
1000
0000
0010
0100
0010
0100
,
0001
0010
1000
0010
0001
0100
1000
0100
,
0001
0001
0001
0001
,
0010
0100
0100
0001
1000
1000
1100
0000
,
0110
0000
1000
0000
0100
0010
0100
1000
,
0001
0010
0100
1000
0100
0010
0001
1000
,
0100
0100
0100
0100
,
1000
0010
0100
0001
0010
0001
1000
0100
,
1000
1000
1000
1000
,
0001
0010
0100
1000
0001
0100
0010
1000
,
0100
0100
0100
0100
,
0010
1000
1000
0100
0001
0001
0011
0000
,
0100
0100
0001
0001
1000
1000
0010
0010
,
0100
0100
0010
0010
1000
0100
0001
2002
,
0000
0000
0000
0000
,
0000
0000
0000
3003
;

//---------------dance-single - x scale 7----------------
#NOTES:
     dance-single:
     :
     Medium:
     7:
     0.228208,0.300197,0.062821,0.179490,0.000000,178.000000,171.000000,7.000000,20.000000,0.000000,0.000000,0.228208,0.300197,0.062821,0.179490,0.000000,178.000000,171.000000,7.000000,20.000000,0.000000,0.000000:
// measure 0
0000
0000
0000
0000
,  // measure 1
0000
0000
0000
0000
,  // measure 2
0000
0000
0000
0000
,  // measure 3
0000
0000
0000
0000
,  // measure 4
0000
0000
0000
0000
,  // measure 5
0000
0000
0000
0000
,  // measure 6
0000
0000
0000
0000
,  // measure 7
0000
0000
0000
0000
,  // measure 8
1001
0000
0000
0000
0000
0000
0001
1000
,  // measure 9
0000
0000
1000
0001
0000
0000
1000
0100
,  // measure 10
0000
0000
0000
0000
,  // measure 11
1000
0000
1000
0000
0001
0000
0100
0010
,  // measure 12
1000
0000
0000
0000
0000
0000
0001
0010
,  // measure 13
0000
0000
1000
0001
0000
0000
1000
0200
,  // measure 14
0000
0000
0000
0300
,  // measure 15
0000
0000
0000
0000
,  // measure 16
0000
1000
0001
2000
0000
0000
0000
0000
,  // measure 17
0000
0000
0000
3000
,  // measure 18
0000
0010
1000
0020
0000
0230
0000
0302
,  // measure 19
0000
0000
0000
0003
,  // measure 20
0001
0001
1000
1000
,  // measure 21
0010
0010
0100
0100
,  // measure 22
0001
0100
1000
0100
,  // measure 23
0001
0010
1000
0010
,  // measure 24
0001
0001
0100
0100
,  // measure 25
0010
0010
1000
1000
,  // measure 26
0010
0100
0001
2000
0000
3020
0000
0230
,  // measure 27
0000
0000
0000
0300
,  // measure 28
0100
0100
0010
0010
,  // measure 29
1000
1000
0001
0001
,  // measure 30
1000
0100
0001
0100
,  // measure 31
1000
0010
0001
0010
,  // measure 32
1000
1000
0100
0100
,  // measure 33
0010
0010
0001
0001
,  // measure 34
0100
0001
1000
0200
0000
2300
0000
3020
,  // measure 35
0000
0130
0001
0100
0002
0000
0003
0000
,  // measure 36
0101
0000
1100
0000
0000
1000
0100
0001
,  // measure 37
0000
1000
0001
0010
0000
0000
0001
2000
,  // measure 38
0000
0100
0001
3100
,  // measure 39
0010
0001
0100
0000
0001
1000
0010
0100
,  // measure 40
0000
0000
0110
0000
0000
1000
0010
0100
,  // measure 41
0000
0001
1000
0010
0000
0000
1000
0002
,  // measure 42
0000
0010
0100
0013
,  // measure 43
0000
0001
1000
0001
2000
0000
3000
0000
,  // measure 44
1100
0000
0101
0000
0000
0001
0100
1000
,  // measure 45
0000
0010
1000
0010
0000
0000
0100
0002
,  // measure 46
0000
1000
0010
1003
,  // measure 47
0010
1000
0100
0000
1000
0100
0010
0001
,  // measure 48
0000
1001
0010
0100
,  // measure 49
0002
0000
1003
2000
0000
0000
3010
0020
,  // measure 50
0000
0100
0000
0130
,  // measure 51
0000
0000
0100
0000
0010
1000
0010
0000
,  // measure 52
0001
0001
1000
1000
,  // measure 53
0001
0000
1000
0000
0010
0100
0010
0200
,  // measure 54
0000
0000
0000
0000
,  // measure 55
0000
0000
0000
0300
;

//---------------dance-single - x scale 1----------------
#NOTES:
     dance-single:
     :
     Beginner:
     1:
     0.069232,0.096924,0.008974,0.000000,0.000000,54.000000,53.000000,1.000000,0.000000,0.000000,0.000000,0.069232,0.096924,0.008974,0.000000,0.000000,54.000000,53.000000,1.000000,0.000000,0.000000,0.000000:
0000
0000
0000
0000
,
0000
0000
0000
0000
,
0000
0000
0000
0000
,
0000
0000
0000
0000
,
0000
0000
0000
0000
,
0000
0000
0000
0000
,
0000
0000
0000
0000
,
0000
0000
0000
0000
,
0001
0000
0000
0000
,
1000
0000
1000
0000
,
0010
0000
0000
0000
,
0100
0000
0100
0000
,
0001
0000
0000
0000
,
0100
0000
0010
0000
,
1000
0000
0000
0000
,
0000
0000
0000
0000
,
0000
1000
0000
0000
,
0000
0000
0000
0000
,
0000
0010
0000
0000
,
0001
0000
0000
0000
,
0100
0000
0000
0000
,
0100
0000
0000
0000
,
0010
0000
0000
0000
,
0010
0000
0000
0000
,
1000
0000
0000
0000
,
0001
0000
0000
0000
,
1000
0000
0000
0000
,
0000
0000
0000
0000
,
1000
0000
0000
0000
,
1000
0000
0000
0000
,
0001
0000
0000
0000
,
0001
0000
0000
0000
,
0100
0000
0000
0000
,
0010
0000
0000
0000
,
0100
0000
0000
0000
,
0000
0000
0010
0000
,
1000
0000
0000
0000
,
0001
0000
0001
0000
,
0100
0000
0000
0000
,
0010
0000
0010
0000
,
0001
0000
0000
0000
,
1000
0000
0100
0000
,
0010
0000
0000
0000
,
0000
0000
1000
0000
,
0100
0000
0000
0000
,
1000
0000
0001
0000
,
1000
0000
0000
0000
,
0010
0000
0100
0000
,
0010
0000
0000
0000
,
0100
0000
0001
0000
,
1000
0000
0000
0000
,
0000
0000
0100
0000
,
0010
0000
0000
0000
,
0100
0000
0000
0000
,
1001
0000
0000
0000
;

//---------------dance-single - ----------------
#NOTES:
     dance-single:
     :
     Easy:
     4:
     0.150002,0.225147,0.026923,0.125643,0.000000,117.000000,114.000000,3.000000,14.000000,0.000000,0.000000,0.150002,0.225147,0.026923,0.125643,0.000000,117.000000,114.000000,3.000000,14.000000,0.000000,0.000000:
0000
0000
0000
0000
,
0000
0000
0000
0000
,
0000
0000
0000
0000
,
0000
0000
0000
0000
,
0000
0000
0000
0000
,
0000
0000
0000
0000
,
0000
0000
0000
0000
,
0000
0000
0000
0000
,
0002
0000
0000
0003
,
0100
0001
0010
0100
,
2000
0000
0000
3000
,
0001
0010
0100
1000
,
0020
0000
0000
0030
,
1000
0100
0001
0100
,
2000
0000
0000
3000
,
0000
0000
0000
0000
,
0000
1001
0000
1000
,
0010
0100
0001
1000
,
0000
0110
0000
0010
,
0100
0010
1000
0000
,
0010
1000
0010
0000
,
0100
0001
0100
0000
,
0001
1000
0001
0000
,
1000
0010
1000
0000
,
0001
0000
0100
0000
,
1000
0000
0100
0000
,
0001
0000
0100
1000
,
0010
1000
0010
0000
,
0001
0100
0001
0000
,
0010
1000
0010
0000
,
0100
1000
0100
0000
,
1000
0010
1000
0000
,
0001
0000
0010
0000
,
1000
0000
0010
0000
,
0001
0000
1000
0000
,
0100
0100
0100
0000
,
0020
0000
0000
0030
,
0100
0010
1000
0001
,
2000
0000
0000
3000
,
1000
1000
0001
0001
,
0200
0000
0000
0300
,
0001
1000
0010
0100
,
0002
0000
0000
0003
,
0001
0001
0001
0000
,
2000
0000
0000
3000
,
1000
0100
0010
0001
,
0200
0000
0000
0300
,
0100
0100
0010
0010
,
0002
0000
0000
0003
,
0100
0010
1000
0001
,
0020
0000
0000
0030
,
1000
0010
0100
0001
,
0100
0000
0010
0000
,
1000
0000
0001
0000
,
2002
0000
0000
0000
,
0000
0000
0000
3003
;
