#TITLE:夢をかなえてドラエモン;
#ARTIST:seiya-murai feat. mao;
#TITLETRANSLIT:Yume wo kanaete Doraemon;
#BANNER:Yume wo kanaete Doraemon.png;
#BACKGROUND:Yume wo kanaete Doraemon-bg.png;
#CDTITLE:./CDTITLES/DanceDanceRevolution MUSIC FIT.png;
#MUSIC:Yume wo kanaete Doraemon.ogg;
#SAMPLESTART:56.484;
#SAMPLELENGTH:15;
#BPMS:0=123;

//---------------dance-single - ----------------
#NOTES:
     dance-single:
     :
     Beginner:
     1:
     :
0000
0000
0000
0000
,
0000
0000
0000
0000
,
0000
0000
0000
0000
,
0000
0000
0000
0000
,
0000
0000
0000
0000
,
1000
0000
0000
0000
,
0000
0000
0000
0000
,
1000
0000
1000
0000
,
0000
0000
0000
0000
,
0001
0000
0000
0000
,
0000
0000
0000
0000
,
0001
0000
0001
0000
,
0000
0000
0000
0000
,
1000
0000
0000
0000
,
0000
0000
0000
0000
,
0001
0000
0001
0000
,
0001
0000
0000
0000
,
1000
0000
0000
0000
,
0001
0000
0000
0000
,
1000
0000
1000
0000
,
0001
0000
0000
0000
,
1000
0000
0000
0000
,
0001
0000
0000
0000
,
1000
0000
0000
0000
,
1000
0000
0000
0000
,
0001
0000
0000
0000
,
1000
0000
0000
0000
,
0001
0000
0000
0000
,
0001
0000
0000
0000
,
1000
0000
1000
0000
,
0000
0000
0000
0000
,
0001
0000
0001
0000
,
0000
0000
0000
0000
,
1000
0000
1000
0000
,
0000
0000
0000
0000
,
1000
0000
0001
0000
,
1001
0000
0000
0000
,
0001
0000
0001
0000
,
0000
0000
0000
0000
,
1000
0000
1000
0000
,
0000
0000
0000
0000
,
0001
0000
0001
0000
,
0000
0000
0000
0000
,
1000
0000
0001
0000
,
1000
0000
0001
0000
,
1001
0000
0000
0000
;

//---------------dance-single - ----------------
#NOTES:
     dance-single:
     :
     Easy:
     3:
     :
0000
0000
0000
0000
,
0000
0000
0000
0000
,
0000
0000
0000
0000
,
0000
0000
0000
0000
,
0000
0000
0000
0000
,
0001
0000
0001
0000
,
0100
0000
0100
0000
,
0001
0000
0000
0000
,
1000
0000
0100
0000
,
0010
0000
0010
0000
,
1000
0000
1000
0000
,
0100
0000
0000
0000
,
0100
0000
1000
0000
,
1000
0000
1000
0000
,
0010
0000
0010
0000
,
0100
0000
0100
0000
,
0100
0000
0000
0000
,
0001
0000
1000
0000
,
1000
0000
0001
0000
,
0001
0000
1000
0000
,
1001
0000
0000
0000
,
0100
0000
0000
0000
,
0100
0000
0000
0000
,
0100
0000
0100
0000
,
1000
0001
1001
0000
,
0001
0000
0000
0000
,
1000
0000
0000
0000
,
0001
0000
0100
0000
,
1000
0001
1000
0000
,
0001
0100
0001
0000
,
1001
0000
1001
0000
,
1000
1000
0100
0000
,
0110
0000
0110
0000
,
0100
0001
0001
0000
,
1000
0001
1000
0000
,
1001
0000
0110
0000
,
1001
0000
0000
0000
,
0001
1000
0001
0000
,
1000
0100
1000
0000
,
1001
0000
1001
0000
,
0001
0001
0100
0000
,
0110
0000
0110
0000
,
0010
1000
1000
0000
,
0001
0000
1000
0000
,
0001
0000
0110
0000
,
1001
0000
0000
0000
,
0000
0000
2002
0000
,
0000
0000
3003
0000
;

//---------------dance-single - ----------------
#NOTES:
     dance-single:
     :
     Medium:
     4:
     :
0000
0000
0000
0000
,
0000
0000
0000
0000
,
0000
0000
0000
0000
,
0000
0000
0000
0000
,
0000
0000
0000
0000
,
0001
1000
0001
0000
,
1000
0001
1000
0000
,
0001
0001
0100
0000
,
1000
1000
0100
0000
,
0001
0100
0010
0000
,
1000
0100
0010
0000
,
0001
0100
0001
0000
,
1000
0100
1000
0000
,
0001
1000
0100
0000
,
1000
0001
0100
0000
,
0001
1000
0100
1000
,
0001
1000
0100
0000
,
0001
0100
1000
0000
,
0001
1000
0100
1100
,
0001
0000
1000
0000
,
1001
0000
0000
0000
,
0100
0000
0000
0000
,
0100
0000
0000
0000
,
0100
0100
0100
0100
,
0011
1100
1001
0000
,
0001
0100
0000
0010
,
1000
0000
0100
0010
,
0001
1000
0100
0001
,
1000
0100
1000
0000
,
0001
0100
0001
0100
,
0010
1000
1100
0011
,
1000
0010
0100
0001
,
0010
0100
0110
1001
,
1000
0100
0010
0100
,
1000
0001
1000
0100
,
1100
0000
0101
0000
,
1000
0001
1100
0101
,
1000
0100
1000
0100
,
0010
0001
0101
1010
,
0001
0010
0100
1000
,
0010
0100
0110
1001
,
0001
0100
0010
0100
,
0001
1000
0001
0100
,
0101
0000
1010
0000
,
0001
1000
0001
1000
,
0200
0000
0000
0300
,
0010
0000
2002
0000
,
0000
0000
3003
0000
;

//---------------dance-single - ----------------
#NOTES:
     dance-single:
     :
     Hard:
     5:
     :
0000
0000
0000
0000
,
0000
0000
0000
0000
,
0000
0000
0000
0000
,
0000
0000
0000
0000
,
0000
0000
0000
0000
,
1000
0001
1000
1000
,
0001
1000
0001
0001
,
1000
0000
0100
1000
0000
0000
0100
0000
0000
0000
0000
0000
,
0001
0000
0100
0001
0000
0000
0100
0000
0000
0000
0000
0000
,
1000
0100
0010
0010
,
0001
0100
0010
0010
,
1000
0000
0000
0100
0000
1000
0000
0000
0000
0000
0000
0000
,
0001
0100
0001
0000
,
1000
0001
0100
1000
,
0001
1000
0100
0001
,
1000
0000
0000
0001
0000
1000
0100
0000
0000
0001
0000
0000
,
1000
0001
0100
0001
,
1000
0100
0001
0001
,
0100
0110
0010
1010
,
1000
1000
0001
0001
,
1001
0000
0000
0000
,
0100
0000
0000
0000
0000
0000
0000
0000
0000
0000
0000
0001
,
0100
0000
0000
0000
0000
0000
0000
0000
0000
0000
0000
1000
,
0100
0001
0100
1000
,
0100
0001
0100
0000
,
1000
0000
0000
0100
0000
0000
0000
0000
0000
0100
0000
1000
,
0100
0000
0000
0000
0000
0000
0001
0000
0000
0001
0000
0100
,
0001
1000
0100
1000
,
0001
0100
0001
0000
,
1000
0100
1000
0100
0000
1000
0000
0000
0000
0001
0000
0000
,
0000
0000
0000
0100
0000
0010
0000
0000
0000
1000
0000
0000
,
0001
0000
0001
0010
0000
0100
0000
0000
0000
1000
0000
0000
,
0000
0000
0000
0001
0000
0000
0100
0000
0001
1000
0000
0000
,
1000
0000
0010
0100
0000
0001
0000
0000
1000
0100
0000
0000
,
1000
0001
1000
0100
,
0001
0000
0000
0000
0000
0100
0001
0000
0000
0000
0000
1000
,
0100
0010
0001
0100
,
0001
0100
0001
0100
0000
0001
0000
0000
0000
1000
0000
0000
,
0000
0000
0000
0100
0000
0010
0000
0000
0000
0001
0000
0000
,
1000
0000
1000
0010
0000
0100
0000
0000
0000
0001
0000
0000
,
0000
0000
0000
1000
0000
0000
0100
0000
1000
0001
0000
0000
,
0001
0000
0010
0100
0000
1000
0000
0000
0001
0100
0000
0000
,
0001
1000
0001
0100
,
1100
0000
0011
0000
,
1100
0000
1000
0100
0000
0100
0010
0000
0010
0001
0000
0000
,
0220
0000
0000
0330
,
0110
0000
2002
0000
,
0000
0000
3003
0000
;
