#TITLE:素直になれたら;
#ARTIST:♪♪♪♪♪;
#TITLETRANSLIT:Sunao ni naretara;
#BANNER:Sunao ni naretara.png;
#BACKGROUND:Sunao ni naretara-bg.png;
#CDTITLE:./CDTITLES/jubeat ripples.png;
#MUSIC:Sunao ni naretara.ogg;
#SAMPLESTART:80.615;
#SAMPLELENGTH:15;
#BPMS:0=98;

//---------------dance-single - ----------------
#NOTES:
     dance-single:
     :
     Beginner:
     1:
     :
0000
0000
0000
0000
,
0000
0000
0000
0000
,
0000
0000
0000
0000
,
0000
0000
0000
0000
,
0000
0000
0000
0000
,
0001
0000
0000
0000
,
0000
0000
0000
0000
,
0100
0000
0000
0000
,
0000
0000
0000
0000
,
0001
0000
0000
0000
,
1000
0000
0000
0000
,
0001
0000
0000
0000
,
0010
0000
0000
0000
,
0001
0000
0000
0000
,
1000
0000
0000
0000
,
0010
0000
0000
0000
,
1001
0000
0000
0000
,
1000
0000
0000
0000
,
0000
0000
0000
0000
,
0001
0000
0000
0000
,
1000
0000
0000
0000
,
0001
0000
0000
0000
,
0000
0000
0000
0000
,
1000
0000
0000
0000
,
0001
0000
0000
0000
,
1000
0000
1000
0000
,
0001
0000
0001
0000
,
1000
0000
1000
0000
,
0010
0000
0000
0000
,
1000
0000
0000
0000
,
0001
0000
0000
0000
,
0010
0000
0000
0000
,
1001
0000
0000
0000
,
1000
0000
0000
0000
,
0001
0000
0000
0000
,
1000
0000
0000
0000
,
0010
0000
0000
0000
,
1000
0000
0000
0000
,
0001
0000
0000
0000
,
0010
0000
0000
0000
,
1001
0000
0000
0000
;

//---------------dance-single - ----------------
#NOTES:
     dance-single:
     :
     Easy:
     2:
     :
0000
0000
0000
0000
,
0000
0000
0000
0000
,
0000
0000
0000
0000
,
0000
0000
0000
0000
,
0000
0000
0000
0000
,
0001
0000
0000
0000
,
1000
0000
0000
0000
,
0100
0000
0000
0000
,
0010
0000
0000
0000
,
0001
0000
0100
0000
,
2000
0000
3001
0000
,
0001
0001
0100
0000
,
0002
0003
2000
3000
,
0001
0001
1000
0000
,
1000
0100
0001
0000
,
0100
0100
0001
0000
,
0001
0010
0010
0001
,
0100
0000
0010
0000
,
0100
0000
0001
0000
,
2000
0000
3000
0000
,
1000
0000
0010
0000
,
0010
0000
0100
0000
,
1000
0000
0010
0000
,
0200
0000
0300
0000
,
2000
3000
0002
0003
,
0001
0000
1000
0000
,
0100
0000
0010
0000
,
0001
0000
1000
0000
,
0002
0000
0003
0000
,
0010
0000
0100
0000
,
0010
0000
0010
0000
,
1000
0000
0010
0000
,
1001
0000
0000
0000
,
1000
0000
0100
0000
,
0002
0000
1003
0000
,
1000
1000
0100
0000
,
2000
3000
0002
0003
,
1000
1000
0001
0000
,
0001
0100
1000
0000
,
0100
0100
1000
0000
,
1000
0010
0010
1000
;

//---------------dance-single - ----------------
#NOTES:
     dance-single:
     :
     Medium:
     3:
     :
0000
0000
0000
0000
,
0000
0000
0000
0000
,
0000
0000
0000
0000
,
0000
0000
0000
0000
,
0000
0000
0000
0000
,
1000
0000
0000
0000
,
0100
0000
0000
0000
,
0001
0000
0000
0000
,
0010
0000
0000
0000
,
1000
0001
0100
0000
,
0002
1003
0020
1030
,
1000
0000
0001
0000
0100
0000
1000
0100
,
0200
2300
3002
0003
,
1000
0100
0001
0100
,
0001
0010
1000
0100
,
0001
1000
0001
0000
1000
0000
0001
0000
,
1000
0000
0010
0001
0000
0001
1000
0000
,
0100
0010
0000
0001
,
0100
0100
0010
0100
,
0002
0003
2000
3000
,
0001
0000
0100
0000
0010
1000
0001
0000
,
0010
0100
0000
1000
,
0001
0100
0010
1000
,
0200
0300
2000
3000
,
0002
0103
2000
3001
,
0000
0100
0000
0010
,
0000
0001
0000
1000
,
0000
0100
0000
0010
,
1000
0000
0001
0100
,
0010
1000
0010
0000
0100
0000
0100
0000
,
0001
0000
0001
0000
0010
0100
1000
0000
,
0001
0000
0010
0000
,
0001
0010
1000
0100
,
0001
1000
0001
0100
,
2000
3010
0200
0301
,
0001
0000
1000
0000
0100
0000
0001
0100
,
0020
2030
3200
0300
,
0001
0001
1000
0100
,
0001
0100
0010
0100
,
0001
1000
0100
0000
0010
0000
0001
0000
,
1000
0000
0010
0001
0000
0100
0001
0000
;

//---------------dance-single - ----------------
#NOTES:
     dance-single:
     :
     Hard:
     5:
     :
0000
0000
0000
0000
,
0000
0000
0000
0000
,
0000
0000
0000
0000
,
0000
0000
0000
0000
,
0000
0000
0000
0000
,
1000
0000
0000
0000
,
0001
0000
0000
0000
,
0100
0000
0000
0000
,
0010
0000
0000
0000
,
1000
0000
0001
0000
1000
0001
0100
0000
,
0002
0010
0013
0000
0200
1000
1300
0000
,
1000
0000
0001
0000
0100
0010
1000
0100
,
0020
0000
0032
0010
0203
0000
0310
0000
,
1000
0100
1000
0000
0001
0010
0100
0000
,
1000
0010
0100
0001
0010
0000
0100
0000
,
1000
0001
0000
0100
0000
0010
1000
0000
,
0001
0010
0000
0001
0010
0000
1000
0100
0000
1000
0100
0000
1000
0001
0000
0000
,
0100
0000
0010
0000
0000
1000
0100
0000
,
0010
0100
0010
0000
0000
0001
0100
0000
,
0020
1030
0002
0103
,
0001
0010
0100
1000
0010
0100
0001
0000
,
0100
0100
0010
0000
0000
0001
0100
0000
,
0000
1000
0000
0100
0000
0010
0001
0000
,
0200
0310
2000
3100
,
0002
0000
0103
0010
2000
0000
3001
0000
,
0000
0000
0100
0000
0000
1000
1000
0000
,
0000
0000
0010
0000
0000
0001
0001
0000
,
0000
0000
0100
0000
0000
1000
1000
0000
,
0010
0000
0000
0010
0001
0000
0100
0000
,
0010
1000
0100
0000
0010
0001
0010
0000
,
0001
0100
0001
1000
0010
0100
0001
0000
,
1000
1000
0000
0001
0010
0010
0000
0100
,
1000
1000
0000
0001
1000
0010
0100
0000
,
0001
0000
1000
0000
0001
1000
0100
0000
,
2000
0010
3010
0000
0200
0001
0301
0000
,
0001
0000
1000
0000
0100
0010
0001
0100
,
0020
0000
2030
0010
3200
0000
0310
0000
,
0001
0100
0001
0000
1000
0010
0100
0000
,
0001
0010
0100
1000
0010
0000
0100
0000
,
0001
1000
0000
0100
0000
0010
0001
0000
,
1000
0010
0000
1000
0010
0000
0001
0100
0000
0001
0100
0000
0001
1000
0000
0000
;
