#TITLE:Summer rain;
#ARTIST:♪♪♪♪♪;
#BANNER:Summer rain.png;
#BACKGROUND:Summer rain-bg.png;
#CDTITLE:./CDTITLES/DanceDanceRevolution MUSIC FIT.png;
#MUSIC:Summer rain.ogg;
#SAMPLESTART:67.336;
#SAMPLELENGTH:15;
#DISPLAYBPM:132;
#BPMS:0=132.21;

//---------------dance-single - ----------------
#NOTES:
     dance-single:
     :
     Beginner:
     1:
     :
0000
0000
0000
0000
,
0000
0000
0000
0000
,
0000
0000
0000
0000
,
0000
0000
0000
0000
,
0000
0000
0000
0000
,
0001
0000
0000
0000
,
1000
0000
0000
0000
,
0001
0000
0000
0000
,
1000
0000
0000
0000
,
0010
0000
0000
0000
,
0001
0000
0000
0000
,
1000
0000
0000
0000
,
0010
0000
0000
0000
,
1000
0000
0000
0000
,
1000
0000
0000
0000
,
0001
0000
0001
0000
,
0001
0000
0000
0000
,
0001
0000
0000
0000
,
0001
0000
0000
0000
,
1000
0000
0010
0000
,
0001
0000
0010
0000
,
1000
0000
0000
0000
,
1000
0000
0010
0000
,
0001
0000
0000
0000
,
0001
0000
0010
0000
,
1000
0000
0000
0000
,
0001
0000
0000
0000
,
1000
0000
0000
0000
,
1001
0000
0000
0000
,
1000
0000
0000
0000
,
0001
0000
0000
0000
,
1000
0000
1000
0000
,
0010
0000
0010
0000
,
0001
0000
0000
0000
,
1000
0000
0000
0000
,
0010
0000
0000
0000
,
1001
0000
0000
0000
,
1000
0000
0000
0000
,
0001
0000
0001
0000
,
0010
0000
0000
0000
,
1000
0000
1000
0000
,
1000
0000
0000
0000
,
0001
0000
0000
0000
,
0010
0000
0000
0000
,
1001
0000
0000
0000
,
0001
0000
0000
0000
,
1000
0000
1000
0000
,
0010
0000
0000
0000
,
0001
0000
0001
0000
,
0001
0000
0000
0000
,
0010
0000
0000
0000
,
1000
0000
0000
0000
,
1001
0000
0000
0000
,
1000
0000
0000
0000
,
0001
0000
0000
0000
,
0001
0000
0000
0010
,
0000
0000
1001
0000
;

//---------------dance-single - ----------------
#NOTES:
     dance-single:
     :
     Easy:
     3:
     :
0000
0000
0000
0000
,
0000
0000
0000
0000
,
0000
0000
0000
0000
,
0000
0000
0000
0000
,
0000
0000
0000
0000
,
0010
0000
1000
0000
,
0001
0000
1000
0000
,
0001
0000
0100
0000
,
0010
0000
0001
0000
,
1000
0000
0001
0000
,
0001
0000
1000
0001
,
1000
0000
0000
0000
,
0100
0000
0000
0000
,
1000
0000
0001
0000
,
0100
0000
0000
0001
,
1000
0001
0000
0000
,
0100
0000
1001
0000
,
0100
0000
1000
0000
,
0010
1000
0001
0000
,
2000
3000
0010
0000
,
0002
0000
0003
0000
,
1000
1000
0100
0000
,
1000
0000
1000
0000
,
0001
0100
0001
0000
,
0001
0000
0100
0000
,
1000
1000
0100
0000
,
0010
0000
0100
0000
,
1000
0000
0001
0000
,
1000
0000
1001
0000
,
0000
1000
0000
0001
,
0000
0001
0000
1000
,
0100
1000
0001
0000
,
1000
1000
0000
1001
,
0000
0010
0000
0001
,
0001
1000
0000
1000
,
0002
0003
2000
3000
,
0000
0100
0010
0110
,
1000
0000
0001
0100
,
1000
0000
1000
0000
,
0001
0000
1000
0010
,
1000
1000
0001
0000
,
0100
0000
0001
0000
,
0100
0000
1000
0000
,
0001
1000
0100
0000
,
0010
0000
1001
0000
,
0001
0000
1000
0100
,
0001
0000
0001
0000
,
1000
0000
0001
0020
,
0031
0001
1000
0000
,
0100
0000
0000
0001
,
0100
0000
0000
0100
,
0001
0000
0000
1000
,
0100
0100
0110
1001
,
2000
0000
3000
0000
,
0002
0000
0003
0000
,
0100
0000
0000
0100
,
0000
0000
2002
0000
,
0000
0000
0000
0000
,
0000
0000
3003
0000
;

//---------------dance-single - ----------------
#NOTES:
     dance-single:
     :
     Medium:
     5:
     :
0000
0000
0000
0000
,
0000
0000
0000
0000
,
0000
0000
0000
0000
,
0000
0000
0000
0000
,
0000
0000
0000
0000
,
0010
0000
0001
0010
,
1000
0000
0001
0000
0000
0010
0100
0000
,
1000
0000
0000
0000
0000
0001
0100
0000
,
0010
0000
1000
0000
0000
0100
0010
0000
,
0001
0000
0100
1000
,
0100
0000
0001
1000
,
0001
0000
1000
0000
1000
0000
0001
0100
,
0001
0000
1000
0000
1000
0001
0100
0000
,
0001
0001
1000
1000
,
0100
0000
0010
0000
0000
0100
1000
0000
,
0001
0000
0100
0000
0000
0010
1000
0000
,
0100
0100
1001
0000
,
0100
0000
0001
1000
,
0010
0001
1000
0000
,
0002
1003
0100
0020
,
0032
1000
2003
3100
,
0001
0000
0001
0000
0100
0001
0100
0000
,
0001
0001
0101
1100
,
1000
0100
1000
1000
,
1010
0100
0101
0000
,
0001
0100
0001
0000
0100
0000
0100
0000
,
0010
0100
0100
0001
,
0001
1000
1000
0010
,
0001
0100
0010
1010
,
0000
0000
0001
0000
0010
0000
1000
0010
,
0000
0000
1000
0000
0100
0000
0001
0100
,
0001
0001
1000
1000
,
0001
0001
0101
1100
,
0000
0000
0010
0000
0100
0000
1000
0100
,
1000
0001
0100
0001
,
2000
0000
0100
3100
0002
0000
1000
1003
,
1000
0100
0010
0110
,
0001
0100
1000
0100
,
0001
0000
0100
0000
0000
0010
0001
0000
,
1000
0010
0001
0010
,
0001
0010
0001
0000
1000
0000
0001
0000
,
0100
0010
1000
1000
,
0100
0010
0001
0001
,
1000
0001
0100
0100
,
0010
0000
0000
0000
0100
1000
0001
0000
,
1000
0100
0001
0100
,
1000
0000
0100
0000
0000
0010
1000
0000
,
0001
0010
1000
0010
,
1000
0010
1000
0000
0001
0000
1000
0000
,
0100
0000
0010
1000
0000
0000
1000
0000
,
0100
0010
0001
0100
,
1000
0000
1000
0000
0100
0010
0001
0000
,
0100
0100
0110
1001
,
0002
0000
0003
0000
,
2000
0000
3000
0000
,
0100
0000
0000
1001
0000
0000
0010
0000
,
0000
1001
0000
0000
0220
0000
0000
0000
,
0000
0000
0000
0000
,
0000
0000
0330
0000
;

//---------------dance-single - ----------------
#NOTES:
     dance-single:
     :
     Hard:
     7:
     :
0000
0000
0000
0000
,
0000
0000
0000
0000
,
0000
0000
0000
0000
,
0000
0000
0000
0000
,
0000
0000
0000
0000
,
0010
0000
0010
0000
1000
0100
0010
0000
,
0100
0000
1000
0000
0000
0010
0100
0000
,
0001
0000
0000
0001
0000
1000
0100
0000
,
0010
0001
0000
0001
0000
0100
0010
0000
,
1000
0000
0000
0100
0000
0000
0001
0000
,
0100
0010
1000
0001
,
1000
0000
0001
0010
0001
0000
1000
0100
,
1000
0000
0001
0100
0001
1000
0100
0000
,
1000
0000
0001
0000
1000
0100
0001
0000
,
0100
0000
0010
0000
0000
0100
0001
0000
,
1000
0000
0000
0100
0000
0010
0001
0000
,
1000
0100
1001
0000
,
0001
0000
0001
0000
1000
0000
0001
0100
,
0010
0000
1000
0100
0000
0010
0001
0000
,
2000
0000
3001
0100
0000
1000
0020
0000
,
0230
0000
0000
0001
0302
0000
0103
0000
,
1000
0100
1000
0000
0100
1000
0100
0000
,
1000
0100
1000
0010
1100
0000
0101
0000
,
0001
0000
0100
0000
0001
0010
0001
0000
,
0011
0100
1100
0000
,
1000
0100
0000
0100
0000
1000
0100
0010
,
0000
0010
0001
0100
0000
0100
0010
1000
,
0000
1000
0000
0001
0000
0001
0100
0010
,
1000
0100
0010
0011
,
1000
0000
0000
0100
0000
0000
1000
0000
0010
0000
0100
0000
0001
0000
0010
0000
,
0001
0000
0000
0010
0000
0000
0001
0000
0100
0000
0010
0000
1000
0000
0100
0000
,
1000
0010
1000
0000
0001
0010
0001
0000
,
1000
0100
1000
0010
1100
0000
0101
0000
,
1000
0000
0000
0010
0000
0000
1000
0000
0100
0000
0010
0000
0001
0000
0100
0000
,
0001
1000
0001
1000
,
0001
0002
0000
0203
0010
0320
0000
2030
,
0100
3100
0100
0000
0010
0000
0110
0000
,
1000
0000
0000
1000
0100
0000
0000
0000
0001
0000
0000
0001
0100
0000
0000
0000
,
1000
0000
0000
1000
0100
0000
1000
0000
0000
0000
0010
0000
1000
0000
0000
0000
,
0001
0000
0000
0001
0010
0000
0000
0000
1000
0000
0000
1000
0010
0000
0000
0000
,
1000
0010
1000
0100
1000
0000
0001
0000
,
0100
0000
0100
0000
0010
1000
0010
0000
,
0100
0001
0100
0000
0010
0000
0010
0000
,
1000
0100
1000
0000
0100
0010
0100
0000
,
0010
0001
0000
1000
0100
1000
0010
0000
,
0001
0000
0000
0001
0100
0000
0000
0000
1000
0000
0000
1000
0100
0000
0000
0000
,
0001
0000
0000
0001
0100
0000
0001
0000
0000
0000
0010
0000
0001
0000
0000
0000
,
1000
0000
0000
1000
0010
0000
0000
0000
0001
0000
0000
0001
0010
0000
0000
0000
,
0001
0010
0001
0100
0001
0000
1000
0000
,
0100
0000
0010
0001
0000
0010
0001
0000
,
0100
0010
1000
0100
,
0001
0100
0001
0000
0100
0010
1000
0000
,
0100
1100
0011
1100
,
2000
0000
3000
1000
,
0002
0000
0003
0001
,
0110
0000
0000
1001
0000
0000
0011
0000
,
0000
1100
0000
0000
0220
0000
0000
0000
,
0000
0000
0000
0000
,
0000
0000
0330
0000
;
