#TITLE:Stairway Generation;
#ARTIST:nc;
#BANNER:Stairway Generation.png;
#BACKGROUND:Stairway Generation-bg.png;
#CDTITLE:./CDTITLES/GF V7 & DM V7.png;
#MUSIC:Stairway Generation.ogg;
#SAMPLESTART:53.239;
#SAMPLELENGTH:15;
#BPMS:0=153;

//---------------dance-single - ----------------
#NOTES:
     dance-single:
     :
     Beginner:
     2:
     :
0000
0000
0000
0000
,
0000
0000
0000
0000
,
0000
0000
0000
0000
,
0000
0000
0000
0000
,
0000
0000
0000
0000
,
1000
0000
0001
0000
,
1000
0000
0000
0000
,
0010
0000
0000
0000
,
0001
0000
1000
0000
,
0001
0000
0000
0000
,
1000
0000
0000
0000
,
0010
0000
0000
0000
,
0010
0000
0010
0000
,
1000
0000
0000
0000
,
0001
0000
0000
0000
,
0010
0000
0000
0000
,
0010
0000
0100
0000
,
1000
0000
1000
0000
,
0001
0000
0001
0000
,
0001
0000
0001
0000
,
1000
0000
0000
0000
,
1000
0000
0000
0000
,
0001
0000
0000
0000
,
0100
0000
0000
0000
,
0010
0000
0010
0000
,
1000
0000
1000
0000
,
1000
0000
0000
0000
,
0100
0000
0100
0000
,
0100
0000
0000
0000
,
0001
0000
0001
0000
,
0100
0000
0100
0000
,
0100
0000
0000
0000
,
0001
0000
1000
0000
,
1001
0000
0000
0000
,
0001
0000
1000
0000
,
0010
0000
0000
0000
,
1000
0000
1000
0000
,
0001
0000
0001
0000
,
0010
0000
0000
0000
,
0010
0000
0000
0000
,
0001
0000
0000
0000
,
1001
0000
0000
0000
,
1000
0000
0001
0000
,
0010
0000
0000
0000
,
0001
0000
0001
0000
,
1000
0000
1000
0000
,
0010
0000
0000
0000
,
0010
0000
0000
0000
,
0001
0000
0000
0000
,
1001
0000
0000
0000
,
0000
0000
0000
0000
,
1001
0000
0000
0000
,
0000
0000
0000
0000
,
0110
0000
0000
1000
,
0000
0001
0000
1000
,
0000
0000
0000
0100
,
0000
0000
0000
1001
;

//---------------dance-single - ----------------
#NOTES:
     dance-single:
     :
     Easy:
     3:
     :
0000
0000
0000
0000
,
0000
0000
0000
0000
,
0000
0000
0000
0000
,
0000
0000
0000
0000
,
2002
0000
0000
3003
,
1000
0000
0010
0000
,
0100
0000
0000
0000
,
0100
0000
0010
0000
,
0001
0000
0010
0000
,
1000
0000
0010
0000
,
0100
0000
1000
0001
,
0010
0000
1000
0000
,
0010
1000
0010
0000
,
0001
0000
0010
0000
,
0100
0000
0001
1000
,
0010
0000
0001
0000
,
0010
0001
1000
0000
,
2000
3000
0100
0100
,
1000
0000
0001
0000
,
0002
0003
1000
0001
,
1000
0000
0110
0000
,
1000
0000
0100
0000
,
0010
0000
1000
0001
,
0100
0000
1000
0000
,
0010
0000
0010
0000
,
2000
0001
0000
3000
,
0001
0001
1000
0000
,
0200
0000
0000
0300
,
0001
1000
0100
0000
,
0002
0000
0000
0003
,
1000
1000
0001
0000
,
0200
0000
0300
0100
,
0010
0000
0001
0000
,
1001
0000
0000
0000
,
0002
0003
2000
3000
,
1000
0000
0010
0000
,
1000
0100
0001
0000
,
1000
0000
0010
0000
,
0002
0000
0003
0001
,
2000
0000
3000
0010
,
1000
0000
0001
0000
,
1001
0000
0000
0000
,
2000
3000
0002
0003
,
0001
0000
0010
0000
,
0001
0100
1000
0000
,
0001
0000
0010
0000
,
2000
0000
3000
1000
,
0002
0000
0003
0010
,
0001
0000
0110
0100
,
2002
0000
0000
0003
,
0000
0000
3000
0000
,
1001
0000
0000
0000
,
0010
0000
0100
0000
,
0110
0000
0000
1000
,
0000
0010
0000
0100
,
0000
0000
0000
0100
,
0000
0010
0000
2002
,
0000
0000
0000
0000
0000
3003
0000
0000
;

//---------------dance-single - ----------------
#NOTES:
     dance-single:
     :
     Medium:
     5:
     :
0000
0000
0000
0000
,
0000
0000
0000
0000
,
0000
0000
0000
0000
,
0000
0000
0000
0000
,
0100
0100
0100
0010
0100
0100
0100
0100
,
0001
0010
0100
0000
,
0010
1000
0010
0000
0000
0000
0100
0000
,
0010
0001
0100
0000
,
1000
0010
0100
0101
,
0001
0100
0001
0000
0100
0000
0100
0000
,
0010
0000
0001
1000
,
0100
0010
0100
0000
0001
0000
0101
0000
,
0100
0001
0100
0001
,
1000
0100
1000
0000
0100
0000
0100
0000
,
0010
0000
1000
0001
,
0100
0010
0100
0000
1000
0000
1100
0000
,
0100
0000
1000
0001
0001
0000
1000
0000
,
0001
0100
0001
0010
,
1000
0000
1000
0010
1000
0000
0100
0000
,
1000
0100
1000
0010
,
0011
0100
0110
1000
,
0001
0010
0001
0000
0010
0000
0010
0000
,
0100
0000
0001
1000
,
0010
0100
0010
0000
0001
0000
0011
0000
,
0100
0000
0100
0001
,
0001
0100
0001
0000
0001
0100
0001
0000
,
0010
0100
0010
0000
0010
0100
0010
0000
,
0010
1000
0010
0000
0010
1000
0010
0000
,
0100
0010
0001
0000
0100
0010
0001
0000
,
1000
0100
1000
0000
1000
0100
1000
0000
,
0010
0100
0010
0000
0010
0100
0010
0100
,
0010
1000
0001
0100
,
0100
0000
0000
0001
1000
0000
0000
0000
,
1001
0000
0000
0010
0000
0000
1001
0000
,
1000
0100
1001
0100
,
0011
0100
1000
0000
0100
0000
0100
0000
,
0001
0010
1000
0100
,
0001
1000
0100
0000
,
2000
0000
0010
0000
3000
0010
1000
0000
,
0002
0000
0100
0000
1003
0100
0100
0000
,
0001
0100
1000
0000
0100
0000
0010
0000
,
0001
0010
0100
0000
1001
0000
0000
0000
,
0001
0100
1001
0100
,
1010
0100
0001
0000
0100
0000
0100
0000
,
1000
0010
0001
0100
,
1000
0001
0100
0000
,
0002
0000
0010
0000
0003
0010
0001
0000
,
2000
0000
0100
0000
3001
0100
0100
0000
,
1000
0010
0001
0000
0100
0000
0010
0000
,
2002
3000
0020
0030
,
2000
3000
0100
0103
,
1001
0000
0100
0100
0000
0010
0010
0000
,
0001
0000
1000
0000
,
1001
0000
0100
0100
0000
0000
0001
0000
,
0010
0000
0100
0000
0000
0000
0010
1000
,
0010
0000
0100
0010
,
0001
0000
0100
0000
0000
0000
0010
0010
,
0010
0100
0010
0010
0010
0010
0000
0000
;

//---------------dance-single - ----------------
#NOTES:
     dance-single:
     :
     Hard:
     8:
     :
0000
0000
0000
0000
,
0000
0000
0000
0000
,
0000
0000
0000
0000
,
0000
0000
0000
0000
,
1000
0001
1000
0001
1000
0001
1000
0001
1000
0001
1000
0001
1000
0001
1000
0001
,
1000
0100
0000
0010
0000
0100
0000
0010
,
0000
0001
0010
0001
0000
0100
0100
0000
,
0000
0010
0000
1000
0000
0100
0000
0001
,
0001
0000
0000
0100
0000
0000
0010
0000
1100
0000
0000
0000
0101
0000
0000
0000
,
1000
0100
1000
0010
0100
0001
0100
0000
,
0010
0010
1000
0001
,
0100
0010
0100
0001
1000
0000
1100
0000
,
0100
0000
1000
0001
0100
0000
1000
0000
,
0001
0100
0001
0010
0100
1000
0100
0000
,
0010
0010
0001
1000
,
0100
0010
0100
1000
0001
0000
0101
0000
,
0100
0000
0001
1000
0100
0000
0001
0000
,
1000
0010
0100
0000
1000
0100
0010
0000
,
0001
0000
0001
0010
0001
1000
0100
0000
,
0001
0010
0100
0000
0001
0100
0010
0000
,
1010
0100
0110
0001
,
1000
0010
1000
0100
0010
0001
0010
0000
,
0100
0100
1000
0001
,
0010
0100
0010
0001
1000
0000
1010
0000
,
0100
0000
0100
1000
,
1000
0100
1000
0100
1000
0100
1000
0100
,
0010
0100
0010
0100
0010
0100
0010
0100
,
0010
0001
0010
0001
0010
0001
0010
0001
,
0100
0010
1000
0010
0100
0010
1000
0100
,
0001
0100
0001
0100
0001
0100
0001
0100
,
0010
0100
0010
0100
0010
0100
0010
0100
,
0010
0000
0001
0000
1000
0000
0100
0100
,
0100
0000
0000
1000
0001
0000
0000
0000
,
0011
0000
0000
0110
0000
0000
1001
0000
,
0001
0000
0100
0000
0101
1000
0100
0000
,
1010
0100
0001
0010
0000
0100
0100
0000
,
1000
0010
0001
0100
,
1000
0000
0001
1000
0100
0000
1100
0000
,
0002
0010
0000
1000
0003
0010
0001
0000
,
2000
0100
0000
0001
3001
0100
0100
0000
,
1000
0100
0001
0010
0100
0000
0010
0000
,
1000
0010
0100
0010
1001
0000
0000
0000
,
1000
0000
0100
0000
1100
0001
0100
0000
,
0011
0100
1000
0010
0000
0100
0100
0000
,
0001
0010
1000
0100
,
0001
0000
1000
0001
0100
0000
0101
0000
,
2000
0010
0000
0001
3000
0010
1000
0000
,
0002
0100
0000
1000
1003
0100
0100
0000
,
0001
0010
1000
0010
0100
0000
0010
0000
,
1000
2002
0000
0003
0010
0020
0000
0030
,
0100
0200
0000
0300
0001
0000
3001
0000
,
1001
0000
0100
1001
0000
0100
1001
0000
,
1000
1000
0001
0001
,
1001
0000
0100
1001
0000
0000
1000
0100
,
0000
0010
0000
0100
0000
0010
0000
0001
,
0010
0001
0000
0100
0100
0000
0000
0010
,
0000
0000
1000
0000
0000
0000
0100
0000
0000
0000
0001
0000
1000
0001
1000
0001
,
1000
0001
1000
0001
1000
0001
1000
0001
1000
0001
1000
0001
1000
0000
0000
0000
;
