#TITLE:創聖のアクエリオン;
#ARTIST:千本松仁 with S.S.D. feat. Dyu★;
#TITLETRANSLIT:Sousei no Aquarion;
#ARTISTTRANSLIT:Jin Senbonmatsu with S.S.D. feat. Dyu★;
#BANNER:Sousei no Aquarion.png;
#BACKGROUND:Sousei no Aquarion-bg.png;
#CDTITLE:./CDTITLES/pop'n music 16 PARTY.png;
#MUSIC:Sousei no Aquarion.ogg;
#SAMPLESTART:57.218;
#SAMPLELENGTH:15;
#BPMS:0=151,224=133,226=130.5,228=99.5,230=72,232=64;

//---------------dance-single - ----------------
#NOTES:
     dance-single:
     :
     Beginner:
     2:
     :
0000
0000
0000
0000
,
0000
0000
0000
0000
,
0000
0000
0000
0000
,
0000
0000
0000
0000
,
0000
0000
0000
0000
,
0000
0000
0000
0000
,
0000
0000
0000
0000
,
0000
0000
0000
0000
,
0000
0000
0000
0000
,
0000
0000
1000
0000
,
0000
0000
1000
0000
,
1000
0000
0001
0000
,
0000
0000
0001
0000
,
0001
0000
0010
0000
,
0000
0000
0010
0000
,
0010
0000
0100
0000
,
0000
0000
0000
0000
,
0000
0000
0001
0000
,
0001
0000
0001
0000
,
1000
0000
0001
0000
,
0000
0000
0000
0000
,
0000
0000
0010
0000
,
0010
0000
0010
0000
,
0100
0000
1000
0000
,
0010
0000
0100
0000
,
0000
0000
1000
0000
,
1000
0000
1000
0000
,
0001
0000
1000
0000
,
0000
0000
0000
0000
,
0000
0000
1001
0000
,
0000
0000
1001
0000
,
0000
0000
0001
0000
,
0100
0000
1000
0000
,
0010
0000
1000
1000
,
1000
0000
0001
0001
,
0001
0000
0100
0000
,
0001
0000
0001
0000
,
0010
0000
0001
0000
,
0000
0000
1000
0000
,
0000
0000
0010
0000
,
1000
0000
0100
0000
,
0010
0000
0001
0000
,
0100
0000
0010
0010
,
0010
0000
0100
0000
,
1000
0000
1000
0000
,
0010
0000
1000
0000
,
0000
0000
0001
0000
,
0000
0000
0010
0000
,
0001
0000
0100
0000
,
0010
0000
1000
0000
,
0000
0000
0001
0000
,
0000
0000
0100
0000
,
0000
0000
0000
0000
,
0000
0000
0010
0000
,
0000
0000
0000
0000
,
0000
0000
1000
0000
,
0000
0000
0001
0000
,
0000
0000
1000
0000
;

//---------------dance-single - ----------------
#NOTES:
     dance-single:
     :
     Easy:
     3:
     :
0000
0000
0000
0000
,
0000
0000
0000
0000
,
0000
0000
0000
0000
,
0000
0000
0000
0000
,
0000
0000
0000
0000
,
0000
0000
0000
0000
,
0000
0000
0000
0000
,
0000
0000
0000
0000
,
0000
0000
0000
0000
,
0000
0000
0010
0000
,
0000
0000
1000
0000
,
0001
0000
0010
0000
,
0000
0000
0001
0000
,
1000
0000
0001
0000
,
0000
0000
1000
0000
,
0001
0000
1000
0000
,
0000
0000
1001
0000
,
0000
0000
0001
0001
,
0001
0001
1000
0000
,
0010
0100
0010
0000
,
1000
0000
0001
0000
,
0000
0000
1000
1000
,
1000
1000
0001
0000
,
0001
0000
1000
0100
,
1000
0000
0001
0100
,
0001
0000
0001
0001
,
0001
0001
1000
0000
,
0010
0100
0010
0000
,
1000
0000
0001
0000
,
0000
0000
0100
0100
,
0010
0010
1000
0000
,
0000
0000
0001
0001
,
0010
0010
0100
0000
,
0000
0000
1000
0001
,
1000
0001
1000
0001
,
1000
0000
0010
0010
,
0010
0000
0100
0100
,
0100
0000
0002
0003
,
2000
3000
0020
0000
,
0030
0000
1000
0001
,
1000
0000
0001
1000
,
0001
0000
2000
3000
,
0020
0030
0200
0000
,
0300
0000
0010
0010
,
0010
0000
0100
0100
,
0100
0000
0002
0003
,
2000
3000
0020
0000
,
0030
0000
1000
0001
,
1000
0000
0001
1000
,
0001
0000
1001
0000
,
0010
0000
1001
0000
,
0100
0000
0010
0000
,
0000
0000
1000
0000
,
0000
0000
0001
0000
,
0000
0000
0100
0000
,
0000
0000
0002
0000
,
0000
0003
2000
0000
,
0000
3000
0200
0000
,
0000
0300
0000
0000
;

//---------------dance-single - ----------------
#NOTES:
     dance-single:
     :
     Medium:
     5:
     :
0000
0000
0000
0000
,
0000
0000
0000
0000
,
0000
0000
0000
0000
,
0000
0000
0000
0000
,
0000
0000
0000
0000
,
0000
0000
0000
0000
,
0000
0000
0000
0000
,
0000
0000
0000
0000
,
0000
0000
0000
0000
,
0000
0000
0001
0000
,
1000
0000
0000
0000
0001
0100
0001
0000
,
0010
0010
1000
0000
,
0001
0000
0000
0000
1000
0100
1000
0000
,
0010
0010
0100
0000
,
1000
0000
0000
0000
0001
1000
0001
0000
,
0010
0000
0100
0000
0010
0100
0010
0000
,
0001
1000
1001
0000
,
0000
0000
1100
0100
,
0010
0011
0100
0001
,
1000
0010
1010
0000
,
0100
0001
0010
0001
,
1000
0100
1000
0000
0101
0000
0100
0000
,
0010
1010
0100
0100
,
0010
0010
1000
0100
,
0010
0001
1000
0010
,
0100
0001
1100
0100
,
0010
0011
0100
1000
,
0001
0010
0011
0000
,
0100
1000
0010
1000
,
0001
0100
0001
0100
0001
0000
0001
0000
,
1000
0100
0010
0000
0100
0000
0100
0000
,
0010
0001
0100
0000
0010
0000
0000
1000
,
0000
0000
0001
0000
0000
0010
0000
0000
,
0100
0000
0010
0000
0001
1000
0001
1000
,
0001
0000
0100
0000
0010
1000
0001
0100
,
0010
0000
1000
1100
,
0010
0011
0001
0101
,
0001
0011
0100
1001
,
0010
1001
0200
0000
,
0010
0310
0001
1000
,
0100
1100
0010
0001
,
0100
0101
0010
0010
,
1000
0001
1000
0000
0100
0010
0100
0010
,
0100
0000
0001
0101
,
0010
1010
1000
1100
,
1000
1010
0100
1001
,
0010
1001
0200
0000
,
0010
0310
1000
0001
,
0100
0101
0010
1000
,
0100
1100
0011
0000
,
0100
0010
1010
0000
,
0100
0000
0001
0000
0010
0000
0000
0100
,
0000
0000
0000
0000
0001
0000
0000
1000
,
0000
0000
0001
0000
0100
0000
0000
0010
,
0000
0000
0000
0000
0001
0000
0000
1000
,
0000
0100
0020
0000
,
0032
0000
0203
0000
,
0320
0000
0000
0000
0000
0000
0000
0000
2000
0000
0000
0000
0000
0000
0000
0030
,
3000
0000
0000
0000
;

//---------------dance-single - ----------------
#NOTES:
     dance-single:
     :
     Hard:
     7:
     :
0000
0000
0000
0000
,
0000
0000
0000
0000
,
0000
0000
0000
0000
,
0000
0000
0000
0000
,
0000
0000
0000
0000
,
0000
0000
0000
0000
,
0000
0000
0000
0000
,
0000
0000
0000
0000
,
0000
0000
0000
0000
,
0000
0000
0000
0000
,
0010
0000
0100
0000
,
1000
0010
0000
0100
1000
0100
1000
0000
,
0010
0000
0100
0000
,
0001
0010
0000
0100
0001
0100
0001
0000
,
1000
0000
0001
0000
,
0100
0010
0000
0001
1000
0001
1000
0000
,
0100
0010
0000
0000
1000
0000
0001
0000
,
0110
0000
0000
0000
,
0011
0000
0001
0100
0001
0000
0001
0010
,
0001
0000
0010
0100
1000
0100
0010
0001
,
0100
0000
0010
0100
0010
0000
0010
0100
,
0010
0000
0010
1000
0001
0010
0010
0000
,
1001
0000
1000
0100
1000
0000
1000
0010
,
0010
0000
0001
0100
1000
0100
0001
0010
,
0100
0000
0100
0010
0001
0000
0001
1000
,
0001
0100
0010
1000
,
1010
0000
1000
0001
1000
0000
1000
0010
,
0100
0000
0010
0100
0001
0100
0010
1000
,
0100
0000
0010
1000
0010
0000
0010
0100
,
0010
0000
0010
0001
1000
1000
0010
0000
,
0110
0000
0100
1000
0100
1000
0100
0110
,
0000
0100
0010
0001
0010
0001
0100
0010
,
0110
0000
0000
1010
0000
0000
0101
0000
,
0000
0011
0000
0000
1001
0000
0110
0000
,
0001
0010
0100
1000
0010
0100
0001
0010
,
0100
1000
0010
0100
0001
0000
0000
0000
,
1010
0000
0010
0100
0101
0000
0001
0010
,
0110
0000
0100
1000
1100
0000
0100
0010
,
0011
1100
0110
0011
,
1010
0000
0100
0010
0001
0010
1000
0000
,
1100
0000
1000
0100
0010
0000
0100
0010
,
0001
0000
0010
0001
0100
0000
0001
0100
,
0010
0100
0010
1000
0100
1000
0100
0010
,
0001
0100
0010
1000
0100
0000
1100
0000
,
0011
0000
0010
0100
1100
0000
1000
0010
,
0110
0000
0100
0001
0101
0000
0100
0010
,
1010
0101
0110
1010
,
0011
0000
0100
0010
1000
0010
0001
0000
,
1100
0000
1000
0100
0010
0001
0100
0010
,
0001
0000
0010
1000
0100
0000
0001
0100
,
1000
0000
0010
0100
0010
0000
1000
0001
,
1000
0100
0010
0100
0010
0001
1000
0001
,
1000
0000
0000
0100
0000
0000
0010
0000
,
0001
0000
0000
0100
0000
0000
0001
0000
,
1000
0000
0000
0001
0000
0000
1000
0000
,
0010
0000
0000
0100
0000
0000
0010
0000
,
2000
0000
0200
3000
,
0020
0300
0032
0000
,
0200
0000
0000
0000
0000
0000
0000
0003
0300
0000
0000
0000
0000
0000
0000
0000
;
