#TITLE:空色デイズ;
#ARTIST:seiya-murai feat. mao;
#TITLETRANSLIT:Sorairo days;
#BANNER:Sorairo days.png;
#BACKGROUND:Sorairo days-bg.png;
#CDTITLE:./CDTITLES/jubeat ripples.png;
#MUSIC:Sorairo days.ogg;
#SAMPLESTART:49.147;
#SAMPLELENGTH:15;
#BPMS:0=174;

//---------------dance-single - ----------------
#NOTES:
     dance-single:
     :
     Beginner:
     2:
     :
0000
0000
0000
0000
,
0000
0000
0000
0000
,
0000
0000
0000
0000
,
0000
0000
0000
0000
,
0000
0000
0000
0000
,
0001
0000
0000
0000
,
1000
0000
0000
0000
,
0001
0000
0000
0000
,
1000
0000
0000
0000
,
0010
0000
0000
0000
,
0010
0000
0000
0000
,
0000
0000
0000
0000
,
0100
0000
0000
0000
,
0000
0000
0000
0000
,
0100
0000
0000
0000
,
0000
0000
0000
0000
,
0010
0000
0000
0000
,
0000
0000
0000
0000
,
0010
0000
0000
0000
,
0000
0000
0000
0000
,
0001
0000
0001
0000
,
0001
0000
0000
0000
,
1000
0000
1000
0000
,
1000
0000
0000
0000
,
0010
0000
0010
0000
,
0010
0000
0000
0000
,
1000
0000
0001
0000
,
1000
0000
0000
0000
,
0001
0000
0000
0000
,
0100
0000
0000
0000
,
1000
0000
0000
0000
,
0010
0000
0000
0000
,
0001
0000
0000
0000
,
0100
0000
0000
0000
,
1000
1000
1000
0000
,
0001
0001
0001
0000
,
1000
0000
0000
0000
,
0001
0000
1000
0000
,
0001
0000
0000
0000
,
1000
0000
0001
0000
,
0010
0000
0000
0000
,
0010
0000
0100
0000
,
0010
0000
0000
0000
,
0001
0000
0000
0000
,
1000
0000
0001
0000
,
1000
0000
0000
0000
,
0001
0000
1000
0000
,
0010
0000
0000
0000
,
0010
0000
0100
0000
,
0010
0000
0010
0000
,
1000
0000
0001
0000
,
1001
0000
0000
0000
,
0100
0000
0000
0000
,
0000
0000
0000
0000
,
0010
0000
0000
0000
,
1000
0000
1000
0000
,
0001
0000
0000
0000
,
0000
0000
0000
0000
,
0000
0000
0000
0000
,
0000
0000
0000
0000
,
0001
0000
0001
0000
,
1000
0000
1000
0000
,
0001
0000
0001
0000
,
1000
0000
1000
0000
,
0100
0000
0100
0000
,
0100
0000
0010
0000
;

//---------------dance-single - ----------------
#NOTES:
     dance-single:
     :
     Easy:
     4:
     :
0000
0000
0000
0000
,
0000
0000
0000
0000
,
0000
0000
0000
0000
,
0000
0000
0000
0000
,
0000
0000
0000
0000
,
1000
0000
1000
0000
,
0001
0001
0001
0000
,
1000
0000
1000
0000
,
0001
0001
0001
0000
,
0100
0000
0100
0000
,
0010
0000
0020
0000
,
0000
0000
0000
0030
,
1000
0000
0000
0000
,
0000
0000
0000
0000
,
0001
0000
0000
0000
,
0000
0000
0000
0000
,
0010
0000
0000
0000
,
0000
0000
0000
0000
,
0100
0000
0000
0020
,
0000
0000
0000
0030
,
0001
0000
1000
0000
,
0001
0000
0100
0000
,
0010
0000
0010
0000
,
1000
0000
0100
0000
,
0001
0000
1000
0000
,
0001
0000
0100
0000
,
0010
0000
0000
0000
,
1001
0000
0000
0000
,
0010
0000
1000
0000
,
0001
0000
0000
0000
,
0100
0000
0100
0000
,
0001
1000
0001
0000
,
0010
0000
0001
0000
,
1000
0000
0000
0000
,
0010
0010
0010
0010
,
0010
0010
0010
0000
,
2000
3000
0100
0100
,
0002
0003
1000
0000
,
0020
0030
0100
0100
,
0002
0000
0003
0000
,
1000
1000
0001
0000
,
0100
0100
0010
0000
,
0001
0001
1000
1000
,
0020
0000
0030
0000
,
0002
0003
0100
0100
,
2000
3000
0001
0000
,
0020
0030
0100
0100
,
2000
0000
3000
0000
,
0001
0001
1000
0000
,
1000
0100
0010
0000
,
0001
0100
1000
0100
,
0001
0000
0000
0000
,
2000
0000
0000
0000
,
0000
0000
0000
3000
,
0020
0000
0000
0000
,
0000
0000
0000
0030
,
0200
0000
0000
0000
,
0000
0000
0000
0300
,
0000
0000
0000
0000
,
0000
0000
0000
0000
,
0001
0000
0001
0000
,
1000
1000
1000
0000
,
0001
0000
0001
0000
,
1000
1000
1000
0000
,
0100
0100
0100
0000
,
0010
0000
0000
0020
0000
0000
0000
0000
,
0000
0000
0000
0000
,
0000
0000
0000
0000
,
0000
0000
0000
0030
;

//---------------dance-single - ----------------
#NOTES:
     dance-single:
     :
     Medium:
     5:
     :
0000
0000
0000
0000
,
0000
0000
0000
0000
,
0000
0000
0000
0000
,
0000
0000
0000
0000
,
0000
0000
0000
0000
,
0001
0100
0001
0000
,
1000
0100
0010
0010
,
1000
0100
1000
0000
,
0001
1000
0001
1001
,
0100
0000
0100
0000
0100
0010
0000
0000
,
1000
0000
0002
2000
0000
0000
0000
0000
,
0000
0000
0000
3003
,
0100
0000
0000
0000
0000
0000
0000
0010
,
0000
0000
0000
0000
,
1000
0000
0000
0000
0000
0000
0000
0100
,
0000
0000
0000
0000
,
0010
0000
0000
0000
0000
0000
0000
0001
,
0000
0000
0000
0000
,
1000
0000
0000
0110
0000
0000
2002
0000
,
0000
0000
0000
3003
,
0010
0100
0001
1000
,
0100
0000
1000
0001
1000
0000
0000
0000
,
0001
0100
0010
0100
,
0001
0000
1000
0000
0100
0010
0100
0000
,
0010
0100
1000
0001
,
0100
0000
0001
1000
0001
0000
0100
0000
,
0010
0000
0000
1000
0000
0000
0000
0001
,
0000
0100
0010
0010
,
1000
1000
0100
0010
,
0001
1000
1000
0001
,
0100
0000
0010
0100
0010
0000
0010
0000
,
1000
1000
1000
0000
,
0001
0001
0100
0010
,
1000
0001
0001
1000
,
0100
0000
0100
0000
0100
0010
0100
0010
,
0001
1000
0110
0000
,
0001
0000
1000
0100
0000
0100
0000
0020
,
0000
0031
0100
0010
,
0100
0000
0001
0010
0000
0100
0000
0200
,
0000
1300
0010
0010
,
0001
1000
0001
1000
,
0010
0100
0010
0100
,
0110
0000
0000
0101
0000
0000
0000
2002
,
0000
0000
0000
3003
,
1000
0000
0001
0100
0000
0100
0000
0020
,
0000
1030
0100
0010
,
0100
0000
1000
0010
0000
0100
0000
0200
,
0000
0301
0010
0010
,
1000
0001
1000
0001
,
0010
0000
0010
0000
0010
0100
0010
0000
,
0001
0000
0000
1100
0000
0000
0000
0022
,
0000
0000
0000
0033
,
2000
0000
0000
0000
,
0000
0000
0000
0000
,
3020
0000
0000
0100
0000
0100
0000
0200
,
0030
0000
0302
0000
,
2000
0000
0000
0000
,
0000
0000
0000
3003
,
0000
0000
0000
0000
,
0000
0000
0000
0000
,
0001
0100
0001
0001
,
1000
0000
0100
0000
0010
0001
0010
0000
,
1000
0100
1000
1000
,
0001
1000
0010
1001
,
0100
0000
0100
0010
0100
0010
0000
0000
,
0001
0000
2000
0002
0000
0000
0000
0000
,
0000
0000
0000
0000
,
0000
0000
0000
0000
,
0000
0000
0000
3003
;

//---------------dance-single - ----------------
#NOTES:
     dance-single:
     :
     Hard:
     8:
     :
0000
0000
0000
0000
,
0000
0000
0000
0000
,
0000
0000
0000
0000
,
0000
0000
0000
0000
,
0000
0000
0000
0000
,
1000
0100
0010
0000
1000
0000
0000
0000
,
0001
0100
0010
0000
0001
0000
0001
0000
,
1000
0100
0010
0000
1000
0000
0000
0000
,
0001
0100
0010
0000
0001
0000
1001
0000
,
1000
0001
1000
0001
1000
0001
0000
0010
,
0100
0010
0100
0020
0000
0000
0000
0000
,
0200
0000
0000
0330
,
1001
0000
0000
0000
0000
0000
0000
0100
,
0000
0000
0000
0000
,
0001
0000
0000
0000
0000
0000
0000
1000
,
0000
0000
0000
0000
,
0110
0000
0000
0000
0000
0000
0000
0001
,
0000
0000
0000
0000
0000
0000
0000
1000
,
0100
0000
0010
0001
0000
0100
0020
0000
,
0000
0000
0000
0030
,
0100
0000
0001
0010
0001
0000
0100
0010
,
0000
1010
0000
0010
1000
0100
0010
0000
,
0100
0000
1000
0010
1000
0000
0100
0010
,
0000
0001
1000
0010
0001
0010
1000
0000
,
0100
0000
1000
0010
1000
0000
0100
0001
,
0000
0011
0000
0010
0001
0100
0010
1000
,
0020
0000
0030
2200
0000
3300
0000
0202
,
0000
0303
0100
0010
1000
0001
0100
0000
,
0001
0010
0000
0001
0100
0010
0000
1000
,
0000
1000
0000
0010
0100
0000
0001
1000
,
0001
0000
0010
0100
0000
1000
0100
0010
,
0000
0001
1000
0000
0110
0000
0001
0000
,
0001
0010
0000
0001
0100
0010
0000
1010
,
0000
0101
0000
0010
0100
0000
1000
0001
,
0010
1000
0010
1000
0010
0100
0010
0100
,
1000
0010
1000
0020
0200
0000
0330
0000
,
1000
0000
0010
0100
0000
0010
0100
0001
,
0000
0001
0010
0100
0010
0001
0100
0010
,
0001
0000
0001
0010
0000
0010
1000
0100
,
0000
0100
0010
0001
0010
0100
1000
0000
,
0100
0000
0010
0001
0010
0001
0100
0010
,
0000
0010
1000
0100
1000
0100
0010
0100
,
1000
1000
0000
0110
0000
0110
0000
2002
,
0000
0000
0000
3003
1000
0001
1001
0000
,
0001
0000
0010
0100
0000
0010
0100
1000
,
0000
1000
0010
0100
0010
1000
0100
0010
,
1000
0000
1000
0010
0000
0010
0001
0100
,
0000
0100
0010
1000
0010
0100
0001
0000
,
0100
0000
0010
1000
0010
1000
0100
0010
,
0000
0100
0001
0000
0100
1000
0010
0100
,
0001
0001
0000
0011
0000
1100
0000
2020
,
0000
0000
0000
3030
,
0002
0000
0000
0000
,
0000
0000
0000
1003
,
0100
0010
0000
0001
0000
0110
0000
2200
,
0000
0300
0020
3000
,
0200
0000
0000
0000
,
0000
0000
0000
0000
,
0330
0000
0000
0000
,
0000
0000
0000
0000
,
1000
0100
0010
0100
1000
0000
0000
0000
,
0001
0100
0010
0100
0001
0000
0001
0000
,
1000
0100
0010
0100
1000
0000
0000
0000
,
0001
0100
0010
0100
0001
0000
1001
0000
,
1000
0001
1000
0001
0100
0001
0000
0010
,
0100
0010
0200
0020
0000
0000
0000
0000
,
0000
0000
0000
0000
,
0000
0000
0000
0000
,
0000
0000
0000
0330
;
