#TITLE:羞恥心;
#ARTIST:低予算;
#TITLETRANSLIT:Shuuchishin;
#ARTISTTRANSLIT:Teiyosan;
#BANNER:Shuuchishin.png;
#BACKGROUND:Shuuchishin-bg.png;
#CDTITLE:./CDTITLES/pop'n music 17 THE MOVIE.png;
#MUSIC:Shuuchishin.ogg;
#SAMPLESTART:63.166;
#SAMPLELENGTH:15;
#BPMS:0=148;

//---------------dance-single - ----------------
#NOTES:
     dance-single:
     :
     Beginner:
     2:
     :
0000
0000
0000
0000
,
0000
0000
0000
0000
,
0000
0000
0000
0000
,
0000
0000
0000
0000
,
0000
0000
0000
0000
,
0000
0000
0000
0000
,
0000
0000
0000
0000
,
0000
0000
0000
0000
,
0000
0000
0000
0000
,
0000
0000
0000
0000
,
1000
0000
0000
0000
,
1000
0000
0000
0000
,
0001
0000
0000
0000
,
0001
0000
0000
0000
,
0010
0000
0000
0000
,
1000
1000
0000
0000
,
0010
0000
0000
0000
,
1000
1000
0000
0000
,
0001
0000
1000
0000
,
0001
0000
0000
0000
,
1000
0000
0001
0000
,
1000
0000
0000
0000
,
0010
0000
0000
0000
,
0001
0001
0000
0000
,
0010
0000
0000
0000
,
0001
0001
0000
0000
,
1000
0000
0001
0000
,
1000
0000
0000
0000
,
0001
0000
1000
0000
,
0001
0000
0000
0000
,
0100
0000
0000
0000
,
0100
0000
0000
0000
,
0100
0000
0000
0000
,
0100
0000
0000
0000
,
0010
0000
0000
0000
,
1000
0000
0000
0000
,
0001
0001
0001
0000
,
1000
1000
1000
0000
,
0000
0000
0000
0000
,
0001
0001
0001
0001
,
0001
0001
0001
0001
,
0000
0000
1000
0000
,
0001
0000
0000
0000
,
0010
0000
0100
0000
,
0010
0000
0100
0000
,
1000
0000
0000
0000
,
1001
0000
0000
0000
,
1000
1000
1000
1000
,
1000
1000
1000
1000
,
0000
0000
0001
0000
,
1000
0000
0000
0000
,
0010
0000
0100
0000
,
0010
0000
0100
0000
,
0001
0000
0000
0000
,
1001
0000
0000
0000
,
0010
0000
0000
0000
,
0010
0000
0000
0000
,
0010
0000
0000
0000
,
0100
0000
0000
0000
,
0001
0000
0000
0000
,
1000
0000
0000
0000
,
0010
0000
1000
0000
,
0010
0000
1000
0000
,
0001
0000
0010
0000
,
0001
0000
0010
0000
,
1000
0000
0001
0000
,
1000
0000
0001
0000
,
0100
0100
0100
0000
,
0010
0000
0000
0000
,
1001
0000
0000
0000
;

//---------------dance-single - ----------------
#NOTES:
     dance-single:
     :
     Easy:
     3:
     :
0000
0000
0000
0000
,
0000
0000
0000
0000
,
0000
0000
0000
0000
,
0000
0000
0000
0000
,
0000
0000
0000
0000
,
0000
0000
0000
0000
,
0000
0000
0000
0000
,
0000
0000
0000
0000
,
0000
0000
0000
0000
,
0000
0000
0000
0000
,
0000
1000
0000
0100
,
0000
0001
0000
0100
,
0000
1000
0000
0100
,
0000
0000
0000
0000
,
1000
0000
1000
0001
,
1000
0001
0000
0000
,
1000
0000
1000
0001
,
1000
0001
0000
0000
,
0100
0000
0001
0010
,
0001
0000
1000
0000
,
0010
0100
0100
0010
,
0000
0000
0000
0000
,
0001
0000
0001
1000
,
0001
1000
0000
0000
,
0001
0000
0001
1000
,
0001
1000
0000
0000
,
0100
0000
1000
0010
,
1000
0000
0001
0000
,
0100
0000
0100
0000
,
0000
0000
0000
0000
,
2000
0000
3000
0000
,
0002
0000
0003
0000
,
0200
0000
0300
0000
,
0020
0000
0030
0000
,
1000
0000
1000
0000
,
0001
0000
0001
0000
,
2000
0000
0000
3000
,
0002
0000
0000
0003
,
0000
0000
0000
0000
,
1000
1000
0010
0010
,
1000
1000
0010
0010
,
0010
0000
0100
0001
,
0010
0000
0000
0000
,
0001
0000
0100
0001
,
1000
1000
1000
0000
,
0020
0030
0200
0300
,
0001
1000
0001
0000
,
1000
1000
0001
0001
,
1000
1000
0001
0001
,
1000
0000
0100
1000
,
0010
0000
0000
0000
,
1000
0000
0100
1000
,
0001
0001
0001
0000
,
0200
0300
0020
0030
,
2000
0000
0000
3000
,
0020
0000
0000
0030
,
0020
0000
0000
0030
,
0200
0000
0000
0300
,
0110
0000
0000
0000
,
1000
0000
1000
0000
,
0001
0000
0001
0000
,
0100
0000
0010
0010
,
0100
0000
0010
0010
,
1000
0000
0100
0100
,
0001
0000
0100
0100
,
0010
0000
1000
0001
,
0001
0000
1000
0010
,
0200
0000
0000
0000
,
0310
0000
0000
0000
,
2002
0000
0000
3003
;

//---------------dance-single - ----------------
#NOTES:
     dance-single:
     :
     Medium:
     5:
     :
0000
0000
0000
0000
,
0000
0000
0000
0000
,
0000
0000
0000
0000
,
0000
0000
0000
0000
,
0000
0000
0000
0000
,
0000
0000
0000
0000
,
0000
0000
0000
0000
,
0000
0000
0000
0000
,
0000
0000
0000
0000
,
0000
0000
0000
0000
,
0001
0001
0100
0100
,
1000
1000
0010
0010
,
0001
0001
0100
0100
,
0020
0000
0130
0000
,
1000
1000
1000
1000
,
0100
0010
0011
0000
,
1000
1000
1000
1000
,
0010
0100
0101
0000
,
0010
1000
1000
0100
,
1000
0010
0010
0100
,
0001
0000
0010
0100
,
1000
0001
1000
0000
1001
0000
0000
0000
,
0001
0001
0001
0001
,
0100
0010
1000
1000
,
0001
0001
0001
0001
,
0010
0100
1100
0100
,
0010
0001
0001
0100
,
0001
0010
0010
0100
,
2000
0000
0010
3010
,
0100
0010
0100
0000
0110
0000
0000
0000
,
0001
0000
0000
1000
0000
0000
1000
0000
,
0001
0000
0000
0100
0000
0000
0000
0000
,
0010
0000
0000
0001
0000
0000
0001
0000
,
1000
0000
0000
0100
0000
0000
0000
0000
,
1000
0000
0000
0010
0000
0000
0010
0000
,
0100
0000
0000
0100
0000
0000
0001
0000
,
1000
0100
0010
0001
,
0100
0010
0200
0000
0000
0000
0000
0000
,
0310
1001
0000
0000
,
1000
1001
1000
1001
,
1000
1001
1000
1001
,
0000
1000
0010
0100
,
0010
1000
0001
0000
0100
0000
0000
0000
,
0001
1000
1000
0100
,
0001
1000
1000
0001
,
1000
0010
0100
0001
,
0020
0000
0130
1001
,
0120
0000
1000
0130
,
0120
0000
1000
0130
,
0000
0001
0010
0100
,
0010
0001
1000
0000
0100
0000
0000
0000
,
1000
0001
0001
0100
,
1000
0001
0001
1000
,
0010
1000
0001
0010
,
0001
1000
0001
1000
0001
1000
0001
0000
,
2200
0000
0000
3300
,
0202
0000
0000
0303
,
0220
0000
0000
0330
,
0100
0000
0000
0000
0001
1000
0100
0000
,
1000
0001
0100
1000
,
0100
0001
1000
0100
,
2000
0000
3010
0100
,
0002
0000
0013
0100
,
2000
3100
0002
0103
,
0020
0000
1000
1030
,
0001
0100
0001
0000
1000
0000
1000
0000
,
0100
0010
0100
0000
0001
0000
0001
0000
,
0100
0101
0100
1100
,
1001
0000
0000
0000
,
0220
0000
0000
0330
;

//---------------dance-single - ----------------
#NOTES:
     dance-single:
     :
     Hard:
     6:
     :
0000
0000
0000
0000
,
0000
0000
0000
0000
,
0000
0000
0000
0000
,
0000
0000
0000
0000
,
0000
0000
0000
0000
,
0000
0000
0000
0000
,
0000
0000
0000
0000
,
0000
0000
0000
0000
,
0000
0000
0000
0000
,
0000
0000
0000
0000
,
1000
0100
0001
0100
,
1000
0010
0001
0010
,
1000
0100
0001
0100
,
1000
0000
0000
0001
0000
0000
1000
0000
0001
0000
0000
0000
0000
0000
0000
0000
,
1000
0000
1000
0100
1000
0000
0100
0000
,
0010
0000
0001
0010
0001
0000
0011
0000
,
1000
0000
1000
0100
1000
0000
0001
0000
,
0100
0000
0001
0010
0001
0000
1100
0000
,
0002
0013
2000
3100
,
0002
0103
2000
3010
,
0100
0000
0010
1000
,
0001
1000
0001
0000
1001
0000
0000
0000
,
0001
0000
0001
0100
0001
0000
0010
0000
,
0001
0000
1000
0010
1000
0000
1010
0000
,
0100
0000
0001
0100
0001
0000
1000
0000
,
0010
0000
1000
0010
1000
0000
0101
0000
,
2000
3010
0002
0103
,
2000
3100
0002
0013
,
2000
0000
0001
3100
,
0010
0100
0010
0000
1001
0000
0000
0000
,
0100
0000
0000
0010
0000
0000
1000
0000
,
0001
0000
0000
0100
0000
0010
1000
0000
,
0100
0000
0000
1000
0000
0000
0100
0000
,
1000
0000
0000
0001
0000
0100
0001
0000
,
1000
0000
0000
0010
0100
0000
0001
0000
,
1000
0000
0000
0100
0000
0010
0001
0010
,
0001
0000
0000
0001
0000
0000
0001
0000
1000
0000
0000
1000
0000
0000
1000
0000
,
0010
0100
0002
0000
0000
0000
0000
0000
,
0013
1100
0000
0000
,
1010
0001
1010
0001
,
1010
0001
1010
0001
,
1000
0000
1000
0100
0010
0000
0001
0000
,
0100
0010
1000
0000
0001
0000
0000
0100
,
0001
0000
1000
0000
1000
0000
0001
0100
,
0001
1000
1000
0010
,
2000
3020
0230
0301
,
1000
0100
0010
0001
1000
0000
0101
0000
,
0021
1000
0001
1030
,
0021
1000
0001
1030
,
0001
0000
0001
1000
0010
0000
1000
0000
,
0100
0010
0001
0000
1000
0000
0010
0100
,
1000
0000
0001
0000
0001
0000
1000
0010
,
1000
0001
0001
0100
,
0020
0000
2030
0000
3002
0000
0013
0100
,
0000
1000
0010
1000
0010
1000
0010
0000
,
0120
0000
0000
0000
0000
0000
1030
0100
,
0020
0000
0000
0000
0000
0000
0031
0100
,
0010
0000
0000
0000
1000
0100
0010
0001
,
0100
0000
0000
0000
0010
1000
0100
0010
,
0100
0001
0100
1000
,
0010
0001
0010
1000
,
0100
0000
0001
0000
0100
0010
1000
0000
,
0001
0000
1000
0000
0100
0010
0001
0000
,
0100
0000
0010
0000
1000
0001
1000
0001
,
0000
0100
0010
0100
0010
0000
1000
0000
,
0001
0000
1000
0001
0000
0100
0010
0100
,
0001
1000
0001
1000
0000
0100
0010
0000
,
0100
0000
0000
0100
0000
0000
0100
0000
0010
0000
0000
0010
0000
0000
0010
0000
,
1001
0000
0000
0000
1000
0100
0010
0001
,
0200
0000
0000
0300
;
