#TITLE:雫;
#ARTIST:♪♪♪♪♪;
#TITLETRANSLIT:Shizuku;
#BANNER:Shizuku.png;
#BACKGROUND:Shizuku-bg.png;
#CDTITLE:./CDTITLES/DanceDanceRevolution MUSIC FIT.png;
#MUSIC:Shizuku.ogg;
#SAMPLESTART:63.167;
#SAMPLELENGTH:15;
#BPMS:0=180,298=178,302=176,304=162,305=153,306=144,307=140;

//---------------dance-single - ----------------
#NOTES:
     dance-single:
     :
     Beginner:
     2:
     :
0000
0000
0000
0000
,
0000
0000
0000
0000
,
0000
0000
0000
0000
,
0000
0000
0000
0000
,
0000
0000
0000
0000
,
0000
0000
0000
0000
,
0000
0000
0000
0000
,
0001
0000
0000
0000
,
0000
0000
1000
0000
,
0000
0000
0000
0000
,
0010
0000
0000
0000
,
0000
0000
0100
0000
,
0000
0000
0000
0000
,
0001
0000
0000
0000
,
0000
0000
1000
0000
,
0000
0000
0000
0000
,
0010
0000
0000
0010
,
0000
0000
0100
0000
,
0000
0000
0000
0000
,
0001
0000
0000
0001
,
0000
0000
1000
0000
,
0000
0000
0000
0000
,
0010
0000
0000
1000
,
0000
0000
0100
0000
,
0000
0000
0000
0000
,
0001
0000
0000
0001
,
0000
0000
1000
0000
,
0000
0000
0000
0000
,
0010
0000
0000
0010
,
0000
0000
0100
0000
,
0000
0000
0000
0000
,
0001
0000
0000
1000
,
0000
0000
0001
0001
,
0001
0000
0000
0000
,
1000
0000
0000
0001
,
0000
0000
1000
1000
,
1000
0000
0000
0000
,
0001
0000
0000
1000
,
0000
0000
0001
0001
,
0001
0000
0000
0000
,
1000
0000
0000
0010
,
0000
0000
0100
0000
,
0000
0001
0000
0000
,
1000
0000
0000
0100
,
0000
0000
0010
0000
,
0000
0001
0000
0000
,
1000
0000
0000
0000
,
0000
0000
0001
0000
,
0000
1000
0000
0000
,
0001
0000
0000
0010
,
0000
0000
0001
0000
,
0000
1000
0000
0000
,
0001
0000
0000
0100
,
0000
0000
0001
0000
,
0000
1000
0000
0000
,
0001
0000
0000
0010
,
0000
0000
1000
0000
,
0000
0001
0000
0000
,
1000
0000
0000
0000
,
0000
0000
1000
0000
,
0000
0001
0000
0000
,
1000
0000
0000
0010
,
0000
0000
1000
0000
,
0000
0001
0000
0000
,
1000
0000
0000
0100
,
0000
0000
1000
0000
,
0000
0001
0000
0000
,
1000
0000
0000
0010
,
0000
0000
0001
0000
,
0000
1000
0000
0000
,
0001
0000
0000
0000
,
0000
0000
1000
0000
,
0000
0001
0000
0000
,
1000
0000
0000
0000
,
0000
0000
0010
0000
,
0000
0010
0000
0000
,
0100
0000
0000
0100
;

//---------------dance-single - ----------------
#NOTES:
     dance-single:
     :
     Easy:
     5:
     :
0000
0000
0000
0000
,
0000
0000
0000
0000
,
0000
0000
0000
0000
,
0000
0000
0000
0000
,
0000
0000
0000
0000
,
0000
0000
0000
0000
,
0000
0000
0000
0000
,
1000
0000
0000
0001
,
0000
0000
0010
0010
,
0100
0100
0000
0000
,
1000
0000
0000
0001
,
0000
0000
1000
1000
,
0000
0001
0001
0000
,
1000
0000
0000
0001
,
0000
0000
0010
0010
,
0100
0100
0000
0000
,
0002
0000
0003
2000
,
0000
3000
0020
0000
,
0030
0100
0000
0000
,
0001
0000
0000
1000
,
0000
0000
0010
0010
,
0100
0100
0000
0000
,
0001
0000
0000
1000
,
0000
0000
0001
0001
,
0000
1000
1000
0000
,
0001
0000
0000
1000
,
0000
0000
0010
0010
,
0100
0100
0000
0000
,
2000
0000
3000
0002
,
0000
0003
0020
0000
,
0030
0100
0000
0000
,
1000
0001
0000
1000
,
0010
0000
1000
0000
,
0000
1000
0000
0000
,
0001
1000
0000
0001
,
0010
0000
0001
0000
,
0000
0001
0000
0000
,
1000
0001
0000
1000
,
0010
0000
1000
0000
,
0000
1000
0000
0000
,
0002
0000
0003
0020
,
0000
0030
0200
0000
,
0300
2000
0000
3000
,
0002
0000
0003
0200
,
0000
0300
0020
0000
,
0030
2000
0000
3000
,
0002
0000
0003
0000
,
0000
0000
0100
0100
,
0000
0001
0001
0000
,
1000
1000
0001
1000
,
0000
0000
0100
0100
,
0000
0001
0000
0001
,
1000
1000
0000
0001
,
0000
0000
0100
0100
,
0000
0001
0001
0000
,
1000
1000
0001
1000
,
0000
0000
0020
0000
,
0030
2000
0000
3000
,
0002
0000
0003
1000
,
0000
0000
0000
0010
,
0000
1000
1010
0000
,
0001
0001
1000
0001
,
0000
0000
0010
0010
,
0000
1000
0000
1000
,
0001
0001
0000
1000
,
0000
0000
0010
0010
,
0000
1000
1000
0000
,
0001
0001
1000
0001
,
0000
0000
0200
0000
,
0300
0002
0000
0003
,
2000
0000
3000
0001
,
0000
0000
0200
0000
,
0300
0002
0000
0003
,
2000
0000
3000
0001
,
0000
0000
0010
0000
,
0000
0100
0000
0000
,
1000
0000
0000
0001
;

//---------------dance-single - ----------------
#NOTES:
     dance-single:
     :
     Medium:
     6:
     :
0000
0000
0000
0000
,
0000
0000
0000
0000
,
0000
0000
0000
0000
,
0000
0000
0000
0000
,
0000
0000
0000
0000
,
0000
0000
0000
0000
,
0000
0000
0000
0000
,
0100
0000
1000
0001
,
0000
0100
0010
0000
,
1000
0001
1000
1000
,
0100
0000
0010
0001
,
0000
0001
0100
0000
,
0100
0010
0010
1000
,
0100
0000
0001
1000
,
0000
0100
0010
0000
,
0001
1000
0001
0001
,
1000
0100
0010
0001
,
0000
0010
0100
1000
,
0001
1000
0000
0000
,
0100
0100
1000
0001
,
0000
0100
0010
0010
,
1000
0001
0000
1000
,
0100
0100
0010
0001
,
0000
0001
0100
0010
,
0100
0010
0010
1000
,
0100
0000
0001
1000
,
0000
0100
0010
0000
,
0001
1000
0001
0001
,
1000
0100
0010
0001
,
0000
1000
0100
1000
,
0010
0100
0000
0000
,
1000
0000
0010
0010
,
0000
0100
0010
1000
,
0001
1000
0010
0100
,
0001
0000
0010
0010
,
0000
0100
0010
0001
,
1000
0001
0010
0100
,
1000
0000
0010
0010
,
0000
0100
0010
1000
,
0001
1000
0010
0100
,
0110
0000
1000
1100
,
0000
0001
0101
0000
,
0010
0100
0100
0100
,
0110
0000
0001
1001
,
0000
0100
1001
0000
,
0010
1001
0000
0100
,
0010
0000
1000
0001
1000
0000
0100
0010
,
0100
0010
0001
1000
,
0000
0010
0100
0000
0010
0000
1000
0000
,
0100
0000
1000
0000
0000
0001
0100
0000
,
0010
0100
1000
0001
,
0000
0010
0100
0000
0010
0000
0001
0000
,
0100
0000
0001
0000
0000
1000
0100
0000
,
0010
0100
0001
1000
,
0000
0100
0010
0000
0100
0000
1000
0000
,
0010
0000
1000
0000
0000
0001
0010
0000
,
0100
0010
0010
0100
,
0000
1000
0100
0000
,
0001
0010
0001
0100
,
1000
0100
0001
1000
,
0000
0010
0100
0000
0010
0000
1000
0000
,
0100
0000
1000
0000
0000
0001
0100
0000
,
0010
0100
1000
0001
,
0000
0010
0100
0000
0010
0000
0001
0000
,
0100
0000
0001
0000
0000
1000
0100
0000
,
0010
0100
0001
1000
,
0000
0100
0010
0000
0100
0000
1000
0000
,
0010
0000
1000
0000
0000
0001
0010
0000
,
0100
0010
0010
0100
,
0000
1000
0100
0000
,
0001
0010
0001
0100
,
1000
0100
0010
0100
,
0000
0001
0100
0000
,
1000
0010
1000
0100
,
0001
0100
0010
0100
,
0000
0001
1000
0000
,
0100
0010
1000
0001
;

//---------------dance-single - ----------------
#NOTES:
     dance-single:
     :
     Hard:
     7:
     :
0000
0000
0000
0000
,
0000
0000
0000
0000
,
0000
0000
0000
0000
,
0000
0000
0000
0000
,
0000
0000
0000
0000
,
0000
0000
0000
0000
,
0000
0000
0000
0000
,
0100
0000
0001
1000
,
0000
0010
0001
0000
,
0100
0000
0010
0000
1000
0100
1000
0000
,
0010
0000
0001
1000
,
0000
0001
0100
0000
,
1000
0000
0100
0000
0010
0001
0010
0000
,
0100
0000
1000
0001
,
0000
0010
1000
0000
,
0100
0000
0010
0000
0001
0100
0001
0000
,
1000
0010
0100
0010
,
1000
0100
0010
0100
,
1000
0001
0000
0000
,
0100
0100
0001
1000
,
1000
0010
0001
0001
,
0100
0000
0010
0000
1000
0100
1000
0000
,
0010
0010
0001
1000
,
1000
0001
0100
0100
,
1000
0000
0100
0000
0010
0001
0010
0000
,
0100
1000
0001
1000
,
0001
0010
0001
1000
,
0100
0000
0010
0000
0001
0100
0001
0000
,
1000
0010
0001
0010
,
1000
0100
1000
0001
,
1000
0001
0000
0000
,
1000
0000
0000
0001
0100
0000
0010
0000
,
0000
0100
0001
0000
0010
0000
0001
0000
,
0100
1000
0010
0001
,
0100
0000
0000
0001
0100
0000
0010
0000
,
0000
1000
0001
0000
0010
0000
1000
0000
,
0100
1000
0000
0001
,
1000
0000
0010
0001
0100
0000
0010
0000
,
1000
0100
0001
0000
0100
0000
1000
0000
,
0010
0001
0010
0100
,
0101
0010
1000
0100
,
0100
0010
1100
0010
,
0100
0000
0001
0000
1000
0010
0100
0000
,
1100
0100
0001
0011
,
0001
0100
1001
0100
,
0010
1001
0010
0100
,
0110
0000
1000
0001
1000
0001
0100
0010
,
0100
0010
0100
0010
1000
0000
0001
0000
,
0000
0100
0010
0000
1000
0000
0001
0100
,
0010
0000
1000
0100
0010
0000
0100
0000
,
0010
0001
0100
0000
0001
0000
1000
0000
,
0000
0100
0010
0000
0001
0000
1000
0100
,
0010
0000
0001
0100
0010
0000
0100
0000
,
0010
1000
0100
0010
0001
0000
1000
0000
,
0000
0100
0010
0000
0001
0000
1000
0100
,
0010
0000
0001
0100
0010
0000
0100
0000
,
0010
1000
0100
0000
1000
0000
0001
0000
,
0000
0100
0010
0000
1000
0000
0001
0100
,
0010
0000
1000
0100
0010
0000
0100
0000
,
1000
0010
0100
0001
1000
0000
0001
0000
,
1000
0100
0010
0000
1000
0000
0010
0100
,
0010
0000
1000
0100
0010
0000
0100
0000
,
1000
0001
0100
0000
0001
0100
1000
0000
,
0000
0100
0010
0000
1001
0000
1000
0100
,
0010
0000
0001
0100
0010
1000
0100
0000
,
0001
1000
0100
0010
0001
0000
1000
0000
,
0001
0100
0010
0000
0001
0000
0010
0100
,
0010
0000
0001
0100
0010
0000
0100
0000
,
0001
1000
0100
0000
0010
0000
0001
0000
,
0000
0100
0010
0000
1000
0000
0010
0100
,
0010
0000
1000
0100
1000
0000
0001
0000
,
1000
0010
0100
0001
0010
0000
1000
0000
,
0000
0100
0010
0000
0001
0000
0010
0100
,
0010
0000
0001
0100
0001
0000
1000
0000
,
0001
0010
0100
1000
0010
0000
0100
0000
,
0000
0001
1000
0000
,
0100
0010
0001
1000
;
