#TITLE:シャングリラ;
#ARTIST:96 feat. 石阪久美子;
#TITLETRANSLIT:Shangri-La;
#ARTISTTRANSLIT:96 feat. Kumiko Ishisaka;
#BANNER:Shangri-La.png;
#BACKGROUND:Shangri-La-bg.png;
#CDTITLE:./CDTITLES/GF V5 & DM V5 Rock to Infinity.png;
#MUSIC:Shangri-La.ogg;
#SAMPLESTART:11.56;
#SAMPLELENGTH:15;
#BPMS:0=129;

//---------------dance-single - ----------------
#NOTES:
     dance-single:
     :
     Beginner:
     1:
     :
0000
0000
0000
0000
,
0000
0000
0000
0000
,
0000
0000
0000
0000
,
0000
0000
0000
0000
,
0000
0000
0000
0000
,
0000
0000
0000
0000
,
0000
1000
0000
0001
,
0000
1000
0000
0000
,
0000
0001
0000
0000
,
0000
1000
0000
0001
,
0000
0001
0000
1000
,
0000
0000
0001
0000
,
1000
0000
0001
0000
,
0000
0000
1000
0000
,
0000
0000
1000
0000
,
0001
0000
1000
0000
,
0010
0000
0001
0000
,
1000
0000
1001
0000
,
0000
0000
0000
0000
,
0000
0000
1000
0000
,
0000
0000
0001
0000
,
0000
0000
0010
0000
,
0010
0000
0010
0000
,
0000
0000
1000
0000
,
0000
0000
1000
0000
,
0000
0000
0001
0000
,
0000
0000
0001
0000
,
0000
0000
1000
0000
,
1000
0000
0001
0000
,
0001
0000
0010
0000
,
0010
0000
1000
0000
,
1000
0000
0001
0000
,
0000
0000
1000
0000
,
0000
0000
0001
0000
,
0000
0000
0001
0000
,
0000
0000
0001
0000
,
1000
0000
0001
0000
,
0000
0000
1000
0000
,
0000
0000
0001
0000
,
1000
0000
1000
0000
,
0001
0000
0000
1000
,
0000
0001
0000
1000
,
0000
0000
0000
0001
,
0000
0000
0000
0001
,
0000
1000
0000
0001
,
0000
0010
0000
1000
,
0000
0001
0000
1001
;

//---------------dance-single - ----------------
#NOTES:
     dance-single:
     :
     Easy:
     3:
     :
0000
0000
0000
0000
,
0000
0000
0000
0000
,
0000
0000
0000
0000
,
0000
0000
0000
0000
,
0000
0000
0000
0000
,
0000
0000
0000
0000
,
0000
1000
0100
1000
,
0000
0001
0000
0100
,
0000
1000
0000
1000
,
0000
0010
0000
0001
,
0000
1000
0000
0100
,
0000
0000
0001
0100
,
0001
0000
1000
0000
,
0100
0000
1000
0000
,
0010
0000
0001
0000
,
0100
0000
1000
0000
,
0100
0000
0001
0000
,
0100
1000
0100
0010
,
0001
1000
1001
0000
,
0000
0000
1000
0100
,
0000
1000
0000
1000
,
0000
0000
0001
0100
,
0000
0001
0000
0001
,
0000
0010
2000
0000
,
3000
0000
0002
0000
,
0003
0000
0200
0000
,
0300
0000
2000
0000
,
3000
0000
1000
0000
,
0100
0000
1000
0000
,
1000
0000
0001
0000
,
0010
0000
0100
0000
,
0100
1000
0002
0000
,
0003
0000
2000
0000
,
3000
0000
0200
0000
,
0300
0000
0100
0010
,
0110
0000
0001
0100
,
0001
0000
1000
0000
,
0100
0000
0001
0000
,
0001
0000
0010
0000
,
0001
0000
0100
0000
,
0100
0000
0000
1000
,
0100
1000
0000
0001
,
0000
0100
0000
0001
,
0000
0010
0000
1000
,
0000
0100
0000
0001
,
0000
0100
0000
1000
,
0000
0001
1000
1001
;

//---------------dance-single - ----------------
#NOTES:
     dance-single:
     :
     Medium:
     4:
     :
0000
0000
0000
0000
,
0000
0000
0000
0000
,
0000
0000
0000
0000
,
0000
0000
0000
0000
,
0000
0000
0000
0000
,
0000
0000
0000
0000
,
0000
0000
1000
0100
0001
0000
0100
0000
,
1000
0000
0001
1000
0010
0100
0100
0000
,
0001
0000
1000
0010
1000
0000
0001
0000
,
0100
0000
0010
0000
0000
1000
0000
0100
,
0010
0001
1000
0001
,
1000
0010
0100
0000
0001
0100
1000
0000
,
0100
0000
0001
0001
1000
0000
0010
0100
,
0100
0000
1000
0000
0001
0100
0001
0000
,
1000
1000
0100
0000
0010
0000
0000
0001
,
0000
0100
0010
0000
1000
0000
0001
0000
,
1000
1000
0001
0000
1000
0000
0001
0000
,
0100
0100
0001
0000
1000
0000
0000
0010
,
0000
0100
0000
0010
2000
0000
0000
0000
,
0000
3000
0001
1000
,
0001
0000
0100
0000
0010
1000
0100
0000
,
0010
0001
0100
0000
0001
0000
1000
0000
,
0001
0000
0010
0000
0100
1000
0010
0000
,
0100
0001
0100
0000
0002
0000
1000
0000
,
1003
0000
0200
1000
,
1300
0000
0020
0001
,
0031
0000
2000
0001
,
3001
0000
0000
0010
,
0000
0010
0100
0000
0001
0000
1000
0000
,
0100
0010
0000
0001
,
0000
0100
0010
0000
1000
0000
0000
0001
,
0000
1000
0100
0000
2000
0000
0001
0000
,
3001
0000
0200
0001
,
0301
0000
2000
0100
,
3100
0100
0010
0001
,
0101
0000
1010
0000
1000
0100
0001
0000
,
0100
0000
1000
0000
0001
1000
0010
0100
,
0100
0000
0001
0000
1000
0010
1000
0000
,
0001
0000
0100
0000
0010
1000
0000
1000
,
0000
0100
0010
0000
0011
0000
1000
0000
,
0001
0000
1000
0010
0100
0000
0001
0100
,
1000
0000
0100
0000
0001
0001
1000
0000
,
0010
0100
0100
0000
1000
0000
0001
0100
,
0001
0000
1000
1000
0100
0000
0010
0000
,
0000
0001
0000
0100
0010
0000
1000
0000
,
0001
0000
1000
1000
0001
0000
1000
0000
,
0001
0000
0100
0100
0001
0000
1000
0000
,
0002
0000
0000
1003
;

//---------------dance-single - ----------------
#NOTES:
     dance-single:
     :
     Hard:
     6:
     :
0000
0000
0000
0000
,
0000
0000
0000
0000
,
0000
0000
0000
0000
,
0000
0000
0000
0000
,
0000
0000
0000
0000
,
0000
0000
0000
0000
,
0000
0000
1000
0100
1000
0010
0100
0000
,
0101
0000
0001
0010
0100
0010
0001
0100
,
1010
0000
1000
0100
1000
0001
0100
0010
,
1100
0000
0001
0010
0001
0000
1000
0010
,
1000
0000
1000
0100
0001
0100
1000
0000
,
1100
0000
0101
0000
0001
0100
0001
0010
,
0100
0000
1000
1000
1000
0010
0100
0010
,
1000
0100
0011
0000
0001
0100
0001
1000
,
0100
0010
0010
0000
0001
0100
0001
0000
,
1000
0100
1000
0000
0001
0000
0001
0000
,
0100
0001
0100
0000
0010
0000
0010
0000
,
1000
0001
1000
0000
1100
0000
0000
0010
,
0000
0100
0000
0101
2100
0000
0000
0000
,
0001
0000
3001
0000
1000
0100
0000
0010
,
0000
0001
0100
0010
0000
0010
0000
1000
,
0100
0010
0001
0010
0000
0001
0000
1000
,
0000
0010
0100
0010
0000
1000
0000
0001
,
0000
0100
0000
0010
2000
0000
0100
0000
,
0000
0000
3100
0010
0002
0000
0100
0000
,
0000
0103
0020
0100
,
0000
0000
0130
0001
2000
0000
0001
0000
,
0000
3001
1000
0100
,
0001
0000
0100
0000
1000
0100
0001
0000
,
0001
0100
1000
0000
0001
0000
1000
0000
,
0001
0010
0001
0000
1000
0100
0000
0010
,
0000
1000
0000
0001
2000
0000
0100
0000
,
0000
0000
3100
0010
0002
0000
0100
0000
,
0000
0103
0020
1000
,
0000
0000
1030
0100
0000
0010
0000
0001
,
1000
0010
0100
0000
0001
0010
0001
0100
,
0010
0000
1010
0000
1000
0100
0010
0100
,
1000
0010
0101
0000
0001
0010
0001
1000
,
0010
0100
0011
0000
1000
0100
1000
0000
,
0001
0100
0001
1000
0001
0010
1000
0010
,
0001
0000
0011
0000
1010
0000
1000
0010
,
1000
0100
0010
0000
0001
0001
0001
0100
,
0010
0100
0001
0010
1100
0000
1000
0010
,
1000
0001
0010
0100
0100
0000
1000
0010
,
1000
0100
0010
0001
0010
0000
1000
0000
,
1000
0000
0010
0100
0010
0000
0001
0000
,
0001
0100
1000
0000
1100
0000
0200
0000
,
0000
0000
0300
1001
;
