#TITLE:侍戦隊シンケンジャー;
#ARTIST:♪♪♪♪♪;
#TITLETRANSLIT:Samurai Sentai Shinkenger;
#BANNER:Samurai Sentai Shinkenger.png;
#BACKGROUND:Samurai Sentai Shinkenger-bg.png;
#CDTITLE:./CDTITLES/pop'n music 18 Sengok Retsuden.png;
#MUSIC:Samurai Sentai Shinkenger.ogg;
#SAMPLESTART:53.604;
#SAMPLELENGTH:15;
#BPMS:0=174;

//---------------dance-single - ----------------
#NOTES:
     dance-single:
     :
     Beginner:
     2:
     :
0000
0000
0000
0000
,
0000
0000
0000
0000
,
0000
0000
0000
0000
,
0000
0000
0000
0000
,
0000
0000
0000
0000
,
1000
0000
0000
0000
,
0000
0000
0000
0000
,
0001
0000
0000
0000
,
0000
0000
0000
0000
,
1000
0000
0001
0000
,
1000
0000
0000
0000
,
0010
0000
0000
0000
,
1001
0000
0000
0000
,
0000
0000
0000
0000
,
0000
0000
0000
0000
,
1000
0000
1000
0000
,
1000
0000
0000
0000
,
0010
0000
0010
0000
,
0010
0000
0000
0000
,
0001
0000
0000
0000
,
1000
0000
0000
0000
,
0001
0000
0000
0000
,
0100
0000
0000
0000
,
0001
0000
0001
0000
,
0001
0000
0000
0000
,
0010
0000
0010
0000
,
0010
0000
0000
0000
,
1000
0000
0000
0000
,
0001
0000
0000
0000
,
1000
0000
0000
0000
,
0100
0000
0000
0000
,
2000
0000
0000
3000
,
0000
0000
0000
0000
,
0002
0000
0000
0003
,
0000
0000
0000
0000
,
1000
0000
1000
0000
,
0001
0000
0000
0000
,
1000
0000
0000
0000
,
1001
0000
0000
0000
,
1000
0000
1000
0000
,
1000
0000
1000
0000
,
0001
0000
0001
0000
,
0001
0000
0001
0000
,
0010
0000
0000
0000
,
0010
0000
0000
0000
,
1000
0000
1000
0000
,
1000
0000
0000
0000
,
0001
0000
0001
0000
,
0001
0000
0001
0000
,
1000
0000
1000
0000
,
1000
0000
1000
0000
,
0100
0000
0000
0000
,
0100
0000
0000
0000
,
0001
0000
0001
0000
,
0001
0000
0000
0000
,
0000
0000
0000
0000
,
0001
0000
0000
0000
,
0000
0000
0000
0000
,
1000
0000
0000
0000
,
0001
0000
1000
0000
,
0001
0000
0000
0000
,
0010
0000
0000
0000
,
1001
0000
0000
0000
;

//---------------dance-single - ----------------
#NOTES:
     dance-single:
     :
     Easy:
     4:
     :
0000
0000
0000
0000
,
0000
0000
0000
0000
,
0000
0000
0000
0000
,
0000
0000
0000
0000
,
0000
0000
0000
0000
,
0002
0000
0000
0003
,
1000
0000
0001
0000
,
2000
0000
0000
3000
,
0001
0000
1000
0000
,
1000
0000
0001
0000
,
0100
0000
1000
0001
,
1000
0000
0000
0110
,
1001
0000
0000
0000
,
0000
0000
0000
0000
,
0000
0000
0000
0000
,
0100
0000
0000
0000
,
0001
1000
0001
0000
,
1000
0000
0000
0000
,
1000
0001
1000
0000
,
0100
0000
0100
0000
,
0010
0000
0010
0000
,
1000
0000
1000
0000
,
0001
0000
1000
0000
,
0010
0000
0000
0000
,
0100
0010
0100
0000
,
1000
0000
0000
0000
,
0010
0100
0010
0000
,
0100
0000
0100
0000
,
0010
0000
0010
0000
,
0001
0000
0001
0000
,
1000
0000
0001
0000
,
2000
0000
0000
3000
,
0001
0000
0001
0000
,
0200
0000
0000
0300
,
0010
0000
1000
0000
,
0010
0000
0010
0000
,
0001
1000
0001
0000
,
1001
0000
0110
0000
,
1001
0000
0000
0000
,
1000
0100
1000
0000
,
1000
0000
0100
0000
,
0001
1000
0001
0000
,
0001
1000
1001
0000
,
1000
0000
0001
0000
,
0001
0000
1000
0000
,
0001
0000
1000
0000
,
1001
0000
0000
0000
,
0001
0100
0001
0000
,
0001
0000
0100
0000
,
1000
0001
1000
0000
,
1000
0001
1001
0000
,
0001
0000
1000
0000
,
1000
0000
0001
0000
,
1000
0000
0001
0000
,
1001
0000
0000
0000
,
1000
0000
0100
0000
,
0010
0000
0000
0000
,
0100
0000
0010
0000
,
1000
0000
0000
0000
,
0001
0000
1000
0000
,
0100
0000
0001
1000
,
1001
0000
0000
0110
,
1001
0000
0000
0000
;

//---------------dance-single - ----------------
#NOTES:
     dance-single:
     :
     Medium:
     5:
     :
0000
0000
0000
0000
,
0000
0000
0000
0000
,
0000
0000
0000
0000
,
0000
0000
0000
0000
,
0000
0000
0000
0000
,
0002
1000
0000
1000
,
0000
1000
0103
0010
,
2000
0100
0000
0100
,
0000
3100
0000
0000
,
0010
0001
0100
0010
,
2010
3000
0001
1000
,
2002
0000
3003
0110
,
1000
0001
0000
0000
0000
0000
0000
0000
,
0000
0000
0000
0000
,
0000
0000
0000
0000
,
0200
0300
0001
0001
,
1000
0000
0100
0010
,
0002
0003
0010
0010
,
1000
0000
0010
0001
,
0000
0010
0000
0010
,
0001
0000
0001
0000
1000
0100
1000
0000
,
0002
0000
0003
0000
0010
0100
0010
0000
,
0001
1000
0001
1000
0100
0000
0000
0000
,
0200
0300
1000
0001
,
0000
0001
0100
0000
0100
0001
0000
0000
,
0020
0030
0001
1000
,
0000
1000
0100
0000
0100
1000
0000
0000
,
0000
0010
0000
0010
,
1000
0000
1000
0000
0001
0100
0001
0000
,
2000
0000
3000
0000
0010
0100
0010
0000
,
1000
0001
1000
0001
0100
0000
0000
0000
,
0002
0000
1003
0000
,
0200
0000
1300
0000
,
0020
0000
1030
0000
,
2000
0000
3001
0000
,
1000
0000
0001
0000
,
1000
0100
0001
0000
,
1000
0100
1100
0011
,
2002
0000
0000
3003
,
0100
0100
1000
0001
,
1000
0100
0001
0000
1000
0000
0000
0000
,
0001
0001
1000
1000
,
0001
0100
1000
0000
0100
0000
0000
0000
,
0000
1000
0000
0100
,
0000
0001
0000
0100
,
1000
1100
0001
0101
,
0001
0000
0100
0000
0010
1000
0001
0000
,
0100
0100
0001
1000
,
0001
0100
1000
0000
0001
0000
0000
0000
,
1000
1000
0001
0001
,
1000
0100
0001
0000
0100
0000
0000
0000
,
0000
0001
0000
0100
,
0000
1000
0000
0100
,
0001
0101
1000
1100
,
1000
0000
0100
0000
0010
0001
1000
0020
,
0000
0000
0130
0000
0000
0000
0100
0002
,
0000
0000
0103
0000
0000
0000
0000
2000
,
0000
0000
3100
0000
0000
0000
1000
0200
,
0000
1300
0000
0000
,
0010
1000
0100
0010
,
0012
0003
1000
0001
,
2002
0000
3003
0110
,
0001
1000
0000
0000
0000
0000
0000
0000
;

//---------------dance-single - ----------------
#NOTES:
     dance-single:
     :
     Hard:
     6:
     :
0000
0000
0000
0000
,
0000
0000
0000
0000
,
0000
0000
0000
0000
,
0000
0000
0000
0000
,
0000
0000
0000
0000
,
2000
0001
0100
0001
,
0100
0000
0001
0000
3100
0000
0010
0100
,
0002
1000
0100
1000
,
0100
1000
0103
0000
,
0100
1100
0100
0101
,
1010
0000
0100
0000
1000
0100
0001
0000
,
1001
0000
0000
0110
,
0001
1000
0000
0000
0000
0000
0000
0000
,
0000
0000
0000
0000
,
0000
0000
0000
0000
,
0100
0000
0010
0000
1000
0100
1000
0000
,
0001
0000
0000
1000
0100
1000
0010
0000
,
1000
0000
0100
0000
0010
0001
0010
0000
,
0001
0000
0000
0001
0010
0001
1000
0000
,
0000
0010
0000
0010
,
1000
0100
1000
0000
0001
0100
0001
0000
,
1000
0000
1000
0000
0010
0100
0010
0100
,
0000
0001
0010
1000
0010
0100
1000
0000
,
0100
0000
0010
0000
0001
0100
1000
0000
,
0000
1000
0100
0010
0001
0000
0001
0000
,
0010
0000
0100
0000
1000
0100
0001
0000
,
0000
0001
0100
0010
1000
0000
1000
0000
,
0000
0010
0000
0010
,
0001
0100
0001
0000
1000
0100
1000
0000
,
0001
0000
0001
0000
0010
0100
0010
0100
,
0000
1000
0010
0001
0010
0100
0001
0000
,
2000
0000
3001
0100
,
0020
0000
0130
1000
,
0200
0000
0310
0100
,
0002
0000
1003
0000
,
0001
0001
1000
1000
,
0001
0100
1000
0100
,
1100
0000
0100
0101
0000
0110
0000
2001
,
0000
0000
0001
3001
,
1100
0000
0101
0000
0001
0100
1000
0000
,
1000
0100
1000
0010
0001
0000
0000
0000
,
1000
0000
1000
0000
0001
0100
0001
0000
,
1000
0100
1000
0000
0001
0000
0000
0000
,
0010
0100
0001
0100
,
0010
0000
1000
0000
0100
0100
0100
0000
,
0011
0101
1010
1100
,
1000
0100
0000
0001
0010
0100
1000
0000
,
0101
0000
1100
0000
1000
0100
0001
0000
,
0001
0100
0001
0010
1000
0000
0000
0000
,
0001
0000
0001
0000
1000
0100
1000
0000
,
0001
0100
0001
0000
1000
0000
0000
0000
,
0010
0100
1000
0100
,
0010
0000
0001
0000
0100
0100
0100
0000
,
1010
1100
0011
0101
,
0001
0100
0000
1000
0010
0100
0001
1000
,
0000
0100
0010
0002
0000
1000
0000
1003
,
0000
0100
0000
0010
0000
0100
0000
0001
,
0000
0100
0010
2000
0000
0001
0000
3001
,
0000
0100
0000
0010
0000
0100
0000
0000
,
0100
0101
0100
1100
,
0011
0000
0100
0000
0001
0100
1000
0000
,
1001
0000
0000
0110
,
1000
0001
0000
0000
0000
0000
0000
0000
;
