#TITLE:おどるポンポコリン;
#ARTIST:♪♪♪♪♪;
#TITLETRANSLIT:Odoru Ponpokorin;
#BANNER:Odoru Ponpokorin.png;
#BACKGROUND:Odoru Ponpokorin-bg.png;
#CDTITLE:./CDTITLES/pop'n music 14 FEVER!.png;
#MUSIC:Odoru Ponpokorin.ogg;
#SAMPLESTART:43.042;
#SAMPLELENGTH:15;
#DISPLAYBPM:139;
#BPMS:0=139.4,188=105.4,192=99;

//---------------dance-single - ----------------
#NOTES:
     dance-single:
     :
     Beginner:
     1:
     :
0000
0000
0000
0000
,
0000
0000
0000
0000
,
0000
0000
0000
0000
,
0000
0000
0000
0000
,
0000
0000
0000
0000
,
0000
0000
0000
0000
,
0000
0000
0000
0000
,
1000
0000
0001
0000
,
1000
0000
1001
0000
,
0000
0000
0010
0000
,
0000
0000
1000
0000
,
0000
0000
0100
0000
,
0000
0000
0001
0000
,
0000
0000
0010
0000
,
0000
0000
1000
0000
,
0000
0000
0100
0000
,
0000
0000
0001
0000
,
0000
0000
1000
1000
,
0000
0000
0000
0000
,
0000
0000
0001
0001
,
0000
0000
0000
0000
,
1000
0000
1000
0000
,
0001
0000
0001
0000
,
0010
0000
0000
0000
,
0000
0000
0000
0000
,
1000
1000
1000
0000
,
0010
0000
0010
0000
,
1000
1000
1000
0000
,
0010
0000
0010
0000
,
1000
1000
1000
0000
,
0000
0000
0100
0100
,
0100
0000
0000
0000
,
0000
0000
0000
0000
,
1000
1000
1000
0000
,
0010
0000
0010
0000
,
1000
1000
1000
0000
,
0010
0000
0010
0000
,
0001
0001
0001
0000
,
1000
0000
0001
0000
,
1000
0000
0000
0000
,
0000
0000
0000
0000
,
0001
0001
0001
0000
,
0010
0000
0010
0000
,
0001
0001
0001
0000
,
0010
0000
0010
0000
,
1000
1000
1000
0000
,
0001
0000
1000
0000
,
0001
0000
1000
0000
,
0001
0000
0000
0000
;

//---------------dance-single - ----------------
#NOTES:
     dance-single:
     :
     Easy:
     3:
     :
0000
0000
0000
0000
,
0000
0000
0000
0000
,
0000
0000
0000
0000
,
0000
0000
0000
0000
,
0000
0000
0000
0000
,
0000
0000
0000
0000
,
0000
0000
0000
0000
,
1000
1000
0001
0001
,
1000
1000
0001
1001
,
1000
0000
0010
0000
,
1000
0001
1000
0000
,
0010
0000
0100
0000
,
0001
0001
0001
0000
,
0001
0000
0010
0000
,
0001
1000
0001
0000
,
0010
0000
0100
0000
,
0010
0000
0000
0000
,
0000
0000
0001
0000
,
0000
0000
0100
0100
,
0000
0000
1000
0000
,
0000
0000
0100
0100
,
0010
0000
1000
1000
,
0001
0000
0010
0010
,
0200
0000
0000
0300
,
0000
0000
0000
0000
,
2000
3000
2000
3000
,
0001
0010
0001
0000
,
2000
3000
2000
3000
,
0001
0010
0001
0000
,
2000
3000
2000
3000
,
0010
0100
0010
0100
,
0020
0000
0000
0030
,
0000
0000
0000
0000
,
0002
0003
0002
0003
,
1000
0010
1000
0000
,
0002
0003
0002
0003
,
1000
0010
1000
0000
,
0200
0300
0200
0300
,
1000
0001
1000
0001
,
2000
0000
0000
3000
,
0000
0000
0000
0000
,
0002
0003
0002
0003
,
1000
0010
1000
0000
,
0002
0003
0002
0003
,
1000
0010
1000
0000
,
0200
0300
0200
0300
,
1000
0001
1000
0001
,
0200
0000
0000
0300
,
0020
0000
0000
0030
;

//---------------dance-single - ----------------
#NOTES:
     dance-single:
     :
     Medium:
     4:
     :
0000
0000
0000
0000
,
0000
0000
0000
0000
,
0000
0000
0000
0000
,
0000
0000
0000
0000
,
0000
0000
0000
0000
,
0000
0000
0000
0000
,
0000
0000
0000
0000
,
1000
0100
1000
0000
0001
0010
0001
0000
,
0100
0010
0100
0000
0010
0000
0110
0000
,
0001
0001
0001
0001
,
1000
0100
0010
0000
,
0001
1000
0001
1000
,
0100
0010
0100
0000
,
1000
1000
0010
1000
,
0001
0001
0100
0010
,
1000
0001
1000
0001
,
0010
0000
0000
0000
,
1000
0000
0100
0000
1000
0001
0001
0000
,
0100
0100
0010
0010
,
1000
0000
0100
0000
1000
0001
0001
0000
,
0100
0100
0010
0100
,
0000
0001
0100
0010
,
1000
0001
0100
0010
,
1000
0000
1000
0000
1000
0100
0010
0001
,
1000
0000
0000
0000
,
0020
0130
0020
0130
,
0010
0000
0000
0000
0100
0001
0100
0000
,
0020
0130
0020
0130
,
0010
0000
0000
0000
0100
0001
0100
0000
,
0020
1030
0020
0130
,
0001
0010
0001
0010
,
0100
0000
1000
0001
0100
0000
0001
1000
,
0000
0001
0000
0001
0000
0001
0000
0001
,
0020
0130
0020
0130
,
0010
0000
0000
0000
0100
1000
0100
0000
,
0020
0130
0020
0130
,
0010
0000
0000
0000
0100
1000
0100
0000
,
0002
0013
0200
0310
,
0001
0001
0100
0100
,
0010
0000
1000
0000
0100
0000
1000
0100
,
0000
1000
0000
0001
0000
1000
0000
0001
,
0020
0130
2000
3100
,
0010
0000
0001
0000
0100
1000
0100
0000
,
2000
3100
0020
0130
,
0010
0000
0010
0000
0100
1000
0100
0000
,
0002
0013
0200
1300
,
0001
0001
0100
0001
,
2000
3002
2003
3002
,
2003
0000
0000
0000
,
3000
0000
0000
0000
;

//---------------dance-single - ----------------
#NOTES:
     dance-single:
     :
     Hard:
     6:
     :
0000
0000
0000
0000
,
0000
0000
0000
0000
,
0000
0000
0000
0000
,
0000
0000
0000
0000
,
0000
0000
0000
0000
,
0000
0000
0000
0000
,
0000
0000
0000
0000
,
1000
0100
0010
0001
0010
0100
1000
0010
,
0100
0001
1000
0001
1000
0000
1001
0000
,
0010
0010
0100
0100
,
0001
0000
0001
0000
1000
0100
1000
0000
,
0001
0001
0010
0010
,
0001
0100
0010
0000
,
0010
0010
0100
0100
,
1000
0010
0000
0010
0000
0100
0000
0010
,
1000
1000
0010
0010
,
0200
0000
0000
0300
,
0001
0000
1000
0000
0100
0001
0001
0000
,
0010
1000
0001
0100
,
1000
0000
0001
0000
0100
1000
1000
0000
,
0010
0001
1000
0100
,
0010
0001
0100
0010
,
1000
0100
0010
0001
,
0100
0010
1000
0100
0010
0001
0100
0010
,
1000
0000
0000
0000
,
0020
0000
0130
0001
0020
0000
0031
0010
,
0000
0100
0000
0100
1000
0000
0010
0000
,
0020
0000
0130
0001
0020
0000
0031
1000
,
0000
0100
0000
0100
1000
0000
0110
0000
,
0020
0000
0130
1000
0020
0000
1030
0010
,
0000
0100
0000
0100
0000
0100
0000
0100
,
0010
0000
1000
0100
1000
0100
0010
0001
,
0000
0011
0000
0100
0000
1010
0000
0100
,
0020
0000
0130
1000
0020
0000
1030
0010
,
0000
0100
0000
0100
0001
0000
0010
0000
,
0020
0000
0130
1000
0020
0000
1030
0001
,
0000
0100
0000
0100
0001
0000
0110
0000
,
1002
0000
0103
0010
0200
0000
0310
1000
,
0000
0100
0000
0001
0100
0000
1000
0100
,
0010
0001
0010
0001
1000
0001
1000
0001
,
0000
1010
0000
0100
0000
0011
0000
0100
,
0020
0000
0130
0001
0021
0000
0031
0010
,
0000
0100
0000
0100
1000
0000
0011
0000
,
0020
0000
0130
0001
0021
0000
0031
1000
,
0000
0100
0010
0100
1000
0000
0110
0000
,
2001
0000
3100
0010
0200
0000
0310
0001
,
0000
0110
0000
1000
0100
0000
0001
0100
,
0020
0230
0320
0230
,
0320
0000
0000
0000
,
0030
0000
0000
0000
;
