#TITLE:迷宮バタフライ;
#ARTIST:ほしな歌唄(CV:水樹奈々);
#TITLETRANSLIT:Meikyuu butterfly;
#ARTISTTRANSLIT:Hoshina Utau (CV: Mizuki Nana);
#BANNER:Meikyuu butterfly.png;
#BACKGROUND:Meikyuu butterfly-bg.png;
#CDTITLE:./CDTITLES/DanceDanceRevolution MUSIC FIT.png;
#MUSIC:Meikyuu butterfly.ogg;
#SAMPLESTART:53.997;
#SAMPLELENGTH:15;
#BPMS:0=142;

//---------------dance-single - ----------------
#NOTES:
     dance-single:
     :
     Beginner:
     2:
     :
0000
0000
0000
0000
,
0000
0000
0000
0000
,
0000
0000
0000
0000
,
0000
0000
0000
0000
,
0000
0000
0000
0000
,
0001
0000
0000
0000
,
0000
0000
0000
0000
,
1000
0000
0000
0000
,
0000
0000
0000
0000
,
0010
0000
0000
0000
,
1000
0000
0000
0000
,
0001
0000
0000
0000
,
0100
0000
0000
0000
,
0010
0000
0000
0000
,
1000
0000
0000
0000
,
0001
0000
0000
0000
,
0100
0000
0000
0000
,
0001
0000
0010
0000
,
0001
0000
0000
0000
,
1000
0000
0001
0000
,
1000
0000
0000
0000
,
0010
0000
1000
0000
,
0010
0000
0000
0000
,
1000
0000
0001
0000
,
1000
0000
0000
0000
,
0001
0000
0001
0000
,
1000
0000
0010
0000
,
1000
0000
0100
0000
,
1000
1000
1000
0000
,
0010
0000
0000
0000
,
0100
0000
0000
0000
,
0000
0000
0000
0000
,
1001
0000
0000
0000
,
1001
0000
0000
0000
,
0001
0001
0001
0000
,
0010
0010
0010
0000
,
1000
0000
0010
0000
,
0100
0000
0001
0000
,
0010
0000
1000
0000
,
0000
0000
0000
0000
,
1001
0000
0000
0000
,
1001
0000
0000
0000
,
1000
1000
1000
0000
,
0100
0100
0100
0000
,
0001
0000
1000
0000
,
0010
0000
0100
0000
,
0010
0000
0000
0000
,
1001
0000
0000
0000
,
1000
1000
0000
0000
,
0010
0010
0000
0000
,
0100
0100
0000
0000
,
0001
0001
0000
0000
,
0010
0000
0001
0000
,
1000
0000
0010
0000
,
0100
0100
0100
0000
,
1001
0000
0000
0000
,
1001
0000
0000
0000
;

//---------------dance-single - ----------------
#NOTES:
     dance-single:
     :
     Easy:
     4:
     :
0000
0000
0000
0000
,
0000
0000
0000
0000
,
0000
0000
0000
0000
,
0000
0000
0000
0000
,
0000
0000
0000
0000
,
1000
0000
0000
0000
,
0001
0000
0000
0000
,
1000
0000
0000
0000
,
0001
0000
0000
0000
,
0100
0000
0010
0000
,
1000
0000
0000
0000
,
0001
0000
1000
0000
,
0100
0000
0000
0000
,
0100
0000
0010
0000
,
1000
0000
0000
0000
,
0001
0000
1000
0000
,
0100
0000
0000
0000
,
0001
0100
0010
0000
,
0002
0003
0020
0030
,
2000
3000
0200
0300
,
1000
0001
1000
0000
,
0020
0030
2000
3000
,
0002
0003
0200
0300
,
0010
0010
0010
0000
,
1000
1000
0001
0001
,
0100
0000
0010
0100
,
0010
0000
1000
0001
,
1000
0000
0100
0010
,
0100
0000
0000
0000
,
0002
0000
0000
0003
,
2000
0000
0000
3000
,
0000
0000
0000
0000
,
0001
0010
0001
0100
,
0001
0000
0001
0000
,
1000
1000
0010
0010
,
1000
0000
0010
0000
,
0100
0000
0001
0000
,
0010
0001
0001
0000
,
0100
0001
0100
0000
,
0010
1000
0010
0000
,
1000
0100
1000
0010
,
1000
0000
0001
0000
,
0001
0001
0100
0100
,
0001
0000
0010
0000
,
0100
0000
1000
0000
,
0010
1000
0001
0000
,
1001
0000
0100
0010
,
0220
0000
0000
0330
,
0001
0000
1000
0000
,
0100
0100
0010
0000
,
0001
0100
0010
0000
,
1000
0010
0100
0000
,
0010
0010
0010
0010
,
0100
0100
0100
0100
,
0110
0000
1000
0001
,
1001
0000
0100
0010
,
0110
0000
0000
0000
;

//---------------dance-single - ----------------
#NOTES:
     dance-single:
     :
     Medium:
     5:
     :
0000
0000
0000
0000
,
0000
0000
0000
0000
,
0000
0000
0000
0000
,
0000
0000
0000
0000
,
0000
0000
0000
0000
,
0010
0000
0010
0000
,
1000
0000
0100
1000
,
0010
0000
0010
0000
,
0001
0000
0100
0101
,
0010
0000
1000
0100
,
0010
0000
0001
0100
0000
0000
0010
0000
,
0100
0000
0010
1000
,
0100
0000
0000
0000
0010
0001
1000
0000
,
0010
0000
0001
0100
,
0010
0000
1000
0100
0000
0000
0010
0000
,
0100
0000
0010
0001
,
0100
0000
0000
0000
0010
1000
0001
0000
,
2000
3100
2000
3010
,
0200
0301
0020
0031
,
0200
0310
0002
0103
,
2000
0000
3010
0000
0001
1000
0100
0000
,
2000
3010
0020
0130
,
0002
1003
2000
3100
,
1000
0010
0100
0010
,
1000
1100
0001
0101
,
1000
0100
0001
1000
,
0100
0001
0010
1000
,
0010
0000
1000
0100
1000
0000
0001
0100
,
0001
0000
0100
0100
,
0002
0000
0000
2003
0000
0000
0000
3020
,
0000
0000
0030
0000
,
1000
0100
1000
0100
0010
0001
0010
0000
,
0001
0000
1000
0000
0000
0100
1000
0000
,
0001
0000
0100
0000
0000
0001
0010
0000
,
0001
0000
0100
0000
0001
0100
0001
0000
,
1000
0000
0010
0000
0100
0001
0010
0000
,
0001
0200
0301
2000
,
3100
0010
0110
1001
,
0100
0010
0100
0010
,
0100
0001
0100
0000
1000
0001
1000
0000
,
0001
0000
1000
0000
0000
0100
1000
0000
,
0001
0000
1000
0000
0000
0001
0010
0000
,
0100
0000
1000
0000
0001
0100
0001
0000
,
1000
0000
0100
0000
1000
0001
0010
0000
,
0001
2000
3100
0020
,
0130
0001
0010
1000
,
0010
0000
0100
0100
0000
0010
0010
0000
,
1000
0100
0010
0000
0001
0100
0010
0000
,
1000
0100
1000
0100
,
0010
0001
0010
0001
,
0100
0001
0100
0001
,
0100
1000
0100
0001
,
0100
0000
0100
0000
0100
0001
0100
0000
,
0010
0000
0010
0000
0010
0100
0010
0000
,
0110
0000
0001
0001
0000
1000
1000
0000
,
0010
0100
0010
0000
0001
1000
0001
1000
,
0000
0000
0100
0000
0000
0100
0000
0000
0010
0000
0000
0010
0000
0000
0000
0000
;

//---------------dance-single - ----------------
#NOTES:
     dance-single:
     :
     Hard:
     7:
     :
0000
0000
0000
0000
,
0000
0000
0000
0000
,
0000
0000
0000
0000
,
0000
0000
0000
0000
,
0000
0000
0000
0000
,
0001
0000
0100
0010
,
0100
1000
0010
0100
,
0001
0000
1000
0010
,
0100
0000
0001
1100
,
0010
0000
0100
0010
,
0001
0010
1000
0100
0000
0010
0001
0000
,
0100
0000
0010
0001
,
0010
1000
0000
0000
0100
0010
0100
0000
,
0010
0000
0001
0010
,
1000
0010
0001
0100
0000
0010
0100
0000
,
0001
0000
0010
1000
,
0010
0001
0000
0000
1000
0010
0100
0000
,
0002
0010
1003
0020
,
1000
0031
0200
1000
,
0320
0100
2030
0100
,
3020
0000
1000
0000
0130
0001
0010
0000
,
2000
0100
3002
0100
,
2003
0010
3200
0010
,
2300
0000
0010
0000
3100
0000
0010
0001
,
1000
0000
0110
0000
1000
0000
0101
0100
,
0010
0000
1000
0100
1000
0000
0010
0100
,
0010
0000
0001
0010
0001
0100
1000
0100
,
0010
0000
1000
0100
1000
0000
0001
0100
,
1000
0000
0001
0000
0100
0001
0100
0000
,
0110
0000
1000
0001
0000
0010
0100
0020
,
0000
0000
0030
0000
,
0001
0100
0010
1000
0100
0010
0001
1000
,
0010
1000
0000
1001
0000
0001
1000
0100
,
0001
0100
0000
1010
0000
1000
0010
0100
,
0001
0000
0100
0010
1000
0100
1000
0100
,
0010
0000
0001
0100
0001
0010
0001
0000
,
1000
0200
1000
0320
,
0001
0000
0130
1000
0000
0010
1000
0010
,
0001
0000
0010
1000
0100
0000
0010
0001
,
0100
0010
1000
0001
0010
0001
1000
0000
,
0100
1000
0000
1001
0000
0001
1000
0100
,
0001
0100
0000
1010
0000
0010
1000
0100
,
0001
0000
0100
1000
0100
1000
0010
0100
,
0010
0000
0100
0101
0000
1000
0100
1000
,
0001
0200
0001
0320
,
1000
0000
0130
0001
0000
0010
0001
0010
,
0100
0000
1000
1100
0000
0010
0110
0000
,
1000
0001
0100
0020
1030
0001
0100
0010
,
1000
0000
0010
0100
0000
0000
0001
0100
,
0010
0000
1000
0010
0001
0000
1100
0000
,
0010
0000
1000
0001
0000
0100
0001
0010
,
0100
0011
0100
1010
,
0100
0001
0100
0000
0010
0001
0010
0000
,
1000
0100
1000
0000
0010
1000
0010
0000
,
1100
0000
0010
0011
0000
0001
0101
0000
,
1000
0010
0100
0001
1000
0100
0010
0001
,
0000
0000
0010
0000
0000
0100
0000
0000
0001
0000
0000
1000
0000
0000
0000
0000
;
