#TITLE:MY BOY;
#ARTIST:♪♪♪♪♪;
#BANNER:MY BOY.png;
#BACKGROUND:MY BOY-bg.png;
#CDTITLE:./CDTITLES/DanceDanceRevolution MUSIC FIT.png;
#MUSIC:MY BOY.ogg;
#SAMPLESTART:54.779;
#SAMPLELENGTH:15;
#BPMS:0=206;

//---------------dance-single - ----------------
#NOTES:
     dance-single:
     :
     Beginner:
     2:
     :
0000
0000
0000
0000
,
0000
0000
0000
0000
,
0000
0000
0000
0000
,
0000
0000
0000
0000
,
0000
0000
0000
0000
,
0000
0000
0000
0000
,
0000
0000
0000
0000
,
0000
0000
0000
0000
,
0000
0000
0000
0000
,
1000
0000
0001
0000
,
1000
0000
0000
0000
,
0001
0000
0000
0000
,
1000
0000
0000
0000
,
0001
0000
0000
0000
,
0001
0000
0000
0000
,
1000
0000
0000
0000
,
0001
0000
0000
0000
,
1000
0000
0000
0000
,
1000
0000
0000
0000
,
0001
0000
0000
0000
,
1000
0000
0000
0000
,
0001
0000
0000
0000
,
0001
0000
0000
0000
,
1000
0000
0000
0000
,
0001
0000
0000
0000
,
1000
0000
0000
0000
,
1000
0000
0000
0000
,
0001
0000
0001
0000
,
0001
0000
0000
0000
,
1000
0000
1000
0000
,
1000
0000
0000
0000
,
0001
0000
0000
0000
,
0000
0000
0000
0000
,
1000
0000
0000
0000
,
0000
0000
0000
0000
,
0001
0000
0000
0000
,
1000
0000
0000
0000
,
0001
0000
0000
0000
,
1000
0000
0000
0000
,
1000
0000
0000
0000
,
0000
0000
0000
0000
,
0001
0000
0000
0000
,
0000
0000
0000
0000
,
1001
0000
0000
0000
,
0000
0000
0000
0000
,
1001
0000
0000
0000
,
0000
0000
0000
0000
,
1000
0000
0000
0000
,
0001
0000
0000
0000
,
1000
0000
1000
0000
,
1000
0000
0000
0000
,
0001
0000
0000
0000
,
0000
0000
0000
0000
,
0001
0000
0000
0000
,
0001
0000
1000
0000
,
0001
0000
0000
0000
,
1000
0000
0000
0000
,
0001
0000
0001
0000
,
0001
0000
0000
0000
,
1000
0000
0000
0000
,
0000
0000
0000
0000
,
1000
0000
0000
0000
,
1000
0000
0001
0000
,
0001
0000
0000
0000
,
0000
0000
0000
0000
,
1000
0000
0000
0000
,
0000
0000
0000
0000
,
0001
0000
0000
0000
,
0000
0000
0000
0000
,
1000
0000
0000
0000
,
0001
0000
0000
0000
,
1000
0000
0000
0000
,
0000
0000
0000
0000
,
0001
0000
0000
0000
,
1000
0000
0000
0000
,
0001
0000
0001
0000
,
1000
0000
1000
0000
;

//---------------dance-single - ----------------
#NOTES:
     dance-single:
     :
     Easy:
     5:
     :
0000
0000
0000
0000
,
0000
0000
0000
0000
,
0000
0000
0000
0000
,
0000
0000
0000
0000
,
0000
0000
0000
0000
,
0000
0000
0000
0000
,
0000
0000
0000
0000
,
0000
0000
0000
0000
,
0000
0000
0000
0000
,
1000
0001
1000
0001
,
0000
1001
0000
0000
,
1000
0000
0010
0000
,
2000
0000
3000
0000
,
0001
0000
1000
0000
,
1001
0000
0000
0000
,
1000
0000
0010
0000
,
2000
0000
3000
0000
,
0100
0000
0100
0000
,
0000
1001
0000
0000
,
0001
0000
0010
0000
,
0002
0000
0003
0000
,
1000
0000
0001
0000
,
1001
0000
0000
0000
,
0001
0000
0010
0000
,
0002
0000
0003
0000
,
0100
0000
0100
0000
,
0000
1001
0000
0000
,
1000
1000
0001
0001
,
1000
1000
0001
1000
,
0001
0001
1000
1000
,
0000
1001
0000
0000
,
1000
0000
0001
0000
,
1000
0000
1000
0001
,
1000
0000
1000
0000
,
0010
0000
1000
0001
,
2000
0000
3000
0000
,
0200
0000
0300
0000
,
0002
0000
0003
0000
,
1000
0001
1001
0000
,
0001
0000
1000
0000
,
0001
0000
0001
1000
,
0001
0000
0001
1000
,
0010
0010
0010
0000
,
1001
0000
0000
0000
,
0110
0000
0000
0000
,
1001
0000
0000
0000
,
1001
0000
0000
0000
,
1000
0000
1000
0000
,
0100
0100
0010
0000
,
0001
1000
0001
0000
,
0200
0000
0300
0000
,
1000
0000
0001
0000
,
1000
0000
0000
0000
,
0010
0000
0001
1000
,
0001
0000
1001
0000
,
0001
0000
0001
0000
,
0100
0100
0010
0000
,
1000
0001
1000
0000
,
0200
0000
0300
0000
,
0001
0000
1000
0000
,
0001
0000
0000
0000
,
0010
0000
1000
0001
,
1000
0000
1001
0000
,
1000
0000
0100
0000
,
0001
0000
0100
0000
,
0001
0000
0100
0000
,
0100
0000
0010
0000
,
0001
1000
0001
0000
,
0010
0100
0010
0000
,
2000
0000
3000
0000
,
0002
0000
0003
0000
,
0100
0010
0100
0000
,
1001
0000
0000
0000
,
0001
0000
0100
0000
,
1000
1000
0001
0000
,
1000
0001
1000
0001
,
0000
2002
0000
3003
;

//---------------dance-single - ----------------
#NOTES:
     dance-single:
     :
     Medium:
     6:
     :
0000
0000
0000
0000
,
0000
0000
0000
0000
,
0000
0000
0000
0000
,
0000
0000
0000
0000
,
0000
0000
0000
0000
,
0000
0000
0000
0000
,
0000
0000
0000
0000
,
0000
0000
0000
0000
,
0000
0000
0000
0000
,
1000
0010
1000
0100
1000
0000
0100
0010
,
0001
1001
0000
0000
,
1000
1000
0010
0010
,
2000
0000
3001
0001
,
0010
0000
0100
0010
0001
0000
1000
0000
,
0200
0300
1001
0000
,
1000
1000
0010
0010
,
2000
0000
3001
0001
,
1010
0011
0100
0100
,
1001
0000
0000
0000
,
0001
0001
0010
0010
,
0002
0000
1003
1000
,
0010
0000
0100
0010
1000
0000
0001
0000
,
0200
0300
1001
0000
,
0001
0001
0010
0010
,
0002
0000
1003
1000
,
0011
1010
0100
0100
,
1001
0000
0000
0000
,
1000
0100
0001
0000
1000
0000
0001
0000
,
1000
0010
0001
0000
1000
0000
1000
0000
,
0001
0100
1000
0000
0100
0000
0100
0000
,
1000
0001
1001
0000
0000
0000
0000
0000
,
1000
0100
0000
1000
,
0000
1000
0000
0001
,
0000
1000
0000
0001
,
1000
0010
0001
0000
1000
0000
0001
0000
,
2000
0100
3100
0000
,
0200
0010
0310
0010
,
0002
0100
0103
0000
,
1000
0001
1001
0000
,
0001
0100
0000
0001
,
0000
0001
0000
1000
,
0000
0001
1000
0001
,
0001
0010
1000
0000
0001
0000
1000
0000
,
0010
0000
0000
0010
0000
0000
1001
0000
,
0100
0000
0000
0100
0000
0000
1001
0000
,
0010
0000
0000
0100
0000
0000
1001
0000
,
0110
1001
0000
0000
,
2000
0000
0100
0000
3010
0000
1000
0010
,
0100
0100
0020
0030
,
0001
0000
1000
0010
1000
0000
0001
0000
,
2000
0000
0001
3001
,
1000
0100
0010
0000
0001
0100
0010
0000
,
0000
0000
0010
0000
1000
0001
1000
0000
,
0001
0001
0010
0010
,
0100
0010
0001
0000
1001
0000
0000
0000
,
0002
0000
0100
0000
0013
0000
0001
0010
,
0100
0100
0020
0030
,
1000
0000
0001
0010
0001
0000
1000
0000
,
0002
0000
1000
1003
,
0001
0100
0010
0000
1000
0100
0010
0000
,
0000
0000
0010
0000
0001
1000
0001
0000
,
1000
1000
0010
0010
,
0100
0010
1000
0000
1001
0000
0000
0000
,
1000
0010
0100
0010
,
0001
0100
0100
0000
,
0001
0010
0100
0010
,
0200
0010
1000
0310
,
0001
1000
0000
0010
,
0100
1000
0000
0010
,
2000
0001
3001
0000
,
0002
1000
1003
0000
,
0100
0000
0010
0000
0100
0000
0010
0010
,
0000
2002
0000
0000
0000
0000
0000
3003
,
0001
0010
0100
0010
,
1000
0010
1000
0000
0001
0000
0001
0000
,
0010
0100
1000
0100
0010
0000
0001
1000
,
0100
2002
0000
0000
,
3003
0000
0000
0000
;

//---------------dance-single - ----------------
#NOTES:
     dance-single:
     :
     Hard:
     8:
     :
0000
0000
0000
0000
,
0000
0000
0000
0000
,
0000
0000
0000
0000
,
0000
0000
0000
0000
,
0000
0000
0000
0000
,
0000
0000
0000
0000
,
0000
0000
0000
0000
,
0000
0000
0000
0000
,
0000
0000
0000
0000
,
1000
0100
1000
0010
1000
0100
0010
0001
,
0100
0010
1001
0000
0000
0000
0000
0000
,
1100
0000
1100
0000
0100
1000
0100
0000
,
1000
0001
1000
0100
1000
0000
0001
0000
,
0100
0000
0010
0100
0001
0000
1000
0000
,
1000
0100
1000
0000
1001
0000
0000
0000
,
1100
0000
1100
0000
0100
1000
0100
0000
,
1000
0001
1000
0100
1000
0000
0001
0000
,
1100
0101
0011
1010
,
0100
1001
0000
0000
,
0101
0000
0101
0000
0100
0001
0100
0000
,
0001
1000
0001
0100
0001
0000
1000
0000
,
0100
0000
0010
0100
1000
0000
0001
0000
,
0001
0100
0001
0000
1001
0000
0000
0000
,
0101
0000
0101
0000
0100
0001
0100
0000
,
0001
1000
0001
0100
0001
0000
1000
0000
,
0101
1100
1010
0011
,
0100
1001
0000
0000
,
1000
0100
0001
0100
1000
0100
0001
0100
,
1000
0100
0001
0100
1000
0001
1000
0000
,
0001
0100
1000
0100
0010
0001
0010
1000
,
0100
0001
1001
0000
0000
0000
0000
0000
,
1000
1000
1000
1000
,
1000
0100
1000
0000
0001
0010
0001
0000
,
0001
0100
0001
0000
1000
0010
1000
0000
,
1000
0100
0001
0100
1000
0000
0001
0000
,
1000
0100
0010
0001
0000
0101
0000
0000
,
0001
1000
0010
0100
0000
0101
0000
0000
,
1000
0100
0010
0001
0000
1010
0000
0000
,
1000
0100
0010
0000
1001
0000
0000
0000
,
0001
0001
0001
0001
,
0001
0100
0001
0000
1000
0010
1000
0000
,
1000
0100
1000
0000
0001
0010
0001
0000
,
0001
0100
1000
0100
0001
0000
1000
0000
,
1010
0010
0000
1010
1000
0000
1001
0000
,
0101
0100
0000
0101
0001
0000
1001
0000
,
1100
0100
0000
1100
1000
0000
1001
0000
,
0110
1001
0000
0000
,
1000
0100
0010
0100
1000
0000
1000
0100
,
0010
0000
0010
0001
0100
0000
1001
0000
,
0001
0010
0100
1000
0100
0010
0001
0000
,
1000
1000
0001
0001
,
1000
0100
1000
0000
0001
0100
0001
0000
,
0000
0000
0100
0100
0001
1000
0001
0100
,
0001
0001
0100
0100
,
0010
0100
0010
0100
1010
0000
0000
0000
,
0001
0100
0010
0100
0001
0000
0001
0100
,
0010
0000
0010
1000
0100
0000
1001
0000
,
1000
0010
0100
0001
0100
0010
1000
0000
,
0001
0001
1000
1000
,
0001
0100
0001
0000
1000
0100
1000
0000
,
0000
0000
0100
0100
1000
0001
1000
0100
,
1000
1000
0100
0100
,
0010
0100
0010
0100
0011
0000
0000
0000
,
1000
0000
1000
0100
0000
0100
0010
0000
,
0001
0100
0000
0010
0100
0010
0010
0000
,
0001
0000
0001
0100
0000
0100
0020
0000
,
0100
0100
1030
0100
,
0001
0000
1000
0100
0000
0001
0100
0000
,
0010
0000
1000
0100
0001
0000
0100
0000
,
2000
0100
0100
3100
,
0002
0100
0100
0103
,
0010
0100
0000
1000
0000
1100
0000
0101
,
0000
2002
0000
0000
0000
0000
0000
3003
,
1001
0110
0011
1100
,
1000
0100
1000
0000
0001
0000
0001
0000
,
0100
0010
1000
0100
0001
0100
0010
0001
,
0100
0010
2002
0000
0000
0000
0000
0000
,
3003
0000
0000
0000
;
