#TITLE:君を守って君を愛して;
#ARTIST:nc;
#TITLETRANSLIT:Kimi wo mamotte Kimi wo aishite;
#BANNER:Kimi wo mamotte Kimi wo aishite.png;
#BACKGROUND:Kimi wo mamotte Kimi wo aishite-bg.png;
#CDTITLE:./CDTITLES/GF V7 & DM V7.png;
#MUSIC:Kimi wo mamotte Kimi wo aishite.ogg;
#SAMPLESTART:53.729;
#SAMPLELENGTH:15;
#BPMS:0=138;

//---------------dance-single - ----------------
#NOTES:
     dance-single:
     :
     Beginner:
     2:
     :
0000
0000
0000
0000
,
0000
0000
0000
0000
,
0000
0000
0000
0000
,
0000
0000
0000
0000
,
0000
0000
0000
0000
,
0010
0000
0000
0000
,
0010
0000
0000
0000
,
1000
0000
0001
0000
,
1000
0000
0000
0000
,
0010
0000
0000
0000
,
0010
0000
0000
0000
,
1000
1000
0000
0000
,
0001
0001
0001
0000
,
0010
0000
0000
0000
,
0010
0000
0000
0000
,
1000
0000
0001
0000
,
1000
0000
0000
0000
,
0010
0000
0000
0000
,
0010
0000
0000
0000
,
1000
1000
0000
0000
,
1001
0000
0000
0000
,
0001
0000
0010
0000
,
0100
0000
1000
0000
,
0001
0000
0100
0000
,
0010
0000
1000
0000
,
0001
0000
1000
0000
,
0010
0000
0100
0000
,
0001
0000
0000
0000
,
1000
0000
0001
0000
,
1000
0000
0000
0000
,
1001
0000
0000
0000
,
0001
0000
0000
0000
,
0010
0010
0010
0000
,
0001
0000
1000
0000
,
0100
0000
0000
0000
,
1000
0000
0000
0000
,
0010
0000
0010
0000
,
0010
0000
0000
0000
,
0100
0000
0000
0000
,
1000
0000
0000
0000
,
0010
0010
0010
0000
,
1000
0000
0001
0000
,
0100
0000
0000
0000
,
0001
0000
0000
0000
,
0010
0000
0010
0000
,
0010
0000
0000
0000
,
0100
0000
0000
0000
,
1001
0000
0000
0000
,
1001
0000
0000
0000
,
0100
0000
0010
0000
,
1000
0000
0001
0000
,
1001
0000
0000
0000
;

//---------------dance-single - ----------------
#NOTES:
     dance-single:
     :
     Easy:
     3:
     :
0000
0000
0000
0000
,
0000
0000
0000
0000
,
0000
0000
0000
0000
,
0000
0000
0000
0000
,
0000
0000
0000
0000
,
1000
0001
1000
0000
,
0010
0000
1000
0000
,
0001
0001
0100
0000
,
0001
0001
1000
0000
,
0001
1000
0001
0000
,
0010
0000
0001
0000
,
1000
0000
0001
0000
,
1000
0000
0000
0000
,
1000
0001
1000
0000
,
0010
0000
1000
0000
,
0001
0001
0100
0000
,
0001
0001
1000
0000
,
0001
1000
0001
0000
,
0010
0000
0001
0000
,
1000
0000
0001
0000
,
1000
0000
0000
0000
,
1001
0000
0000
0000
,
0010
0000
0100
0000
,
0110
0000
0000
0000
,
0001
0001
1000
1000
,
0001
0000
1001
0000
,
1000
0000
1001
0000
,
0020
0000
0000
0000
,
0000
0000
0030
0000
,
2000
3000
0002
0003
,
0200
0000
0000
0300
,
0001
0001
0001
0001
,
1000
0100
1000
0000
,
0001
0000
0010
0000
,
0100
0000
1000
0000
,
0010
0000
1000
1000
,
0001
0000
0100
0100
,
0020
0000
0000
0030
,
0000
0000
0000
0000
,
1000
1000
1000
1000
,
0001
0100
0001
0000
,
1000
0000
0010
0000
,
0100
0000
0001
0000
,
0010
0000
0001
0001
,
1000
0000
0100
0100
,
0020
0000
0000
0030
,
1000
0001
1000
0001
,
1001
0000
0100
0000
,
0010
0000
0110
0000
,
0001
0000
0110
0000
,
1000
0000
0110
0000
,
2002
0000
0000
0000
,
0000
0000
0000
0000
,
0000
0000
0000
3003
;

//---------------dance-single - ----------------
#NOTES:
     dance-single:
     :
     Medium:
     4:
     :
0000
0000
0000
0000
,
0000
0000
0000
0000
,
0000
0000
0000
0000
,
0000
0000
0000
0000
,
0000
0000
0000
0001
,
1001
1000
1001
0010
,
0100
0010
0010
0100
,
1100
0000
0001
0100
,
0010
0100
0001
1000
,
1001
0001
1001
0010
,
0100
0010
0010
0100
,
1000
0001
0100
0010
,
1000
0001
1000
0001
,
1001
1000
1001
0010
,
0100
0010
0010
0100
,
1100
0000
0001
0100
,
0010
0100
0001
1000
,
1001
0001
1001
0010
,
0100
0010
0010
0100
,
1000
0001
0100
0010
,
1000
0001
1000
0000
,
1010
0000
1000
0100
,
0011
0000
1000
0001
,
0101
0000
1000
0010
,
1010
0001
0100
0010
,
0110
0000
1000
0001
,
1001
0000
0100
0010
,
0110
0000
0001
0001
,
1000
0010
0100
0001
,
0010
0100
0010
0000
0100
0010
0100
0000
,
1001
0000
0000
0000
,
1000
0100
0010
0100
,
1100
0001
0100
0000
,
0001
1000
0100
0001
,
0100
1000
0001
0010
,
0001
0000
1000
1100
,
0010
0010
0100
0001
,
0100
0001
0010
0001
,
0010
0011
1000
1100
,
0001
0100
0010
0100
,
0101
1000
0100
0000
,
1000
0001
0100
1000
,
0100
0001
1000
0010
,
1000
0000
0001
0101
,
0010
0010
0100
1000
,
0100
1000
0010
1000
,
0010
1010
0001
0101
,
1001
0000
0110
0000
,
1100
0000
0011
0000
,
0101
0000
1010
0000
,
0001
0101
1000
1100
,
2002
0000
0000
0000
,
0000
0000
0000
0000
,
0000
0000
0000
3003
;

//---------------dance-single - ----------------
#NOTES:
     dance-single:
     :
     Hard:
     6:
     :
0000
0000
0000
0000
,
0000
0000
0000
0000
,
0000
0000
0000
0000
,
0000
0000
0000
0000
,
0000
0000
0000
0001
,
1100
0010
0101
0010
,
0001
1000
0010
0000
1000
0001
0100
0001
,
0101
0000
0000
0010
1000
0000
0001
0100
,
1000
0100
0001
1000
,
0101
0001
1100
0010
,
0100
0001
0010
0000
0001
1000
0100
1000
,
0010
0000
1001
0000
0001
1000
0010
0000
,
0100
0001
0010
0000
0100
0000
0001
0000
,
1100
0010
0101
0010
,
0001
1000
0010
0000
1000
0001
0100
0001
,
0101
0000
1000
0010
1000
0000
0001
0100
,
1000
0000
0100
0000
0001
0010
1000
0000
,
0101
1000
1100
0010
,
1000
0001
0100
0000
0001
1000
0100
1000
,
0010
0000
1001
0000
0001
1000
0010
0100
,
0010
1000
0001
0000
,
1010
1000
0101
1000
,
0011
0001
1000
0001
,
1100
0100
0110
0010
,
0011
0100
0010
1000
,
0101
0100
0010
1000
,
1001
1000
0001
0100
,
0110
0000
0000
0000
1000
0001
0100
0001
,
1000
0010
1000
0010
1000
0100
1000
0100
,
0010
0001
0010
0001
0100
0010
0100
0001
,
1000
0000
0000
0000
,
1001
0000
1000
0100
0010
0000
0100
0000
,
0011
0100
0011
1000
,
0001
0100
0010
0100
0010
0000
1000
0100
,
1000
0010
0100
0001
0010
0000
0100
1000
,
0002
0000
0000
0103
0010
0000
1100
0000
,
0010
0100
0010
0000
0101
0000
1000
0000
,
0100
0010
0002
0000
1003
0100
0002
0000
,
0103
1010
0110
0101
,
1001
0000
0001
0100
0010
0000
0100
0000
,
1010
0100
1010
0001
,
1000
0100
0010
0100
0010
0000
0001
0100
,
0001
0010
0100
1000
0010
0000
0100
0001
,
2000
0000
0000
3100
0010
0000
0101
0000
,
0010
0100
0010
0000
1100
0000
0001
0000
,
0100
0010
2000
0000
3001
0100
2000
0000
,
3100
0011
0110
1100
,
1001
0000
1100
0000
,
1010
0001
0010
0100
,
0101
0000
0011
0100
,
1001
0101
1100
0110
,
2002
0000
0000
0000
,
0000
0000
0000
0000
,
0000
0000
0000
3003
;
