#TITLE:Journey through the Decade;
#ARTIST:GACKT;
#BANNER:Journey through the Decade.png;
#BACKGROUND:Journey through the Decade-bg.png;
#CDTITLE:./CDTITLES/DanceDanceRevolution MUSIC FIT.png;
#MUSIC:Journey through the Decade.ogg;
#SAMPLESTART:42.35;
#SAMPLELENGTH:15;
#BPMS:0=170;

//---------------dance-single - ----------------
#NOTES:
     dance-single:
     :
     Beginner:
     2:
     :
0000
0000
0000
0000
,
0000
0000
0000
0000
,
0000
0000
0000
0000
,
0000
0000
0000
0000
,
0000
0000
0000
0000
,
0001
0000
0000
0000
,
0000
0000
0000
0000
,
0010
0000
0000
0000
,
0000
0000
0000
0000
,
0100
0000
0000
0000
,
0000
0000
0000
0000
,
1000
0000
0000
0000
,
0000
0000
0000
0000
,
1001
0000
0000
0000
,
0000
0000
0000
0000
,
0010
0000
0000
0000
,
0000
0000
0000
0000
,
0100
0000
0000
0000
,
0000
0000
0000
0000
,
1000
0000
0000
0000
,
0000
0000
0000
0000
,
0001
0000
0000
0000
,
1000
0000
0000
0000
,
0010
0000
0000
0000
,
0100
0000
0000
0000
,
0001
0000
0000
0000
,
1000
0000
0000
0000
,
0001
0000
1000
0000
,
0001
0000
0000
0000
,
0000
0000
0000
0000
,
1000
0000
0010
0000
,
1000
0000
0010
0000
,
1000
0000
0001
0000
,
0010
0000
0000
0000
,
0001
0000
0100
0000
,
0001
0000
0100
0000
,
0001
0000
0010
0000
,
0001
0000
0000
0000
,
1000
1000
1000
0000
,
0010
0000
0000
0000
,
0001
0001
0001
0000
,
0100
0000
0000
0000
,
0010
0000
1000
0000
,
0001
0000
0010
0000
,
0010
0000
0000
0000
,
0000
0000
0000
0000
,
0100
0000
0000
0000
,
1000
0000
0001
0000
,
0010
0000
0000
0000
,
0000
0000
0000
0000
,
0100
0000
0100
0000
,
0100
0000
0000
0000
,
1000
0000
0010
0000
,
1000
0000
0010
0000
,
1000
0000
0001
0000
,
0010
0000
0000
0000
,
0001
0000
0100
0000
,
0001
0000
0100
0000
,
0001
0000
0010
0000
,
0001
0000
0000
0000
,
1000
1000
1000
0000
,
0010
0000
0000
0000
,
0001
0001
0001
0000
,
0100
0000
0000
0000
,
0010
0000
1000
0000
,
0001
0000
0010
0000
,
0010
0000
0000
0000
,
0100
0000
0000
0000
,
0010
0000
0000
0000
,
1001
0000
0000
0000
;

//---------------dance-single - ----------------
#NOTES:
     dance-single:
     :
     Easy:
     3:
     :
0000
0000
0000
0000
,
0000
0000
0000
0000
,
0000
0000
0000
0000
,
0000
0000
0000
0000
,
0000
0000
0000
0000
,
1000
0000
0000
0000
,
0000
0000
0000
0000
,
0010
0000
0000
0000
,
0100
0000
0001
0000
,
0001
0000
0000
0000
,
0010
0000
0010
0000
,
0100
0000
0000
0000
,
0000
0000
0000
0000
,
1001
0000
0000
0000
,
0000
0000
0000
0000
,
0010
0000
0000
0000
,
0100
0000
0001
0000
,
0001
0000
0000
0000
,
0010
0000
0010
0000
,
0100
0000
0000
0000
,
0000
0000
0000
0000
,
1000
0100
1000
0000
,
0010
0000
0010
0000
,
0100
0000
0001
0001
,
0010
0000
0000
0000
,
0001
0100
0001
0000
,
0010
0000
0010
0000
,
0001
1000
0001
1000
,
0002
0000
0000
0000
,
0000
0000
0003
0000
,
1001
0000
1000
0100
,
1000
0000
0010
0010
,
0100
0000
0001
0000
,
1000
0100
0010
0000
,
0002
0000
0000
0003
,
2000
0000
0000
3000
,
0020
0000
0000
0030
,
0100
0010
0100
0000
,
0001
0000
0001
0001
,
0010
0000
0010
0010
,
0100
0000
0100
0100
,
1000
0010
0100
0000
,
0002
0003
0200
0300
,
0020
0030
2000
3000
,
0020
0000
0000
0000
,
0000
0000
0000
0030
,
1000
0000
1000
0000
,
0001
0000
0001
0000
,
0020
0000
0000
0000
,
0000
0000
0000
0030
,
0002
0003
2000
3000
,
2002
0000
3003
0000
,
1001
0000
1000
0100
,
1000
0000
0010
0010
,
0100
0000
0001
0000
,
1000
0100
0010
0000
,
0002
0000
0000
0003
,
2000
0000
0000
3000
,
0020
0000
0000
0030
,
0100
0010
0100
0000
,
0001
0000
0001
0001
,
0010
0000
0010
0010
,
0100
0000
0100
0100
,
1000
0010
0100
0000
,
0002
0003
0200
0300
,
0020
0030
2000
3000
,
0001
0000
0000
0000
,
0000
0000
0000
0000
,
1000
0000
0000
0000
,
0220
0000
0000
0000
,
0000
0000
0000
0000
,
0000
0000
0000
0000
,
0000
0000
0000
0330
;

//---------------dance-single - ----------------
#NOTES:
     dance-single:
     :
     Medium:
     5:
     :
0000
0000
0000
0000
,
0000
0000
0000
0000
,
0000
0000
0000
0000
,
0000
0000
0000
0000
,
0000
0000
0000
0000
,
0001
0000
0000
0000
,
0100
0000
0001
0000
,
1000
0000
0001
0000
,
0010
0100
0010
0000
,
1000
0000
0010
0000
,
1000
0001
1000
0000
,
0010
0000
1000
0000
,
0100
0000
0100
0000
,
1000
0000
0000
0000
,
0100
0000
1000
0000
,
0001
0000
1000
0000
,
0010
0100
0010
0000
,
1001
0000
0100
0000
,
0010
0000
0010
0000
,
1000
0100
0010
0001
,
0010
0100
1000
0000
,
0010
1000
0100
1000
,
0002
0000
0000
0000
0103
0000
0010
0100
,
0020
0000
0000
0000
1030
0000
0100
1000
,
0200
0000
1300
0001
,
0010
0001
0100
0001
,
2000
0000
0000
0000
3100
0000
0010
0100
,
0010
0000
0001
1000
0001
0000
0100
0020
,
0200
0000
0000
0000
,
0000
0000
0330
0000
,
1001
0000
0100
0000
0010
0000
1000
0001
,
0000
0001
1000
0000
0100
0000
0100
0000
,
1000
0010
1000
0001
,
0100
0000
0001
0010
0000
0010
0100
0000
,
2000
0010
0100
3100
,
0020
1000
0100
0130
,
0002
1000
0100
1003
,
0010
0000
0000
0000
1000
0100
0010
0000
,
0002
0000
0103
0010
,
2000
0000
3001
0100
,
0001
0010
1000
0010
,
0001
0100
1000
0100
,
0010
0000
0100
0100
,
0001
1000
0001
1000
,
0002
0000
0000
0000
0000
0000
0000
0100
,
0000
0100
0000
0100
0000
0100
0003
0000
,
0020
0000
0000
0000
0000
0000
0000
1000
,
0000
1000
0000
1000
0000
1000
0030
0000
,
2000
0000
0000
0000
0000
0000
0000
0100
,
0000
0100
0000
0100
0000
0100
3000
0000
,
0002
0000
2003
0000
,
3010
0100
0010
0100
,
1001
0000
0100
0000
0010
0000
0001
1000
,
0000
1000
0001
0000
0100
0000
0100
0000
,
0001
0010
0001
1000
,
0100
0000
1000
0010
0000
0010
0100
0000
,
0002
0010
0100
0103
,
0020
0001
0100
0130
,
2000
0001
0100
3001
,
0010
0000
0000
0000
0001
0100
0010
0000
,
2000
0000
3100
0010
,
0002
0000
1003
0100
,
1000
0010
0001
0010
,
1000
0100
0001
0100
,
0010
0000
0100
0100
,
1000
0001
1000
0001
,
0020
0000
0000
0000
,
0000
0000
0000
0030
,
0001
0000
0000
1000
0000
0000
0002
2000
,
0000
0000
0000
0000
,
0000
0000
0000
0000
,
0000
0000
0000
0000
,
0000
0000
0000
3003
;

//---------------dance-single - ----------------
#NOTES:
     dance-single:
     :
     Hard:
     8:
     :
0000
0000
0000
0000
,
0000
0000
0000
0000
,
0000
0000
0000
0000
,
0000
0000
0000
0000
,
0000
0000
0000
0000
,
0100
0000
0000
0000
,
1000
0000
0000
0001
0000
0100
0000
0000
,
0001
0000
0000
1000
0000
0000
0100
0000
,
0010
0100
0010
0001
,
1100
0000
0000
0000
,
1000
0010
0100
0001
,
0010
0000
0100
0000
,
1000
0000
0000
0010
0000
0100
0000
0000
,
0010
0000
0000
0000
,
1000
0000
0000
0001
0000
0100
0000
0000
,
0001
0000
0000
1000
0000
0000
0100
0000
,
0010
0100
0010
0001
,
1001
0000
0100
0000
,
0010
0000
0000
1000
0000
0001
0000
0000
,
0010
0000
1000
0000
0001
0000
0100
1000
,
0001
0010
0100
1000
,
0110
0000
0001
0100
0001
0000
0100
0000
,
0100
0000
1000
0100
1000
0000
0010
0100
,
0001
0000
1000
0000
1000
0000
0100
0001
,
0100
0010
1000
0000
0001
0010
0100
0000
,
0110
0000
1000
0100
1000
0000
0100
0000
,
0100
0000
0001
0100
0001
0000
0010
0000
,
1100
0000
0001
0100
0101
0000
2000
0002
,
0000
0000
0000
0000
,
0000
0000
0000
3003
,
1010
0000
0100
0001
0010
1000
0010
0001
,
0100
0000
0010
0100
0010
1000
0010
0100
,
0002
0100
0103
0000
0020
1000
1030
0000
,
0100
0100
0010
0002
0000
0103
0010
0000
,
0100
0001
0100
0010
0100
0001
0100
0000
,
0001
0010
0001
0100
0001
1000
0001
1000
,
0100
0010
0100
1000
0100
0010
0001
0100
,
0010
0000
1000
0010
0100
0001
0010
0100
,
1100
0000
0010
0001
0000
0100
0010
0001
,
0010
0000
1000
0100
1000
0000
0010
0100
,
0010
0000
1000
0010
0001
0000
0100
0001
,
0000
0001
1000
0000
0010
0100
1000
0000
,
0010
1000
0100
0001
,
0100
0000
0010
1000
0000
0001
1000
0000
,
0020
0000
0000
0000
0000
0000
0000
1000
,
0000
1000
0000
0100
0000
0130
0000
1000
,
0001
0100
0000
0001
0020
0000
0000
0001
,
0000
0001
0000
0001
0000
0100
0030
0000
,
0020
0000
0000
0000
0000
0000
0000
0001
,
0000
0001
0000
0100
0000
0130
0000
0001
,
1000
0000
0100
0100
,
1000
0010
1000
0001
1000
0100
1000
0000
,
0011
0000
0100
1000
0010
0001
0010
1000
,
0100
0000
0010
0100
0010
0001
0010
0100
,
2000
0100
3100
0000
0020
0001
0031
0000
,
0100
0100
0010
2000
0000
3100
0010
0000
,
0100
1000
0100
0010
0100
1000
0100
0000
,
1000
0010
1000
0100
1000
0001
1000
0000
,
0100
0010
0100
0001
0100
0010
1000
0100
,
0010
0000
0001
0010
0100
1000
0010
0100
,
0101
0000
0010
1000
0000
0100
0010
1000
,
0010
0000
0001
0100
0001
0000
0010
0100
,
0010
0000
0001
0010
1000
0000
0100
1000
,
0000
1000
0001
0000
0010
0100
0001
0000
,
0010
0001
0100
1000
,
0100
0000
0010
0001
0000
1000
0001
0000
,
0100
0000
0000
0100
0000
0000
0000
0000
,
0010
0000
0000
0010
0000
1000
0000
1000
,
0001
0000
0000
0001
0000
0000
0020
0200
,
0000
0000
0000
0000
,
0000
0000
0000
0000
,
0000
0000
0000
0000
,
0000
0000
0000
0330
;
