#TITLE:HOT LIMIT;
#ARTIST:♪♪♪♪♪;
#BANNER:HOT LIMIT.png;
#BACKGROUND:HOT LIMIT-bg.png;
#CDTITLE:./CDTITLES/jubeat ripples.png;
#MUSIC:HOT LIMIT.ogg;
#SAMPLESTART:15.412;
#SAMPLELENGTH:15;
#DISPLAYBPM:140;
#BPMS:0=139.5;

//---------------dance-single - ----------------
#NOTES:
     dance-single:
     :
     Beginner:
     2:
     :
0000
0000
0000
0000
,
0000
0000
0000
0000
,
0000
0000
0000
0000
,
0000
0000
0000
0000
,
0000
0000
0000
0000
,
0001
0000
0001
0000
,
0000
0000
0000
0000
,
1000
0000
1000
0000
,
0000
0000
0000
0000
,
0001
0000
0000
0000
,
1000
0000
0010
0000
,
0001
0000
0000
0000
,
1000
1000
1000
0000
,
0001
0000
0000
0000
,
1000
0000
0010
0000
,
0010
0000
0000
0000
,
1001
0000
0000
0000
,
0100
0000
0000
0000
,
0001
0000
0000
0000
,
0100
0000
0000
0000
,
1000
0000
0000
0000
,
0010
0000
0001
0000
,
0010
0000
0000
0000
,
0100
0000
1000
0000
,
0100
0000
0000
0000
,
0010
0000
0001
0000
,
0010
0000
0000
0000
,
0100
0000
1000
0000
,
0100
0000
0000
0000
,
0001
0000
1000
0000
,
0001
0000
1000
0000
,
0010
0000
0100
0000
,
0010
0000
0000
0000
,
0001
0000
1000
0000
,
0001
0000
1000
0000
,
0001
0000
0000
0000
,
1000
0000
0000
0000
,
0100
0000
0000
0000
,
0001
0000
0001
0000
,
0010
0000
0001
0000
,
1000
0000
0010
0000
,
1000
0000
0000
0000
,
1000
0000
1000
0000
,
0010
0000
1000
0000
,
0001
0001
0001
0000
,
1000
1000
1000
0000
,
0001
0000
0000
0000
,
1000
0000
0000
0000
,
0001
0000
0000
0000
,
1001
0000
0000
0000
,
1000
0000
0100
0000
,
0010
0000
0001
0000
,
1000
0000
0010
0000
,
0100
0100
0100
0000
,
0010
0010
0010
0000
,
1001
0000
0000
0000
;

//---------------dance-single - ----------------
#NOTES:
     dance-single:
     :
     Easy:
     4:
     :
0000
0000
0000
0000
,
0000
0000
0000
0000
,
0000
0000
0000
0000
,
0000
0000
0000
0000
,
0000
0000
0000
0000
,
1000
1000
1000
1000
,
0000
0000
0000
0000
,
0001
0001
0001
0001
,
0000
0000
0000
0000
,
1000
0000
0001
0000
,
0010
0010
0001
0000
,
1000
0000
0010
0000
,
0100
0010
0100
0000
,
0001
0000
1000
0000
,
0010
0010
1000
0000
,
0100
0000
0100
0000
,
0010
0010
0010
0000
,
0002
0003
0200
0300
,
0002
0003
2000
3000
,
0002
0003
0200
0300
,
2000
3000
0002
0003
,
1000
0000
0100
0000
,
0010
0000
0001
0000
,
0100
0000
0010
0000
,
1000
0001
1000
0000
,
1000
1000
0100
0000
,
0010
0010
0001
0000
,
0100
0100
0010
0000
,
1000
0001
1000
0000
,
0010
0000
1000
1000
,
0001
0001
0001
0000
,
1000
0000
0001
0000
,
0010
0000
0010
0000
,
0010
0000
0001
0001
,
1000
1000
1000
0000
,
0020
0000
0000
0030
,
2000
0000
0000
3000
,
0002
0000
0000
0003
,
1000
0000
0001
0000
,
0010
0010
0001
0000
,
1000
0000
0010
0000
,
0100
0010
0100
0000
,
0001
0000
1000
0000
,
0010
0010
1000
0000
,
0100
0000
0100
0000
,
0010
0010
0010
0000
,
0002
0003
0020
0030
,
0200
0300
2000
3000
,
0002
0003
0200
0300
,
0020
0000
0030
0000
,
1000
1000
0001
0001
,
1000
0001
1000
0000
,
0001
0001
1000
1000
,
0010
0000
0010
0110
,
0100
0000
0110
1000
,
0001
0000
0000
0000
;

//---------------dance-single - ----------------
#NOTES:
     dance-single:
     :
     Medium:
     5:
     :
0000
0000
0000
0000
,
0000
0000
0000
0000
,
0000
0000
0000
0000
,
0000
0000
0000
0000
,
0000
0000
0000
0000
,
0001
0001
0100
0100
,
0010
0000
0100
0000
,
1000
1000
0100
0100
,
0010
0000
0000
0000
,
0001
0000
0101
0000
0010
0000
1000
0100
,
1000
0100
0100
0000
,
0010
0001
0010
0000
0001
0010
0001
0000
,
0100
0100
0010
0000
,
1000
0000
1100
0000
0010
0000
0001
0100
,
0001
0100
0100
0000
,
0001
1000
0001
0000
1000
0001
1000
0000
,
0020
2030
0002
3003
,
0100
0020
1030
0200
,
0310
0002
1003
0001
,
0100
0020
1030
0200
,
0310
0002
1003
0000
,
0001
0001
0010
0001
,
1000
1000
0001
0100
,
0001
0001
1000
0001
,
0100
0000
0010
0100
0010
0000
0000
0000
,
1000
0100
0010
1000
,
0001
0010
1000
0100
,
1000
0010
0001
1000
,
0110
0000
0010
0100
0010
0000
0000
0000
,
2000
3100
0002
0013
,
2000
3010
0100
0000
,
0010
0000
1000
0000
0001
1000
0001
0000
,
1001
0100
1001
0000
,
0002
0103
2000
3010
,
0002
0013
0100
0000
,
0110
0000
0001
0100
,
0101
0000
1000
0100
,
1100
0001
1001
0000
,
0001
0000
0101
0000
0010
0000
1000
0100
,
1000
0100
0100
0000
,
0010
0001
0010
0000
0001
0010
0001
0000
,
0100
0100
0010
0000
,
1000
0000
1100
0000
0010
0000
0001
0100
,
0001
0100
0100
0000
,
0001
1000
0001
0000
1000
0001
1000
0000
,
0020
2030
0002
3003
,
0200
0010
0000
0301
,
2000
0100
0010
3010
,
0200
0010
0000
1300
,
0002
1000
2000
3003
,
0100
0000
0010
0000
0001
0010
0100
0000
,
1000
0000
0010
0000
0100
0001
0100
0000
,
0100
0000
0010
0000
1000
0010
0100
0000
,
0001
1000
0001
0000
1000
0010
0001
0000
,
0010
0100
0010
0000
1000
0100
0001
0000
,
0100
0000
0000
0000
;

//---------------dance-single - ----------------
#NOTES:
     dance-single:
     :
     Hard:
     7:
     :
0000
0000
0000
0000
,
0000
0000
0000
0000
,
0000
0000
0000
0000
,
0000
0000
0000
0000
,
0000
0000
0000
0000
,
0001
0010
0100
1000
,
0010
0000
0100
0000
,
0001
1000
0100
1000
,
0001
0000
0000
0000
,
1100
0000
0000
0000
1000
0000
0010
0000
0100
0000
0000
0001
1000
0000
0100
0000
,
1000
0000
0010
0100
0001
0010
0100
0000
,
1000
0100
0001
0000
1000
0010
0001
0000
,
1000
0010
0100
1000
0100
0000
0000
0000
,
0101
0000
0000
0000
0001
0000
0010
0000
0100
0000
0000
1000
0010
0000
0100
0000
,
0001
0000
0010
0001
1000
0010
0100
0000
,
0001
0010
0100
0000
0010
0100
1000
0000
,
0010
1000
1100
0000
0022
0000
0033
0000
,
1000
0100
0200
0000
1300
0010
0020
0000
,
0130
0001
0002
0000
0013
0100
1000
1000
,
0001
0100
0200
0000
0301
0010
0020
0000
,
0130
1000
2000
0000
3010
0100
0110
0000
,
1000
0000
0010
0000
1000
0000
0010
0100
,
0010
0000
1000
0100
1000
0000
0010
0000
,
1000
0000
0001
0100
0001
0000
1000
0010
,
1000
0000
0100
0010
0001
0100
1000
0000
,
0101
0000
0010
0000
0001
0000
0010
0100
,
0010
0000
0001
0100
0001
0000
0110
0000
,
1001
0000
1000
0100
1000
0000
0001
0010
,
0001
0000
0000
0100
0000
0000
0010
0000
1000
0000
0100
0000
1000
0000
0000
0000
,
0020
0000
1030
0100
0020
0000
0130
1000
,
0020
0000
1030
0001
0100
0100
0100
0000
,
0001
0001
0100
0100
,
1001
0010
0100
0000
,
0020
0000
1030
0100
0020
0000
0130
0001
,
0200
0000
1300
0001
0100
0100
0110
0000
,
0020
0000
0000
0000
1030
0100
0010
0000
,
0001
0000
0000
0100
0000
0000
0010
0000
1000
0000
0000
0000
1100
0000
0000
0000
,
0001
0000
0000
0010
0000
0000
0100
0000
0010
0000
0000
0000
1001
0000
0000
0000
,
0101
0000
0000
0000
0001
0000
0010
0000
0100
0000
0000
1000
0001
0000
0100
0000
,
0001
0000
0010
0100
1000
0010
0100
0000
,
0001
0100
1000
0000
0001
0010
1000
0000
,
0001
0010
0100
0001
0100
0000
0000
0000
,
1100
0000
0000
0000
1000
0000
0010
0000
0100
0000
0000
0001
0010
0000
0100
0000
,
1000
0000
0010
1000
0001
0010
0100
0000
,
1000
0010
0100
0000
0010
0100
0001
0000
,
0010
0001
0101
0000
2020
0000
3030
0000
,
0100
0000
0000
0001
1000
0000
0010
0000
0100
0000
0000
0001
1000
0000
0010
0000
,
1000
0000
0000
0100
1000
0000
0100
0000
0010
0000
0010
0000
0010
0000
0000
0000
,
0100
0000
0000
1000
0001
0000
0010
0000
0100
0000
0000
1000
0001
0000
0100
0000
,
0010
0000
0000
1000
0001
0000
0100
0000
0020
0000
0000
0000
0030
0000
0000
0000
,
0100
0001
1000
0010
1000
0100
0020
0000
,
0031
0100
0001
0100
0020
0000
1030
0000
,
0100
1000
0001
0010
0001
1000
0010
0000
,
1000
0000
0100
0000
0010
0000
0001
0000
1000
0010
0000
0100
0000
0000
0001
0000
,
0100
0000
0010
0000
1000
0000
0001
0000
0010
0100
0000
1000
0000
0000
0001
0000
,
0100
0000
0000
0000
;
