#TITLE:Climax Jump pop'n form;
#ARTIST:鳴瀬シュウヘイ;
#ARTISTTRANSLIT:Naruse Shuhei;
#BANNER:Climax Jump pop'n form.png;
#BACKGROUND:Climax Jump pop'n form-bg.png;
#CDTITLE:./CDTITLES/popn' music 16 PARTY♪.png;
#MUSIC:Climax Jump pop'n form.ogg;
#SAMPLESTART:69.034;
#SAMPLELENGTH:15;
#BPMS:0=170;

//---------------dance-single - ----------------
#NOTES:
     dance-single:
     :
     Beginner:
     2:
     :
0000
0000
0000
0000
,
0000
0000
0000
0000
,
0000
0000
0000
0000
,
0000
0000
0000
0000
,
0000
0000
0000
0000
,
1001
0000
0000
0000
,
0000
0000
0000
0000
,
0100
0000
0000
0000
,
0000
0000
0000
0000
,
0010
0000
0000
0000
,
0000
0000
0000
0000
,
1000
0000
0001
0000
,
1000
0000
0000
0000
,
0001
0000
0001
0000
,
1000
0000
1000
0000
,
0001
0000
0000
0000
,
1000
0000
0001
0000
,
1001
0000
0000
0000
,
0010
0000
0000
0000
,
1001
0000
0000
0000
,
0010
0000
0000
0000
,
1000
0000
0000
0000
,
1000
0000
0000
0000
,
1000
0000
0000
0000
,
0010
0000
0000
0000
,
0001
0000
0000
0000
,
0001
0000
0000
0000
,
0001
0000
0000
0000
,
0100
0000
0000
0000
,
1000
1000
0000
0000
,
1000
1000
0000
0000
,
0001
0001
0000
0000
,
0001
0001
0000
0000
,
1000
0000
0001
0000
,
1000
0000
0001
0000
,
1001
0000
0000
0000
,
1001
0000
0000
0000
,
0000
0000
0000
0000
,
0000
0000
0000
0000
,
0100
0000
0100
0000
,
0100
0000
0000
0000
,
0001
0000
0010
0000
,
0001
0000
0000
0000
,
1000
0000
0010
0000
,
1000
0000
0000
0000
,
0010
0000
0010
0000
,
1000
0000
1000
0000
,
0001
0000
0001
0000
,
0100
0000
0000
0000
,
0010
0000
0000
0000
,
1000
0000
0001
0000
,
0100
0000
0100
0000
,
0100
0000
0000
0000
,
0001
0000
0010
0000
,
0001
0000
0000
0000
,
1000
0000
0010
0000
,
1000
0000
0000
0000
,
0010
0000
0010
0000
,
0000
0000
0000
0000
,
0100
0000
0100
0000
,
0000
0000
0000
0000
,
0000
0000
0000
0000
,
1001
0000
0000
0000
,
0010
0000
0000
0000
,
1001
0000
0000
0000
,
0010
0000
0000
0000
,
0001
0000
0001
0000
,
1000
0000
1000
0000
,
1001
0000
0000
0000
;

//---------------dance-single - ----------------
#NOTES:
     dance-single:
     :
     Easy:
     4:
     :
0000
0000
0000
0000
,
0000
0000
0000
0000
,
0000
0000
0000
0000
,
0000
0000
0000
0000
,
0000
0000
0000
0000
,
2002
0000
0000
0000
,
0000
0000
0000
0000
0000
3003
0000
0000
,
0200
0000
0000
0000
,
0000
0000
0000
0000
0000
0300
0000
0000
,
0020
0000
0000
0000
,
0000
0000
0000
0000
0000
0030
0000
0000
,
1001
0000
0010
0000
,
1001
0000
0100
0000
,
0001
0000
1000
0000
,
0001
0000
1000
0000
,
0010
0000
0000
0000
,
1000
0000
0001
0000
,
1001
0000
0000
0000
,
0100
0010
0100
0000
,
1001
0000
0000
0000
,
0100
0010
0100
0000
,
0001
0000
0001
0000
,
1000
0000
1000
0000
,
0100
0000
0100
0000
,
0000
0000
0000
0000
,
1000
0000
1000
0000
,
0001
0000
0001
0000
,
0010
0000
0010
0000
,
0110
0000
0000
0000
,
1000
0001
1000
0000
,
0001
0001
0001
0000
,
1000
0001
1000
0000
,
0001
0001
0001
0000
,
0100
0001
0100
0000
,
0010
1000
0010
0000
,
2000
3000
0200
0300
,
0020
0000
0000
0030
,
0110
0000
0000
0000
,
0000
0000
0000
0000
,
0001
0010
0001
0010
,
0001
0000
0000
0000
,
1000
1000
0001
0000
,
1000
1000
0100
0000
,
1001
0000
0110
0000
,
1001
0000
0110
0000
,
0001
0000
1000
0000
,
0001
0000
1000
0000
,
0010
0000
0000
0000
,
0100
0100
0100
0000
,
0010
0010
0100
0000
,
0001
0000
0100
0000
,
1000
0010
1000
0010
,
1000
0000
0000
0000
,
0001
0001
1000
0000
,
0001
0001
0100
0000
,
1001
0000
0110
0000
,
1001
0000
0110
0000
,
1000
0000
0100
0100
,
0002
0003
0200
0300
,
1000
0000
0100
0100
,
0002
0003
0200
0300
,
0000
0000
0000
0000
,
1001
0000
0000
0000
,
0100
0010
0100
0000
,
1001
0000
0000
0000
,
0100
0010
0100
0000
,
0001
0000
0010
0000
,
1000
0000
0000
0000
0100
0000
0000
2002
,
0000
0000
0000
0000
,
0000
0000
3003
0000
;

//---------------dance-single - ----------------
#NOTES:
     dance-single:
     :
     Medium:
     6:
     :
0000
0000
0000
0000
,
0000
0000
0000
0000
,
0000
0000
0000
0000
,
0000
0000
0000
0000
,
0000
0000
0000
0000
,
2001
0000
0000
0000
,
0000
0000
0000
0000
,
3020
0000
0000
0000
,
0230
0000
0000
0000
,
0302
0000
0000
0000
,
0000
0000
0000
0003
,
1010
0000
1001
0000
,
0011
0000
0110
0000
,
1000
0010
0100
0010
,
0010
1000
0100
0010
,
0001
1001
1000
1001
,
0200
0300
0020
0030
,
0011
0001
0100
0100
,
0010
1000
0010
0010
,
1010
1000
0100
0100
,
0010
0001
0010
0010
,
0001
1000
0001
0001
,
0100
0000
0010
0100
,
0001
1000
0001
1000
,
0001
0100
0100
0010
,
1000
0001
1000
1000
,
0100
0000
0010
0010
,
0001
0001
0100
0100
,
0010
0100
2002
3003
,
0001
0010
0001
0010
,
0100
0010
0100
0000
,
1000
0010
1000
0010
,
0100
0010
0100
0000
,
0001
1000
0100
0001
,
0010
1000
0001
0100
,
0202
0303
2200
3300
,
0220
0000
0000
0330
,
1001
0000
0000
0000
,
0000
0000
0000
0000
,
2000
3010
0200
0301
,
0010
0000
0100
0000
1000
0100
0010
0000
,
0002
0000
0103
0010
,
2000
3100
0002
0103
,
0010
1001
0010
1001
,
0100
0010
0110
0000
,
1000
0000
0010
0000
0100
0000
0010
0100
,
0010
1000
0100
0001
,
1000
1100
1000
1100
,
0001
2000
0020
3030
,
0100
0001
0010
0001
,
0100
0010
0100
0000
0010
0000
0010
0000
,
0002
0013
0200
1300
,
0010
0000
0100
0000
0001
0100
0010
0000
,
2000
0000
3100
0010
,
0002
0103
2000
3100
,
0010
1001
0010
1001
,
0100
0010
0110
0000
,
0001
0000
0100
0010
0000
0000
0100
0000
,
0010
0010
1000
1000
,
1000
0000
0100
0010
0000
0000
0100
0000
,
0010
0010
0001
0001
,
0110
0000
0000
0000
,
0011
0001
0100
0100
,
0010
1000
0010
0010
,
1010
1000
0100
0100
,
0010
0001
0010
0010
,
0000
0001
0000
1000
1000
0000
0010
0010
,
0000
0100
0100
0000
0001
0001
0000
2002
,
0000
0000
0000
0000
,
0000
0000
3003
0000
;

//---------------dance-single - ----------------
#NOTES:
     dance-single:
     :
     Hard:
     8:
     :
0000
0000
0000
0000
,
0000
0000
0000
0000
,
0000
0000
0000
0000
,
0000
0000
0000
0000
,
0000
0000
0000
0000
,
2002
0000
0000
3000
,
0200
0000
0000
0003
,
0020
0000
0000
0300
,
0000
0000
0000
0130
,
0002
0000
0000
0000
,
2000
0000
0000
3003
,
0101
0000
1100
0000
,
0011
0010
1100
0000
,
0001
0100
0001
0000
0001
0010
0001
1000
,
0010
0100
0010
0000
1000
0100
1000
0010
,
0100
1001
0100
1001
,
2020
3030
0202
0303
,
1001
0000
0100
0010
0001
0010
0100
0000
,
1000
0010
0100
0001
0000
0001
0010
0000
,
1001
0000
0100
0010
0100
0010
0100
0000
,
0001
0010
0100
1000
0001
1000
0010
0000
,
0100
0100
0100
0100
,
0001
0000
0001
0000
0001
0000
0001
1000
,
0001
0001
0001
0010
,
0100
0010
0001
0100
,
0010
0010
0010
0010
,
1000
0000
1000
0000
1000
0000
1000
0010
,
0100
0000
0100
0010
1000
0000
0100
0010
,
0001
0100
0220
0330
,
1000
0100
0010
0001
0010
0000
0001
0100
,
0001
0000
0100
0010
0100
0000
0001
0001
,
0001
0100
0010
1000
0001
0000
1000
0100
,
1000
0000
0100
0010
0100
0000
1000
0010
,
0001
0000
0100
0010
1000
0100
0010
0001
,
1000
0001
0100
0010
1000
0000
0001
0000
,
1200
0310
0201
0310
,
2002
0000
0000
3003
,
0110
0000
0000
0000
,
0000
0000
0000
0000
,
0100
0000
0001
0010
0001
0100
0010
1000
,
0010
0100
0001
1000
0000
0010
0100
0001
,
1000
0000
0010
0100
0010
0000
1000
0100
,
1000
0000
0001
0010
0001
0000
0100
0010
,
1000
1100
0100
1100
,
0010
0101
0010
1100
,
0001
0100
0001
0100
0001
0010
0001
1000
,
0010
0100
0010
0000
1000
0100
1000
0001
,
0100
1001
0010
1001
,
0010
0000
1000
0001
0000
0010
0110
0000
,
0001
0000
0010
0100
0010
0001
0100
0000
,
0010
0000
1000
0001
1000
0001
0010
0010
,
0100
0000
1000
0010
1000
0100
0010
0001
,
0010
0100
1000
0001
0000
0010
0100
1000
,
0001
0000
0010
0100
0010
0000
0001
0100
,
0001
0000
1000
0010
1000
0000
0100
0010
,
0001
0101
0100
0101
,
0010
1100
0010
0101
,
1000
0100
1000
1000
0000
0010
0100
0001
,
0010
0010
0100
0010
0000
0001
0010
0100
,
1000
0010
1000
1000
0000
0100
0010
0001
,
0100
0100
0010
0100
0000
0001
0010
0100
,
0010
0000
0000
0000
,
1001
0000
0100
0010
0001
0010
0100
0000
,
1000
0010
0100
0001
0000
0001
0010
0000
,
1001
0000
0100
0010
0100
0010
0100
0000
,
0001
0010
0100
1000
0001
1000
0001
0000
,
0000
0010
1000
0001
0100
0100
1000
0001
,
0010
0010
0001
1000
0100
0010
0000
2002
,
0000
0000
0000
0000
,
0000
0000
3003
0000
;
