#TITLE:CAT'S EYE;
#ARTIST:seiya-murai feat. Lala Moore;
#BANNER:CAT'S EYE.png;
#BACKGROUND:CAT'S EYE-bg.png;
#CDTITLE:./CDTITLES/pop'n music 9.png;
#MUSIC:CAT'S EYE.ogg;
#SAMPLESTART:49.909;
#SAMPLELENGTH:15;
#BPMS:0=144;

//---------------dance-single - ----------------
#NOTES:
     dance-single:
     :
     Beginner:
     1:
     :
0000
0000
0000
0000
,
0000
0000
0000
0000
,
0000
0000
0000
0000
,
0000
0000
0000
0000
,
0000
0000
0000
0000
,
0000
0000
0000
0000
,
0000
0000
0000
0000
,
0000
0000
0000
0000
,
0001
0000
0000
0000
,
1000
0000
0000
0000
,
0001
0000
0000
0000
,
1000
0000
0000
0000
,
0010
0000
0000
0000
,
1000
0000
0001
0000
,
0100
0000
0000
0000
,
0010
0000
0010
0000
,
0010
0000
0000
0000
,
1000
0000
0001
0000
,
0100
0000
0000
0000
,
0001
0000
1000
0000
,
1001
0000
0000
0000
,
0001
0000
0001
0000
,
0001
0000
0000
0000
,
1000
0000
1000
0000
,
1000
0000
0000
0000
,
0001
0000
0001
0000
,
0001
0000
0000
0000
,
0010
0000
0100
0000
,
0010
0000
0000
0000
,
1001
0000
0000
0000
,
0000
0000
0001
0001
,
0000
0000
1000
1000
,
0000
0000
0010
0010
,
0010
0000
0000
0000
,
0000
0000
0001
0001
,
0000
0000
1000
1000
,
0000
0000
0010
0010
,
0010
0000
0000
0000
,
0100
0000
0000
0000
,
1001
0000
0000
0000
,
0001
0000
0000
0000
,
1001
0000
0000
0000
,
0000
0000
0001
0001
,
0000
0000
1000
1000
,
0000
0000
0010
0010
,
0010
0000
0000
0000
,
0000
0000
0001
0001
,
0000
0000
1000
1000
,
0000
0000
0010
0010
,
0010
0000
0000
0000
,
0100
0000
0000
0000
,
1001
0000
0000
0000
,
0001
0000
0000
0000
,
1000
0000
0000
0000
,
1001
0000
0000
0000
;

//---------------dance-single - ----------------
#NOTES:
     dance-single:
     :
     Easy:
     4:
     :
0000
0000
0000
0000
,
0000
0000
0000
0000
,
0000
0000
0000
0000
,
0000
0000
0000
0000
,
0000
0000
0000
0000
,
0000
0000
0000
0000
,
0000
0000
0000
0000
,
0000
0000
0000
0000
,
1000
0000
0010
0000
,
0100
0000
0001
0000
,
1000
0000
0010
0000
,
0100
0000
0000
0000
,
0001
0000
0001
0000
,
1000
0100
1000
0000
,
0010
0000
0010
0000
,
0100
0100
0001
0000
,
1000
0000
1000
0000
,
0001
0100
0001
0000
,
0010
0000
0010
0000
,
0100
0010
0100
0000
,
1000
0001
0000
0000
,
1000
0010
0010
0000
,
0100
0100
0010
0000
,
0100
0000
0001
0000
,
0010
0000
0001
0000
,
0001
0010
0010
0000
,
0100
0100
0010
0000
,
1000
0001
1000
0001
,
0010
0010
0010
0000
,
0200
0000
0300
0000
,
1000
0000
0010
0010
,
1000
0000
0010
0010
,
0100
0000
0001
0001
,
1000
0100
0010
0000
,
0001
0000
0010
0010
,
0001
0000
0010
0010
,
0100
0000
1000
1000
,
0001
0000
0000
0000
,
2002
0000
0000
0000
,
3003
0000
0000
0000
,
0001
0000
0010
0000
,
0200
0000
0300
0000
,
1000
0000
0010
0010
,
1000
0000
0010
0010
,
0100
0000
0001
0001
,
1000
0100
0010
0000
,
0001
0000
0010
0010
,
0001
0000
0010
0010
,
0100
0000
1000
1000
,
0001
0000
0000
0000
,
2002
0000
0000
0000
,
3003
0000
0000
0000
,
1000
0000
0010
0000
,
0100
0000
0001
0000
,
2002
0000
0000
3003
;

//---------------dance-single - ----------------
#NOTES:
     dance-single:
     :
     Medium:
     5:
     :
0000
0000
0000
0000
,
0000
0000
0000
0000
,
0000
0000
0000
0000
,
0000
0000
0000
0000
,
0000
0000
0000
0000
,
0000
0000
0000
0000
,
0000
0000
0000
0000
,
0000
0000
0000
0000
,
0001
0000
0100
0010
,
0010
1000
1000
0010
,
1000
0000
0100
0010
,
0010
0001
0001
0000
,
0000
1000
0100
0001
,
0100
0010
1000
0000
,
0001
0010
1000
0001
,
0100
0000
0010
0100
0010
0000
0000
0000
,
1000
0001
0100
1000
,
0100
0010
0001
0100
,
1000
0010
0001
1000
,
0010
0100
0010
0000
,
1001
1001
0000
0000
,
0100
0010
0100
0000
0001
0000
0010
0000
,
0100
1000
0100
0000
0010
0000
0001
0000
,
0100
0001
0100
0000
0001
0000
0100
0000
,
0010
1000
0010
0000
1000
0000
1000
0000
,
0100
0010
0100
0000
0001
0000
1000
0000
,
0100
0001
0100
0000
0010
0000
0010
0000
,
0000
1000
0000
0100
0000
0001
0000
0100
,
0010
0010
0010
0010
,
1000
0000
0000
1000
0000
0000
0001
0000
1000
0000
0000
0000
0000
0000
0002
0000
,
0000
0000
0103
0000
0010
0000
1000
0002
,
0000
0000
0103
0000
0010
0000
1000
0200
,
0000
0310
0001
0100
,
0001
0000
1000
0000
0100
0000
0000
2000
,
0000
0000
3100
0000
0010
0000
0001
2000
,
0000
0000
3100
0000
0010
0000
0001
0200
,
0000
0310
1000
0010
,
0100
0000
0001
0000
1000
0001
1000
0000
,
0020
0000
0000
0000
,
0130
0000
0000
0000
,
0001
0000
0100
0010
,
1000
0000
0000
1000
0000
0000
0001
0000
1000
0000
0000
0000
0000
0000
0002
0000
,
0000
0000
0103
0000
0010
0000
1000
0002
,
0000
0000
0103
0000
0010
0000
1000
0200
,
0000
0310
0001
0100
,
0001
0000
1000
0000
0100
0000
0000
2000
,
0000
0000
3100
0000
0010
0000
0001
2000
,
0000
0000
3100
0000
0010
0000
0001
0200
,
0000
0310
1000
0010
,
0100
0000
0001
0000
1000
0001
1000
0000
,
0020
0000
0000
0000
,
0130
0000
0000
0000
,
1000
0000
0100
0010
,
0010
1000
1000
0000
,
2002
0000
0000
3003
;

//---------------dance-single - ----------------
#NOTES:
     dance-single:
     :
     Hard:
     7:
     :
0000
0000
0000
0000
,
0000
0000
0000
0000
,
0000
0000
0000
0000
,
0000
0000
0000
0000
,
0000
0000
0000
0000
,
0000
0000
0000
0000
,
0000
0000
0000
0000
,
0000
0000
0000
0000
,
0001
0000
0100
0010
,
1000
0100
1000
0001
,
0000
0000
0100
0010
,
0001
0100
0001
0000
,
0000
0000
1000
0000
0010
0100
0000
0001
,
1000
0100
0100
0000
,
0010
0000
0001
0000
0100
0000
1000
0100
,
0001
0000
0010
0100
0000
1000
0001
0100
,
0010
0000
0001
0000
0010
0100
0000
1000
,
0001
0100
0100
0001
,
0010
0000
1000
0000
0100
0000
0001
0100
,
1000
0100
0010
0000
,
0110
1001
0000
0000
,
0100
0001
1000
0100
1000
0010
0100
0001
,
1000
0100
0010
0001
0010
0100
1000
0000
,
0010
0100
0001
0100
0001
0010
0001
1000
,
0100
0010
0100
1000
0001
0100
0001
0000
,
0010
1000
0001
0100
0001
0010
0100
1000
,
0001
0100
0010
1000
0001
0100
0001
0000
,
1000
0100
0001
0100
0010
0100
1000
0001
,
0100
0010
0100
1000
0100
0001
0010
0000
,
0100
0000
0000
0100
0000
0000
0100
1000
0001
0000
0000
0000
0000
0000
1000
0000
,
0000
0010
0100
1000
0200
0000
0301
0100
,
0001
0010
0100
1000
0200
0000
0301
0100
,
0000
1000
0010
1000
0001
0000
0010
0001
,
0100
0000
0001
0000
0100
0000
0000
0001
,
0000
0010
0100
0001
0200
0000
1300
0100
,
1000
0010
0100
0001
0200
0000
1300
0100
,
0000
0001
0010
0001
1000
0100
0010
1000
,
0010
0000
0001
0000
1000
0010
0100
0100
,
0020
0000
0000
0000
,
0031
0000
0000
0000
,
0001
0000
0100
0010
,
0100
0000
0000
0100
0000
0000
0100
0001
1000
0000
0000
0000
0000
0000
0001
0000
,
0000
0010
0100
0001
0200
0000
1300
0100
,
1000
0010
0100
0001
0200
0000
1300
0100
,
0000
0001
0010
0001
1000
0000
0010
1000
,
0100
0000
1000
0000
0100
0000
0000
1000
,
0000
0010
0100
1000
0200
0000
0301
0100
,
0001
0010
0100
1000
0200
0000
0301
0100
,
0000
1000
0010
1000
0001
0100
0010
0001
,
0010
0000
1000
0000
0001
0010
0100
0100
,
0020
0000
0000
0000
,
1030
0000
0000
0000
,
0001
0000
0100
0010
,
1000
0100
1000
0000
,
2002
0000
0000
3003
;
