#TITLE:ブルーバード;
#ARTIST:96 feat. 達見恵;
#TITLETRANSLIT:Blue Bird;
#ARTISTTRANSLIT:96 feat. Megumi Tatsumi;
#BANNER:Blue Bird.png;
#BACKGROUND:Blue Bird-bg.png;
#CDTITLE:./CDTITLES/DanceDanceRevolution MUSIC FIT.png;
#MUSIC:Blue Bird.ogg;
#SAMPLESTART:51.317;
#SAMPLELENGTH:15;
#BPMS:0=152;

//---------------dance-single - ----------------
#NOTES:
     dance-single:
     :
     Beginner:
     1:
     :
0000
0000
0000
0000
,
0000
0000
0000
0000
,
0000
0000
0000
0000
,
0000
0000
0000
0000
,
0000
0000
0000
0000
,
0001
0000
0000
0000
,
0000
0000
0000
0000
,
1000
0000
1000
0000
,
0001
0000
0000
0000
,
0000
0000
0000
1000
,
0000
0000
0000
0001
,
0000
0000
0000
0000
,
1000
0000
0000
0000
,
0000
0000
0000
0001
,
0000
0000
0000
1000
,
0000
0000
0000
0000
,
0001
0000
0000
0000
,
1000
0000
0000
0000
,
0001
0000
0000
0000
,
0010
0000
0000
0000
,
0010
0000
0000
0000
,
0001
0000
0000
0000
,
1000
0000
0000
0000
,
0010
0000
0000
0000
,
0010
0000
0000
0000
,
1000
0000
0000
0000
,
0001
0000
0001
0000
,
0001
0000
0000
0000
,
1000
0000
1000
0000
,
1000
0000
1000
0000
,
0001
0000
0001
0000
,
1001
0000
0000
0000
,
0000
0000
0000
0000
,
1000
0000
1000
0000
,
0001
0000
0000
0000
,
0001
0000
0001
0000
,
1000
0000
0000
0000
,
1000
0000
1000
0000
,
0001
0000
0000
0000
,
0010
0000
0010
0000
,
0010
0000
0000
0000
,
1000
0000
1000
0000
,
0001
0000
0000
0000
,
0001
0000
0001
0000
,
1000
0000
0000
0000
,
1000
0000
1000
0000
,
0001
0000
0000
0000
,
0010
0000
0010
0000
,
0010
0000
0000
0000
,
0010
0000
0010
0000
,
0010
0000
0000
0000
,
0010
0000
0010
0000
,
0010
0000
0000
0000
,
1000
0000
0000
0000
,
0001
0000
0000
0000
,
0000
0000
0000
0000
,
1000
0000
0000
0000
,
0001
0000
0000
0000
,
1001
0000
0000
0000
;

//---------------dance-single - ----------------
#NOTES:
     dance-single:
     :
     Easy:
     4:
     :
0000
0000
0000
0000
,
0000
0000
0000
0000
,
0000
0000
0000
0000
,
0000
0000
0000
0000
,
0000
0000
0000
0000
,
0001
0000
0001
0000
,
2000
0000
3000
0000
,
1000
0000
0001
0000
,
1001
0000
0000
0000
,
1000
0000
1000
0000
,
0001
0000
0001
0000
,
0100
0000
0100
0000
,
0100
0100
0000
0000
,
1000
0000
1000
0000
,
0001
0000
0001
0000
,
0100
0000
0100
0000
,
1001
0000
0000
0000
,
0000
1000
0000
1000
,
0000
0001
0000
0000
,
0000
0100
0000
0100
,
0000
0010
0000
0000
,
0000
1000
0000
0100
,
0000
0001
0001
0000
,
0000
1000
0001
1000
,
0001
0000
0000
0000
,
1000
0000
0010
0000
,
1000
0000
1000
0000
,
0010
0000
0001
0000
,
0001
0000
0100
0000
,
0000
1000
0000
1000
,
0000
1000
0000
1000
,
0002
0000
0003
0000
,
0200
0000
0300
0000
,
0000
1000
0100
1000
,
0002
0003
1000
0000
,
0000
0001
0000
0100
,
0001
1000
0001
0000
,
0000
0001
0100
0001
,
2000
3000
0001
0000
,
0000
0010
0000
0100
,
0000
1000
0001
0000
,
0000
1000
0100
1000
,
0002
0003
1000
0000
,
0000
0001
0000
0100
,
0001
1000
0001
0000
,
0000
1000
0010
1000
,
0002
0003
0100
0000
,
0000
0100
0000
0010
,
0000
0001
0000
1000
,
0000
0100
0000
0010
,
0000
0001
1000
0000
,
0100
0100
0010
0010
,
1000
0001
0000
0000
,
0001
0000
0100
0000
,
1000
0000
1000
0000
,
0100
0000
0100
0000
,
0100
0100
0000
0000
,
2000
3000
0000
0000
,
0002
0003
0000
0000
;

//---------------dance-single - ----------------
#NOTES:
     dance-single:
     :
     Medium:
     5:
     :
0000
0000
0000
0000
,
0000
0000
0000
0000
,
0000
0000
0000
0000
,
0000
0000
0000
0000
,
0000
0000
0000
0000
,
2000
3000
0002
0003
,
2000
0000
3000
0000
,
0001
0001
1000
1000
,
0001
0010
0110
0000
,
1000
0100
0010
0000
0100
0000
0000
0000
,
0001
0100
0010
0000
1000
0000
0000
0000
,
0010
0001
0010
0000
0100
1000
0010
0000
,
1000
0001
0100
0000
1001
0000
0000
0000
,
1000
0100
0010
0000
0100
0000
0000
0000
,
0001
0010
0100
0000
1000
0000
0000
0000
,
0100
0010
0100
0000
0010
1000
0001
0000
,
0100
0000
0001
1000
0001
0000
0000
0000
,
0000
1000
1000
1000
,
0000
0001
0001
0010
,
0000
0001
0100
0010
,
0000
1000
0010
0001
,
0000
0001
0001
0001
,
0000
1000
1000
0010
,
0000
0001
0000
1000
,
0000
0000
1000
0001
0001
0000
0000
0000
,
0100
0000
0000
0000
0010
0100
1000
0000
,
0001
0100
0010
1000
,
0010
0000
0000
0000
0001
0010
0100
0000
,
1000
0001
1000
0000
,
0010
1000
0010
0100
,
0001
0010
0100
0001
,
1000
0100
1000
0000
0010
0100
1000
0000
,
0001
0100
0001
0000
0100
0000
0000
0000
,
2000
3001
0020
0130
,
1000
0100
0001
0000
0100
0000
0000
0000
,
2000
3000
0002
0003
,
0100
0010
0100
0010
1000
0000
0000
0000
,
0020
1030
0002
0103
,
0010
0010
1001
0000
,
1100
0000
0011
0000
,
1000
0001
1000
0010
0200
0000
0300
0000
,
2000
3001
0020
0130
,
1000
0100
0001
0000
0100
0000
0000
0000
,
2000
3000
0002
0003
,
0100
0010
0100
0010
1000
0000
0000
0000
,
0002
0103
0020
1030
,
0100
0100
1001
0000
,
1010
0000
0101
0000
,
0001
1000
0001
0010
0100
0000
0000
0000
,
1010
0000
0101
0000
,
0001
1000
0001
1000
0100
0000
0000
0000
,
1100
1000
0011
0001
,
1000
0010
1000
0001
0200
0000
0300
0000
,
1000
0100
0001
0000
0100
0000
0000
0000
,
0001
0100
0010
0000
1000
0000
0000
0000
,
0010
0001
0010
0000
0100
1000
0010
0000
,
1000
0001
0100
0000
0001
1000
0100
0010
,
0000
0001
0000
1000
0000
0001
0100
0020
,
0000
0000
0000
0030
;

//---------------dance-single - ----------------
#NOTES:
     dance-single:
     :
     Hard:
     6:
     :
0000
0000
0000
0000
,
0000
0000
0000
0000
,
0000
0000
0000
0000
,
0000
0000
0000
0000
,
0000
0000
0000
0000
,
2000
0000
0002
3000
,
0020
0003
0000
0030
,
1000
0100
1000
0000
0001
0010
0001
0000
,
0100
0000
0010
1000
0001
0000
0000
1000
,
0000
0100
0010
0001
0100
0000
1010
0001
,
0000
0100
0010
1000
0000
0001
1000
0001
,
0000
0010
0001
1000
0100
0010
0001
0000
,
0001
1000
0100
0100
0000
1000
0001
1000
,
0000
0100
0010
0001
0100
0000
1010
0001
,
0000
0010
0100
1000
0000
0010
1000
0001
,
0000
0010
0001
1000
0100
0010
0001
0000
,
0100
0100
0001
1000
0000
0001
0001
0000
,
0000
1000
0100
1000
,
0000
0000
0001
0010
0001
0000
0100
0000
,
0000
0001
0010
0100
,
0000
0000
1000
0010
0100
0000
0001
0000
,
0000
0001
0100
0001
,
0000
0000
1000
0010
1000
0000
0100
0000
,
0000
0001
0000
1000
,
0000
0000
1000
0100
0001
0000
0000
0000
,
1001
0000
1100
0000
0010
0100
1000
0000
,
0001
0100
0010
1000
,
0101
0000
0011
0000
0001
0010
0100
0000
,
1000
0000
0001
0100
1000
0000
0001
0000
,
0010
1000
0000
0001
0000
0010
0100
0001
,
0000
0010
0000
0001
0000
0100
1000
0010
,
0000
1000
0100
1000
0010
0100
0001
0010
,
0001
0100
0010
1000
0100
0000
0000
0000
,
0200
0001
0000
0301
0020
0100
0000
0130
,
0000
1000
0000
0001
0100
0000
0000
0000
,
2000
0000
3100
0000
0002
0000
0103
0001
,
0000
0010
0100
0010
1000
0000
0000
0000
,
0200
1000
0000
1300
0002
0100
0000
0013
,
0000
0010
1001
0000
0000
1000
0200
1000
,
0300
0100
0020
0100
0030
0001
0000
0100
,
0000
0010
2000
0000
0000
0000
3000
0000
,
0200
1000
0000
1300
0020
0100
0000
0130
,
0000
0001
0000
1000
0100
0000
0000
0000
,
0002
0000
0103
0000
2000
0000
3100
1000
,
0000
0010
0100
0010
0001
0000
0000
0000
,
2000
0100
0000
3100
0020
0001
0000
0130
,
0000
0010
1001
0000
0000
0001
0200
0001
,
0300
0100
0020
0100
0030
1000
0000
0100
,
0000
0001
1000
0000
0000
0001
0200
0001
,
0300
0100
0020
0100
0030
1000
0000
0100
,
0000
1000
0001
0000
0000
1000
0200
0010
,
0300
0001
0200
0010
0300
1000
0000
0010
,
0000
1000
0002
0000
0000
0000
0003
1000
,
0000
0010
0100
0001
0010
0000
1100
0001
,
0000
0010
0100
1000
0000
0001
1000
0001
,
0000
0100
0001
1000
0010
0100
0001
0000
,
0001
1000
0010
0010
0000
1000
0001
2000
,
0000
0000
0000
0000
0000
0000
3100
0002
,
0000
0000
0000
0003
;
