#TITLE:歩み;
#ARTIST:96 feat. PON;
#TITLETRANSLIT:Ayumi;
#BANNER:Ayumi.png;
#BACKGROUND:Ayumi-bg.png;
#CDTITLE:./CDTITLES/GF V7 & DM V7.png;
#MUSIC:Ayumi.ogg;
#SAMPLESTART:60.994;
#SAMPLELENGTH:15;
#BPMS:0=90;

//---------------dance-single - ----------------
#NOTES:
     dance-single:
     :
     Beginner:
     1:
     :
0000
0000
0000
0000
,
0000
0000
0000
0000
,
0000
0000
0000
0000
,
0000
0000
0000
0000
,
0000
0000
0000
0000
,
0000
0000
0000
0000
,
0000
0000
0000
0000
,
1000
0000
0001
0000
,
1000
0000
0010
0000
,
0001
0000
0001
0000
,
1000
0000
1000
0000
,
0001
0000
1000
0000
,
0001
0000
0010
0000
,
0001
0000
0000
0000
,
1000
0000
0000
0000
,
0010
0000
0010
0000
,
1000
0000
1000
0000
,
0001
0000
0001
0000
,
0100
0000
0100
0000
,
0010
0010
0010
0000
,
1000
1000
1000
0000
,
0001
0001
0001
0000
,
0100
0000
1001
0000
,
0010
0000
1000
0000
,
1000
0000
0001
0000
,
0010
0000
0100
0000
,
1000
1000
1000
0000
,
0010
0000
1000
0000
,
1000
0000
0001
0000
,
0010
0000
0100
0000
,
1000
0001
1000
0000
,
0000
0000
0010
0000
,
0001
0001
0001
0000
,
1000
0000
0010
0000
,
0100
0000
0001
0001
,
0001
0000
0010
0000
,
0001
0001
0001
0000
,
1000
0000
0010
0000
,
0100
0000
0001
1000
,
0001
0000
0000
0000
;

//---------------dance-single - ----------------
#NOTES:
     dance-single:
     :
     Easy:
     3:
     :
0000
0000
0000
0000
,
0000
0000
0000
0000
,
0000
0000
0000
0000
,
0000
0000
0000
0000
,
0000
0000
0000
0000
,
0000
0000
0000
0000
,
0000
0000
0000
0000
,
0001
0100
0001
0000
,
1000
0010
0100
0000
,
0001
0001
0001
0001
,
1000
1000
1000
1000
,
0001
0100
0001
0001
,
1000
0010
0100
0100
,
0002
0003
2000
3000
,
0020
0000
0030
0000
,
1000
1000
0010
0000
,
0001
0001
1000
0000
,
0001
0000
0100
0000
,
1000
0000
0010
0000
,
1000
1000
0010
1000
,
0001
0001
1000
1000
,
0001
0000
0100
0100
,
0001
1000
2002
3003
,
1000
0100
0001
0000
,
0001
0010
0100
0000
,
1000
0010
1000
0010
,
0100
0001
0100
0000
,
0001
0100
1000
0000
,
1000
0010
0100
0000
,
0001
0010
0001
0010
,
0100
0000
0020
0000
,
0000
0030
1000
0100
,
0001
0001
0001
0010
,
0100
0000
1000
0010
,
1000
1000
0020
0030
,
0200
0300
0001
0100
,
1000
1000
1000
0010
,
0100
0000
0001
0010
,
0001
0001
1000
0001
,
0200
0000
0300
0000
;

//---------------dance-single - ----------------
#NOTES:
     dance-single:
     :
     Medium:
     4:
     :
0000
0000
0000
0000
,
0000
0000
0000
0000
,
0000
0000
0000
0000
,
0000
0000
0000
0000
,
0000
0000
0000
0000
,
0000
0000
0000
0000
,
0000
0000
0000
0000
,
1000
0000
1100
0000
0001
0100
0001
0000
,
0100
0000
0100
0000
0100
0010
1000
0000
,
1000
0100
0001
0000
1000
0100
0010
0000
,
0001
0100
0010
0000
0001
0100
1000
0000
,
0001
0000
0101
0000
1000
0100
1000
0000
,
0100
0000
0100
0000
0100
0010
0001
0000
,
1000
0001
0100
0000
0100
0000
0010
0000
,
1000
0001
0100
0000
,
0010
0010
0100
0000
0010
0000
1000
0000
,
0100
0010
0001
0000
0100
0000
0010
0000
,
1000
0000
0001
0000
0100
0010
0100
0000
,
0001
0000
1000
0000
0010
0010
0100
0000
,
0010
0010
0100
0000
0010
0000
0001
0000
,
0100
0010
1000
0000
0100
0000
0010
0000
,
0001
0000
1000
0000
0100
0010
0100
0000
,
0011
0100
2020
3030
,
0100
0010
1000
0010
0100
0000
0002
0000
,
2003
0000
3100
0000
0020
0001
0031
0000
,
0001
0100
0001
0100
,
0010
0000
1000
0000
0100
0010
0001
0000
,
0100
0010
0001
0010
0100
0000
2000
0000
,
3002
0000
0103
0000
0020
1000
1030
0000
,
1000
0100
1000
0100
,
1000
0010
0200
0000
,
0000
0000
0300
0000
0100
0010
1000
0010
,
0100
0100
0002
0000
2003
0000
3100
0000
,
2000
0001
3001
0000
1000
0000
0100
0000
,
0001
0100
0020
2030
,
3002
0010
0013
0000
0100
0010
0001
0010
,
0100
1000
2000
0000
3002
0000
1003
0000
,
0020
1000
1030
0000
0010
0000
0100
0000
,
1000
0100
0001
0010
,
0200
0000
0300
0000
;

//---------------dance-single - ----------------
#NOTES:
     dance-single:
     :
     Hard:
     6:
     :
0000
0000
0000
0000
,
0000
0000
0000
0000
,
0000
0000
0000
0000
,
0000
0000
0000
0000
,
0000
0000
0000
0000
,
0000
0000
0000
0000
,
0000
0000
0000
0001
,
0100
1000
1100
0000
0010
0100
0101
0000
,
1000
0100
0001
1000
0010
0001
0100
0000
,
0010
1000
0100
0010
0001
0100
1000
0000
,
0100
0001
0010
0001
0100
0010
1000
0100
,
0100
0001
0101
0000
0010
0100
1100
0000
,
0001
0100
1000
0001
0010
1000
0100
0000
,
1000
0010
0100
0000
0100
0000
0001
0010
,
0100
1000
0001
0000
,
1010
0010
0100
0000
0001
0000
0010
0100
,
1000
0010
0001
0000
0100
0000
0010
1000
,
1100
0000
0010
0100
0001
0010
0100
0000
,
1000
0000
0010
0000
0100
0010
0110
0000
,
0011
0010
0100
0000
1000
0000
0010
0100
,
0001
0010
1000
0000
0100
0000
0010
0001
,
0101
0000
0010
0100
1000
0010
0100
0000
,
1001
0000
0100
0000
0001
1000
1001
0000
,
0100
0010
0001
0100
0010
1000
0001
0000
,
1020
0000
0130
0001
0020
0100
0130
0000
,
0001
0100
1000
0000
0001
0000
0100
0010
,
1000
0000
0100
0010
0100
0000
1000
0000
0002
0000
0100
0000
0103
0000
0000
0000
,
0100
0010
1000
0100
0010
0001
1000
0000
,
0021
0000
0130
1000
0020
0100
0130
0000
,
1000
0100
0001
0000
1000
0000
0100
0010
,
0001
0100
0020
0000
,
0000
0000
0030
0000
0100
0010
1000
0100
,
0010
0001
1000
0001
0021
0000
0130
1000
,
0020
0100
0130
0000
1000
0100
0001
0100
,
1000
0010
0100
0010
0200
0001
0302
0010
,
0023
0100
0130
0000
0100
0010
0001
0100
,
0010
1000
0001
0100
1020
0000
0130
0001
,
0020
0100
0130
0000
0001
0100
1000
0010
,
0001
1000
0100
0010
1000
0000
0001
0010
,
0200
0000
0300
0000
;
