#TITLE:A Perfect Sky;
#ARTIST:♪♪♪♪♪;
#BANNER:A Perfect Sky.png;
#BACKGROUND:A Perfect Sky-bg.png;
#CDTITLE:./CDTITLES/jubeat.png;
#MUSIC:A Perfect Sky.ogg;
#SAMPLESTART:58.615;
#SAMPLELENGTH:15;
#BPMS:0=90;

//---------------dance-single - ----------------
#NOTES:
     dance-single:
     :
     Beginner:
     1:
     :
0000
0000
0000
0000
,
0000
0000
0000
0000
,
1000
0000
0000
0000
,
0001
0000
0000
0000
,
1000
1000
0000
0000
,
0001
0001
0000
0000
,
0000
1000
0000
0000
,
0000
0001
0000
0000
,
0000
1000
0000
0000
,
0000
0001
0000
0000
,
1000
0000
1000
0000
,
1000
0000
0000
0000
,
0001
0000
0000
0000
,
1000
0000
0000
0000
,
0001
0000
0001
0000
,
0001
0000
0000
0000
,
1000
0000
0000
0000
,
0001
0000
0000
0000
,
1000
1000
1000
0000
,
0001
0001
0001
0000
,
1000
0000
1000
0000
,
0001
0000
0001
0000
,
1000
0000
1000
1000
,
1000
0000
0001
0001
,
0001
0000
0001
0000
,
1000
0000
1000
0000
,
0001
0000
1000
1000
,
1000
0000
0001
0001
,
0001
0000
0001
0000
,
1000
0000
1000
0000
,
0000
0001
0000
0000
,
0000
1000
0000
0000
,
0000
0001
0000
0000
,
0000
1000
0000
0001
;

//---------------dance-single - ----------------
#NOTES:
     dance-single:
     :
     Easy:
     3:
     :
0000
0000
0000
0000
,
0000
0000
0000
0000
,
0001
0000
1000
1001
,
1000
0000
0001
1001
,
0001
0100
1000
0000
,
1000
0100
0001
1000
,
0001
0000
0100
0001
,
1000
0000
0001
0001
,
1000
0000
0100
1000
,
0001
1000
0001
0100
,
0001
0000
1000
0000
,
0010
0000
0000
0010
,
0001
0000
0001
1000
,
0010
0000
1000
0001
,
1000
0000
0001
0000
,
0010
0000
0000
0010
,
1000
0000
1000
0001
,
0100
0010
0100
0000
,
2000
3000
0020
0030
,
0002
0003
0020
0030
,
0001
1000
0001
0000
,
0100
0010
0110
1001
,
1000
0000
0000
0010
0000
0000
1000
0000
,
0001
0000
0000
0010
0000
0000
0001
0000
,
0001
1000
0001
0000
,
0001
1000
0001
0100
,
0001
0000
0000
0010
0000
0000
0001
0000
,
1000
0000
0000
0010
0000
0000
1000
0000
,
1000
0001
1000
0000
,
1000
0001
1000
0100
,
1000
0000
0100
1000
,
0001
0000
1000
1000
,
0001
0000
0100
0001
,
0010
0010
1000
0001
;

//---------------dance-single - ----------------
#NOTES:
     dance-single:
     :
     Medium:
     4:
     :
0000
0000
0000
0000
,
0000
0000
0000
0000
,
0011
0000
0100
0000
1000
1000
1000
0000
,
1010
0000
0100
0000
0001
1000
0001
0000
,
0001
0001
0100
0000
1000
0100
1000
0000
,
1000
1000
0100
0000
0001
0000
1000
0000
,
0001
1000
0100
0001
,
0010
0000
0100
0000
0001
0100
1000
0000
,
1000
0010
0100
0001
,
0010
0001
0010
0000
1000
0100
0001
0000
,
1000
1000
0010
1000
,
0100
0000
0010
0100
,
0010
0000
1000
0001
0100
0000
1000
0000
,
0001
0000
0001
0000
1000
0100
0001
0000
,
0001
0001
0010
0001
,
0100
0000
0010
0100
,
0010
0000
0001
1000
0100
0000
0001
0000
,
1000
0000
0001
0000
0100
0100
0100
0000
,
2000
3000
0020
1030
,
0002
0103
0020
1030
,
0001
0100
1000
0000
0020
0000
1030
0000
,
0100
0010
0001
0000
0110
0000
1001
0000
,
1000
0000
0000
0100
0000
0000
0010
0000
0001
0000
1000
0000
0100
0000
0000
0000
,
0001
0000
0000
0100
0000
0000
0010
0000
1000
0000
0000
0000
0001
0000
0000
0000
,
0001
0000
0001
0000
1000
0000
0000
0000
0001
0010
0001
0000
0100
0000
0000
0000
,
1000
1000
0010
0000
1000
0000
0001
0000
,
0001
0000
0000
0100
0000
0000
0010
0000
1000
0000
0001
0000
0100
0000
0000
0000
,
1000
0000
0000
0100
0000
0000
0010
0000
0001
0000
0000
0000
1000
0000
0000
0000
,
1000
0000
1000
0000
0001
0000
0000
0000
1000
0010
1000
0000
0100
0000
0000
0000
,
0001
0001
0010
0000
0001
0000
1000
0000
,
0001
1000
0100
0001
,
0010
0000
0100
0000
0001
0100
1000
0000
,
1000
0010
0100
0001
,
0010
0001
0010
0000
1000
0100
0001
0000
;

//---------------dance-single - ----------------
#NOTES:
     dance-single:
     :
     Hard:
     6:
     :
0000
0000
0000
0000
,
0000
0000
0000
0000
,
0011
0000
0000
0000
0110
0000
0000
1000
0000
0000
0010
0100
0001
0000
0000
0000
,
1010
0000
0000
0000
0110
0000
0000
0001
0000
0000
1000
0000
0100
0000
0000
0000
,
0001
0100
0001
0000
0010
0000
0100
0000
1000
0100
1000
0000
1100
0000
0000
0000
,
1000
0010
1000
0000
0100
0000
0010
0000
0001
0000
0000
0000
1000
0000
0000
0000
,
0001
0000
0000
0000
0100
0000
0000
0010
0100
0000
0001
0000
1000
0000
0000
0000
,
0100
0000
1000
0000
0100
0000
0000
0010
0001
0000
0100
0000
0010
0000
0000
0000
,
1000
0000
0000
0000
0100
0000
0000
0010
0100
0000
1000
0000
0001
0000
0000
0000
,
0100
0000
0001
0000
0100
0000
0000
0010
1000
0000
0100
0000
0000
0001
0000
0000
,
0100
0001
1000
0000
0010
0000
1000
0000
,
0100
0000
0000
0000
0010
0001
0100
0000
,
0010
0000
1000
0001
1000
0100
1000
0000
,
0001
0000
0100
0000
0010
1000
0001
0000
,
0100
1000
0001
0000
0010
0000
0001
0000
,
0100
0000
0000
0000
0010
1000
0100
0000
,
0010
0000
0001
1000
0001
0100
0001
0000
,
2000
0000
3001
0000
0100
0100
0100
0000
,
1000
0100
0010
1000
,
0001
0100
0010
1000
,
0001
0100
1000
0100
0010
0000
1000
0000
,
0100
0000
0010
0000
0001
0000
0010
0000
0100
0000
1000
0001
0100
0000
0000
0000
,
1000
0010
1000
0010
1000
0000
0100
1000
0000
0010
0001
0000
0100
0000
0000
0000
,
0001
0100
0001
0100
0001
0000
1000
0100
0010
0000
0001
0000
1000
0000
0000
0000
,
0001
0100
0001
0000
1000
0000
0100
0000
0010
0001
1000
0000
0100
0000
0000
0000
,
0001
0100
0001
0000
0010
0000
0100
0000
1000
0000
0000
0000
0001
0000
0000
0000
,
0001
0010
0001
0010
0001
0000
0100
0001
0000
0010
1000
0000
0100
0000
0000
0000
,
1000
0100
1000
0100
1000
0000
0001
0100
0010
0000
1000
0000
0001
0000
0000
0000
,
1000
0100
1000
0000
0001
0000
0100
0000
0010
1000
0001
0000
0100
0000
0000
0000
,
1000
0100
1000
0000
0010
0000
0100
0000
0001
0000
0000
0000
1000
0000
0000
0000
,
1000
0000
0000
0000
0100
0000
0000
0010
0100
0000
1000
0000
0001
0000
0000
0000
,
0100
0000
0001
0000
0100
0000
0000
0010
1000
0000
0100
0000
0010
0000
0000
0000
,
0001
0000
0000
0000
0100
0000
0000
0010
0100
0000
0001
0000
1000
0000
0000
0000
,
0100
0000
0001
0000
0100
0000
0000
1000
0100
0000
0001
0000
0000
1000
0000
0000
;
