#TITLE:「ウイリアム・テル」序曲より;
#ARTIST:MC F 40;
#TITLETRANSLIT:"William Tell" jokyoku yori;
#BANNER:''William Tell'' jokyoku yori.png;
#BACKGROUND:''William Tell'' jokyoku yori-bg.png;
#CDTITLE:./CDTITLES/classical SPEED.png;
#MUSIC:''William Tell'' jokyoku yori.ogg;
#SAMPLESTART:13.267;
#SAMPLELENGTH:15;
#BPMS:0=180;

//---------------dance-single - ----------------
#NOTES:
     dance-single:
     :
     Beginner:
     2:
     :
0000
0000
0000
0000
,
0000
0000
0000
0000
,
0000
0000
0000
0000
,
0000
0000
0000
0000
,
0000
0000
0000
0000
,
0000
0000
0000
0000
,
0000
0000
0000
0000
,
0000
0000
0000
0000
,
0000
0000
0000
0000
,
0000
0000
0000
0000
,
0010
0000
0010
0000
,
0010
0000
0000
0000
,
1000
0000
0001
0000
,
1000
0000
0000
0000
,
0010
0000
0010
0000
,
0010
0000
0000
0000
,
1000
0000
0001
0000
,
1000
0000
0000
0000
,
0001
0000
0001
0000
,
0001
0000
0000
0000
,
1000
0000
1000
0000
,
1000
0000
0000
0000
,
0001
0000
0001
0000
,
0001
0000
0000
0000
,
1000
0000
1000
0000
,
1000
0000
0000
0000
,
0100
0000
0000
0000
,
0001
0000
0100
0000
,
0100
0000
0000
0000
,
1000
0000
0100
0000
,
0001
0000
0000
0000
,
1000
0000
0000
0000
,
0001
0000
1000
0000
,
0001
0000
1000
0000
,
1000
0000
0000
0000
,
0001
0001
0001
0000
,
1000
0000
0001
0000
,
1000
0000
0001
0000
,
0001
0000
0000
0000
,
1000
1000
1000
0000
,
0001
0000
0001
0000
,
0001
0000
0000
0000
,
1000
0000
1000
0000
,
1000
0000
0000
0000
,
0001
0000
0001
0000
,
0001
0000
0000
0000
,
1000
0000
1000
0000
,
1000
0000
0000
0000
,
0010
0010
0010
0000
,
1000
0000
0000
0000
,
0010
0010
0010
0000
,
0001
0000
1000
0000
,
0010
0010
0010
0000
,
0001
0000
0000
0000
,
0010
0010
0010
0000
,
1000
0000
0001
0000
,
0000
0000
0000
0000
,
0100
0100
0100
0100
,
0100
0000
0000
0000
,
0000
0000
0000
0000
,
0010
0010
0010
0010
,
0010
0000
0010
0000
,
0010
0000
0000
0000
,
1000
0000
0001
0000
,
1000
0000
0000
0000
,
0010
0000
0010
0000
,
0010
0000
0000
0000
,
1000
0000
0001
0000
,
1000
0000
0000
0000
,
0001
0000
0100
0000
,
0010
0000
0000
0000
,
1000
0000
0100
0000
,
0010
0000
0000
0000
,
1001
0000
0000
0000
,
1001
0000
0000
0000
,
0100
0000
0010
0000
,
0100
0000
0010
0000
,
0100
0000
0010
0000
,
0100
0000
0010
0000
,
1000
0000
0010
0000
,
0100
0000
0001
0000
,
1000
1000
0000
0000
;

//---------------dance-single - ----------------
#NOTES:
     dance-single:
     :
     Easy:
     5:
     :
0000
0000
0000
0000
,
0000
0000
0000
0000
,
0000
0000
0000
0000
,
0000
0000
0000
0000
,
0000
0000
0000
0000
,
0000
0000
0000
0000
,
0000
0000
0000
0000
,
0000
0000
0000
0000
,
0000
0000
0000
0000
,
0000
0000
0000
0000
,
0001
0001
0001
0000
,
0100
0100
0100
0000
,
0010
0010
0010
0000
,
2000
0000
3000
0000
,
1000
1000
1000
0000
,
0100
0100
0100
0000
,
0010
0010
0010
0000
,
0002
0000
0003
0000
,
0001
0000
0001
0000
,
0010
0000
0010
0000
,
0001
0000
1000
0000
,
0002
0000
0003
0000
,
1000
0000
1000
0000
,
0010
0000
0010
0000
,
1000
0000
0001
0000
,
2000
0000
3000
0000
,
0001
0000
1000
0000
,
0001
0100
0001
0000
,
1000
0000
0001
0000
,
1000
0100
1000
0000
,
0010
0000
0010
0000
,
0100
0000
0100
0000
,
0001
0000
1000
0000
,
0010
0000
0100
0000
,
1001
0000
0110
0000
,
1001
0000
0000
0000
,
1000
0000
0001
0000
,
0010
0000
0100
0000
,
1001
0000
0110
0000
,
0001
1000
1001
0000
,
0001
0000
0001
0000
,
0010
0000
0010
0000
,
0001
0000
1000
0000
,
0002
0000
0003
0000
,
1000
0000
1000
0000
,
0010
0000
0010
0000
,
1000
0000
0001
0000
,
2000
0000
3000
0000
,
0001
0001
0001
0001
,
0001
0000
0100
0000
,
1000
1000
1000
1000
,
1000
0000
0010
0000
,
0001
0001
0001
0001
,
0001
0000
0100
0000
,
1000
1000
1000
1000
,
1000
0000
0010
0000
,
0010
0000
0100
0000
,
0100
0100
0100
0100
,
0200
0000
0000
0000
,
0000
0000
0300
0000
,
0001
1000
0001
1000
,
0001
0001
0001
0000
,
0100
0100
0100
0000
,
0010
0010
0010
0000
,
2000
0000
3000
0000
,
1000
1000
1000
0000
,
0100
0100
0100
0000
,
0010
0010
0010
0000
,
0002
0000
0003
0000
,
1000
1000
0100
0100
,
2000
0000
0000
3000
,
0001
0001
0100
0100
,
0002
0000
0000
0003
,
1001
0000
0110
0000
,
1001
0000
0110
0000
,
0002
0000
0103
0000
,
2000
0000
3100
0000
,
0020
0000
0130
0000
,
0020
0000
0100
0030
,
1000
1000
0100
0100
,
0010
0010
0001
0001
,
1000
0001
0000
0000
;

//---------------dance-single - ----------------
#NOTES:
     dance-single:
     :
     Medium:
     6:
     :
0000
0000
0000
0000
,
0000
0000
0000
0000
,
0000
0000
0000
0000
,
0000
0000
0000
0000
,
0000
0000
0000
0000
,
0000
0000
0000
0000
,
0000
0000
0000
0000
,
0000
0000
0000
0000
,
0000
0000
0000
0000
,
0000
0000
0000
0000
,
0001
0001
0100
0010
,
1000
0010
0100
0100
,
0001
0010
0010
0100
,
2000
0000
3010
0100
,
1000
1000
0100
0010
,
0001
0010
0100
0100
,
1000
0010
0010
0100
,
0002
0000
0013
0100
,
0001
0001
0100
0100
,
0010
0010
0100
0100
,
0001
0001
1000
1000
,
0100
0100
0100
0010
,
0001
0001
0100
0100
,
0010
0010
0100
0100
,
0001
0001
1000
1000
,
0100
0010
0100
0000
,
1100
1000
0001
0010
,
0001
0100
0101
0000
,
1010
1000
0001
0100
,
0001
0010
0011
0000
,
0110
0001
0100
1000
,
1001
0010
1000
0100
,
0001
0100
1000
0010
,
0100
0010
0100
0010
,
0100
1001
0100
1001
,
0010
1000
0001
0000
,
1000
0100
0001
0010
,
0100
0010
0100
0010
,
0100
1001
0100
1001
,
0010
0110
1001
0000
,
0001
0001
0100
0100
,
0010
0010
0100
0100
,
0001
0001
1000
1000
,
0100
0100
0100
0010
,
0001
0001
0100
0100
,
0010
0010
0100
0100
,
0001
0001
1000
1000
,
0010
0100
0001
1001
,
1000
0000
1000
0000
1000
0100
1000
0000
,
1000
0100
1000
0000
0100
0000
1000
0000
,
0001
0000
0001
0000
0001
0100
0001
0000
,
0001
1000
0001
0000
0010
0000
0100
0000
,
1000
0000
1000
0000
1000
0100
1000
0000
,
1000
0100
1000
0000
0100
0000
1000
0000
,
0001
0000
0001
0000
0001
0100
0001
0000
,
1000
0010
0100
0000
,
0001
0000
0100
0100
,
0100
0100
0100
0100
,
0200
0000
0000
0000
,
0000
0000
0300
0000
,
1001
0010
1001
0100
,
0001
0001
0100
0010
,
1000
0000
0010
0000
0100
0010
0100
0000
,
0001
0010
0010
0100
,
2000
0000
3010
0100
,
1000
1000
0100
0010
,
0001
0000
0010
0000
0100
0010
0100
0000
,
1000
0010
0010
0100
,
0002
0000
0013
0100
,
1000
0010
0010
1000
,
0010
0100
0010
0100
0010
0000
0100
0000
,
0001
0010
0010
0001
,
0010
0100
0010
0100
0010
0000
0100
0000
,
0011
0011
1100
1100
,
1010
1010
0101
0101
,
0001
0000
0001
1000
0001
0000
0100
0000
,
1000
0000
1000
0001
1000
0000
0100
0000
,
0001
1000
0001
1000
0001
0000
0100
0000
,
1000
0001
1000
0001
1000
0000
0100
0000
,
1000
0010
0100
0001
,
0010
0100
1000
0001
,
0010
0100
0010
0000
0000
0000
0000
0000
;

//---------------dance-single - ----------------
#NOTES:
     dance-single:
     :
     Hard:
     9:
     :
0000
0000
0000
0000
,
0000
0000
0000
0000
,
0000
0000
0000
0000
,
0000
0000
0000
0000
,
0000
0000
0000
0000
,
0000
0000
0000
0000
,
0000
0000
0000
0000
,
0000
0000
0000
0000
,
0000
0000
0000
0000
,
0000
0000
0000
0000
,
0001
0000
0100
0010
0100
0000
0010
0000
1000
0000
0100
0000
0010
0000
0000
0000
,
0001
0000
1000
0010
0100
0000
0010
0000
1000
0000
0001
0000
0100
0000
0000
0000
,
0010
0000
1000
0001
1000
0000
0100
0000
0010
0000
0001
0000
1000
0000
0100
0000
,
0002
0000
0000
1003
0010
0001
0100
0000
,
1000
0000
0100
0010
0100
0000
0010
0000
0001
0000
0100
0000
0010
0000
0000
0000
,
1000
0000
0001
0010
0100
0000
0010
0000
0001
0000
1000
0000
0001
0000
0000
0000
,
0010
0000
0001
1000
0001
0000
0100
0000
0010
0000
1000
0000
0001
0000
0100
0000
,
0020
0000
0000
0031
0010
1000
0100
0000
,
1000
0010
1000
0001
0100
0010
0100
0001
,
0010
0001
1000
0010
0100
0010
0001
0010
,
1000
0100
1000
0100
0001
0100
0001
0100
,
1000
0010
1000
0010
0100
0001
0100
0000
,
0001
0010
0001
1000
0100
0010
0100
1000
,
0010
1000
0001
0010
0100
0010
0100
0010
,
0001
0100
0001
0100
1000
0001
1000
0100
,
0001
0010
0001
0010
0100
0000
0010
0000
,
0001
0000
0000
0001
0010
0000
0000
0010
1000
0000
0000
1000
0010
0000
0000
0010
,
0001
0000
0000
0001
1000
0000
0000
1000
0001
0000
0000
0001
0100
0000
0000
0100
,
0001
0000
0000
0001
0100
0000
0000
0100
1000
0000
0000
1000
0100
0000
0000
0100
,
0001
0000
0000
0001
1000
0000
0000
1000
0001
0000
0000
0001
0010
0000
0000
0010
,
0100
0000
0000
0100
1000
0000
0000
1000
0100
0000
0000
0100
0001
0000
0000
0001
,
0100
0000
0000
0100
1000
0000
0000
1000
0010
0000
0000
0010
0001
0000
0010
0000
,
1000
0000
0000
1000
0100
0000
0000
0100
1000
0000
0000
1000
0001
0000
0000
0001
,
0100
0000
0000
0100
0010
0000
0000
0010
0100
0000
0000
0100
0001
0000
0010
0000
,
0100
1001
0100
1001
,
0010
0000
0000
0010
0001
0000
1000
0000
0001
0000
0100
0000
0010
0000
1000
0000
,
0001
0000
0000
0001
0100
0000
0000
0100
0001
0000
0000
0001
1000
0000
0000
1000
,
0100
0000
0000
0100
0010
0000
0000
0010
0100
0000
0000
0100
1000
0000
0001
0000
,
0100
1001
0100
1001
,
0010
1100
0101
0000
,
1000
0010
1000
0001
0100
0010
0100
0001
,
0010
0001
1000
0010
0100
0010
0001
0010
,
1000
0100
1000
0100
0001
0100
0001
0100
,
1000
0010
1000
0010
0100
0001
0100
0000
,
0001
0010
0001
1000
0100
0010
0100
1000
,
0010
1000
0001
0010
0100
0010
0100
0010
,
0001
0100
0001
0100
1000
0001
1000
0100
,
0001
0010
0100
1000
0001
1000
0001
0000
,
1000
0000
0000
1000
0100
0000
0000
0100
0010
0000
0000
0010
0100
0000
0000
0100
,
1000
0000
0000
1000
0001
0000
0100
0000
0010
0000
0100
0000
0100
0000
0000
0000
,
0001
0000
0000
0001
0100
0000
0000
0100
0010
0000
0000
0010
0100
0000
0000
0100
,
0001
0000
0000
0001
1000
0000
0001
0000
0010
0000
0100
0000
0010
0000
0000
0000
,
1000
0000
0000
1000
0100
0000
0000
0100
0010
0000
0000
0010
0100
0000
0000
0100
,
1000
0000
0000
1000
0001
0000
0100
0000
0010
0000
0100
0000
0100
0000
0000
0000
,
0001
0000
0000
0001
0100
0000
0000
0100
0010
0000
0000
0010
0100
0000
0000
0100
,
0001
0100
0010
1000
0001
0000
0000
1000
,
0001
0010
0010
0010
,
0010
0000
0010
0000
0010
0000
0010
0100
,
0020
0000
0000
0000
,
0000
0000
0130
0000
,
0011
1100
0011
1100
,
0001
0000
0100
0010
1000
0000
0010
0000
1000
0000
0100
0000
0010
0000
0000
0000
,
0001
0000
1000
0010
1000
0000
0010
0000
1000
0000
0001
0000
0100
0000
0000
0000
,
0010
0000
1000
0001
1000
0000
0100
0000
1000
0000
0001
0000
1000
0000
0100
0000
,
0020
0000
0000
1030
0010
0001
0100
0000
,
1000
0000
0100
0010
0100
0000
1000
0000
0001
0000
0100
0000
0010
0000
0000
0000
,
1000
0000
0001
0010
0100
0000
1000
0000
0001
0000
1000
0000
0100
0000
0000
0000
,
1000
0000
0001
1000
0001
0000
0100
0000
0010
0000
1000
0000
0001
0000
0100
0000
,
2000
0000
0000
3001
0010
1000
0001
0000
,
1000
0100
0010
0001
0010
0100
1000
0100
,
0010
0001
0010
0001
0010
0001
0010
0000
,
0001
0100
0010
1000
0010
0100
0001
0100
,
0010
1000
0010
1000
0010
1000
0010
0000
,
1010
1001
0011
0110
,
1010
1001
0011
0110
,
1000
0010
1000
0100
0010
0000
0100
0000
,
0001
1000
0001
0100
0010
0000
0100
0000
,
1000
0010
1000
0100
0010
0000
1100
0000
,
0001
0010
0001
0100
0010
0000
1001
0000
,
0001
0010
0100
1000
0001
0010
0100
1000
,
0010
0100
0001
1000
0010
0100
0001
1000
,
0100
0000
0010
0001
0010
0000
0000
0000
0000
0000
0000
0000
0000
0000
0000
0000
;
