#TITLE:glass bird;
#SUBTITLE:;
#ARTIST:nya_n;
#TITLETRANSLIT:;
#SUBTITLETRANSLIT:;
#ARTISTTRANSLIT:;
#GENRE:AMBIENT;
#CREDIT:;
#MUSIC:glass bird.ogg;
#BANNER:glass bird.PNG;
#BACKGROUND:glass bird-BG.PNG;
#CDTITLE:./CDTITLES/Arcade Exclusive.PNG;
#SAMPLESTART:72.013;
#SAMPLELENGTH:11.625;
#SELECTABLE:YES;
#OFFSET:-0.040;
#BPMS:0.000=160.000;
#STOPS:;
#BGCHANGES:;
#FGCHANGES:;

//--------------- dance-single - B. M'Rey ----------------
#NOTES:
     dance-single:
     B. M'Rey:
     Beginner:
     1:
     0,0,0,0,0:
0000
0000
0000
0000
,
0000
0000
0000
0000
,
0000
0000
0000
0000
,
0000
0000
0000
0000
,
0000
0000
0000
0000
,
0000
0000
0000
0000
,
0000
0000
0000
0000
,
0000
0000
0000
0000
,
0100
0000
0000
0000
,
0001
0000
0000
0000
,
1000
0000
0000
0000
,
0010
0000
0000
0000
,
0100
0000
0000
0000
,
0001
0000
0000
0000
,
1000
0000
0000
0000
,
0010
0000
0000
0000
,
0100
0000
0001
0000
,
0000
0000
0000
0000
,
1000
0000
0000
0000
,
0010
0000
0000
0000
,
0100
0000
1000
0000
,
0000
0000
0000
0000
,
0001
0000
0000
0000
,
0100
0000
0000
0000
,
0010
0000
0000
0000
,
0000
0000
0000
0000
,
0000
0000
0000
0000
,
0000
0000
0000
0000
,
0001
0000
0000
0000
,
0000
0000
0000
0000
,
0000
0000
0000
0000
,
0000
0000
0000
0000
,
1000
0000
0000
0000
,
0010
0000
0000
0000
,
0100
0000
0000
0000
,
0001
0000
0000
0000
,
0010
0000
0000
0000
,
0100
0000
0000
0000
,
0001
0000
0000
0000
,
1000
0000
0000
0000
,
0010
0000
0000
0000
,
0100
0000
0000
0000
,
0001
0000
0000
0000
,
0010
0000
0000
0000
,
1000
0000
0000
0000
,
0100
0000
0000
0000
,
1001
0000
0000
0000
,
0000
0000
0000
0000
,
1000
1000
0000
0000
,
0010
0010
0000
0000
,
0100
0100
0000
0000
,
0001
0001
0000
0000
,
1000
1000
0000
0000
,
0010
0010
0000
0000
,
0100
0100
0000
0000
,
0001
0000
0000
0000
,
1000
1000
0000
0000
,
0010
0010
0000
0000
,
0100
0100
0000
0000
,
0001
0001
0000
0000
,
1000
1000
0000
0000
,
0010
0010
0000
0000
,
0100
0100
0000
0000
,
0001
0000
0000
0000
,
1000
0000
0010
0000
,
0100
0000
0010
0000
,
0001
0000
1000
0000
,
0010
0000
0000
0000
,
0100
0000
0010
0000
,
1000
0000
0001
0000
,
0010
0000
0100
0000
,
1000
0000
0000
0000
,
0010
0000
0100
0000
,
0001
0000
1000
0000
,
0010
0000
0100
0000
,
1000
0000
0000
0000
,
0010
0000
0100
0000
,
0001
0000
1000
0000
,
0020
0000
0000
0000
,
0000
0000
0000
0000
,
0200
0000
0000
0000
,
0000
0000
0000
0000
,
0000
0000
0000
0000
,
0000
0000
0000
0000
,
0330
0000
0000
0000
;

//--------------- dance-single - B. M'Rey ----------------
#NOTES:
     dance-single:
     B. M'Rey:
     Easy:
     3:
     0,0,0,0,0:
0000
0000
0000
0000
,
0000
0000
0000
0000
,
0000
0000
0000
0000
,
0000
0000
0000
0000
,
1000
0000
0000
0000
,
0000
0000
0000
0000
,
0000
0000
0000
0000
,
0000
0000
0000
0000
,
0010
0000
0001
0000
,
0100
0000
0010
0000
,
1000
0000
0100
0000
,
1000
0000
0010
0000
,
0100
0000
0010
0000
,
1000
0000
0001
0000
,
0010
0000
0001
0000
,
0100
0000
0010
0000
,
1000
0000
0010
0000
,
0100
0000
0010
0000
,
0001
0000
0010
0000
,
0001
0000
0100
0000
,
0010
0000
1000
0000
,
0010
0000
0100
0000
,
0001
0000
0010
0000
,
0001
0000
0100
0000
,
1001
0000
0000
0000
,
0000
0000
0000
0000
,
0000
0000
0000
0000
,
0000
0000
0000
0000
,
0010
0000
0000
0000
,
0000
0000
0000
0000
,
0000
0000
0000
0000
,
0000
0000
0000
0000
,
1000
0100
0000
0001
,
0000
0010
0000
0100
,
0001
0010
0000
1000
,
0000
0010
0000
0100
,
1000
0100
0000
0010
,
0000
1000
0000
0001
,
0010
1000
0000
0010
,
0000
0100
0000
0001
,
1000
0010
0000
0100
,
0000
0010
0000
0001
,
1000
0001
1000
0000
,
0010
0100
0010
0000
,
0001
0010
0000
1000
,
0000
0001
0000
0100
,
0010
0000
0000
0000
,
0000
0000
0000
0000
,
0100
0010
0001
1000
,
0100
0010
0100
1000
,
0010
1000
0100
0010
,
0001
0100
0010
1000
,
0100
0010
0001
0100
,
0001
0010
0001
0100
,
0010
0100
0001
1000
,
0100
0010
0100
1000
,
0001
0010
0100
0010
,
0001
0010
0100
1000
,
0010
0100
0001
0010
,
0100
1000
0010
0100
,
0010
1000
0001
0100
,
0010
1000
0100
0010
,
0100
1000
0100
0010
,
0001
1000
0100
0010
,
0001
0000
0010
0000
,
1000
0100
1000
0100
,
1000
0000
0010
0000
,
0100
0010
0100
0010
,
0001
0000
1000
0000
,
0001
0010
0100
0010
,
1000
0000
0010
0000
,
0100
0010
0100
0010
,
0001
0000
1000
0000
,
0010
0100
0010
0100
,
1000
0000
0010
0000
,
0100
0001
0010
0100
,
1000
0000
0010
0000
,
0100
0001
0010
1000
,
0100
0000
0000
0000
,
0000
0000
0000
0000
,
2002
0000
0000
0000
,
0000
0000
0000
0000
,
0000
0000
0000
0000
,
0000
0000
0000
0000
,
3003
0000
0000
0000
;

//--------------- dance-single - B. M'Rey ----------------
#NOTES:
     dance-single:
     B. M'Rey:
     Medium:
     4:
     0,0,0,0,0:
0000
0000
0000
0000
,
0000
0000
0000
0000
,
0000
0000
0000
0000
,
0000
0000
0000
0000
,
0000
0000
0000
0000
,
0000
0000
0000
0000
,
0000
0000
0000
0000
,
0000
0000
0000
0000
,
1000
0000
0001
0000
,
0100
0100
0010
0010
,
1000
0000
0100
0000
,
1000
1000
0010
1000
,
0001
0000
1000
0000
,
0010
0010
0001
0010
,
1000
0001
1000
0000
,
0010
0010
1000
0010
,
1000
0001
0000
0010
,
1000
0001
0010
0000
,
1000
0001
0000
0010
,
1000
1000
0010
0000
,
1000
0100
1000
0000
,
0001
0010
0001
0000
,
1000
0010
1000
0000
,
0001
0100
0001
0100
,
0020
0000
0000
0200
0000
0000
0000
0000
,
0330
0000
0000
0000
,
0001
0000
0000
0000
,
1000
0000
0000
0000
,
0200
0000
0000
0020
0000
0000
0000
0000
,
0330
0000
0000
0000
,
2000
0000
0000
0000
,
0000
0000
0000
3000
,
0102
0000
0000
0000
0010
0000
0000
2003
,
0010
0000
0100
0000
,
3002
0000
0000
0000
0100
0000
0000
2003
,
0000
0000
0010
0000
0000
0000
0001
3000
,
L002
0000
0000
0000
0100
0000
0000
2003
,
0010
0000
0001
0000
,
3002
0000
0000
0000
0010
0000
0000
2003
,
0000
0100
0000
3010
,
0220
0000
0000
0000
0000
0000
0330
2002
,
0000
0000
0000
0000
0000
0000
0000
3003
,
0022
0000
0000
0000
0000
0000
0033
2200
,
0000
0000
0000
0000
0000
0000
0000
3300
,
0200
0000
1000
0000
0000
1000
0300
2001
,
0000
0010
0000
3010
,
0001
0100
0001
0010
,
0100
1000
0010
0000
,
1000
0100
0010
0001
0000
0000
0001
0000
,
0010
0001
0100
0000
,
0010
0100
0001
0100
,
0010
0100
0001
0000
,
1000
0010
1000
0100
0000
0000
1000
0000
,
0010
0100
0010
0000
,
1000
0100
0010
0100
,
1000
0100
0010
0000
,
0001
0010
0100
1000
0000
0000
0010
0000
,
1000
0010
0100
0000
,
0001
0100
0010
0100
,
0001
0010
0001
0000
,
0100
1000
0100
0020
0000
0000
1030
0000
,
0100
1000
0010
0000
,
1000
1000
0100
0100
,
0010
0000
0001
0000
0100
0010
0100
0000
,
0002
1000
0000
1003
,
2000
0001
0000
0001
,
3020
0100
0000
0130
,
0001
0100
0001
0100
,
0020
1000
0000
1030
,
0200
0001
0000
0301
,
0020
1000
0000
1030
,
0001
0100
0010
1000
,
0001
0000
0000
000L
0000
0000
0010
0000
,
0000
00L0
0000
0000
0001
0000
0010
0000
,
0100
0000
0000
0L00
0000
0000
1000
0000
,
0000
L000
0000
0000
0100
0000
1000
0000
,
0010
0000
0000
00L0
0000
0000
0100
0000
,
0000
0L00
0000
0000
0010
0000
0100
0000
,
0001
0000
0000
000L
0000
0000
1000
0000
,
0000
L000
0000
0000
0001
1000
0001
0100
,
0020
0000
0000
0200
0000
0000
0000
0000
,
0000
0000
0000
0000
,
0000
0000
0000
0000
,
0000
0000
0000
0000
,
0330
0000
0000
0000
;

//--------------- dance-single - B. M'Rey ----------------
#NOTES:
     dance-single:
     B. M'Rey:
     Hard:
     8:
     0,0,0,0,0:
0000
0000
0000
0000
,
0000
0000
0000
0000
,
0000
0000
0000
0000
,
0000
0000
0000
0000
,
2000
0000
0000
0002
0000
0000
0000
0000
,
0000
0000
0000
0000
0000
0000
0000
3003
,
0200
0000
0000
0000
,
2000
0000
0000
0000
0000
0000
0000
3300
,
0001
1000
0001
0000
0001
0100
0010
1000
,
0000
0100
0001
1000
0000
1000
0001
1000
,
0100
0000
0100
0010
0000
1000
0100
1000
,
0001
0000
0010
1000
0000
0010
0100
0010
,
0100
0000
0010
1000
0000
0000
0001
1000
,
0000
1000
0010
0100
0000
1000
0010
0100
,
0001
1000
0001
1000
0000
0100
0010
1000
,
0100
0010
0001
1000
0000
1000
0001
0010
,
0001
0000
0010
0100
0000
0100
0001
1000
,
0000
1000
0010
1000
0000
0010
0001
0010
,
0100
0000
0001
1000
0000
0010
0001
0010
,
0000
1000
0001
1000
0000
0010
0100
0010
,
0100
0000
0001
1000
0000
1000
0010
0100
,
0000
0100
0001
0100
0000
1000
0001
0010
,
0001
1000
0010
0100
0000
1000
0001
1000
,
0000
0010
0001
0010
0000
0010
0100
1000
,
0200
0000
0000
0002
0000
0000
0303
1000
,
0100
1000
0010
0001
0000
0010
0001
0010
,
0001
0000
0100
0010
0000
0000
0100
0000
,
0010
1000
0010
0100
,
0002
0000
0000
2000
0000
0000
3003
0000
,
0100
0010
0100
0010
0000
0100
1000
0010
,
0000
0000
0100
0010
0000
0000
1000
0000
,
0010
0000
1000
0000
0001
0010
0100
0000
,
0001
1000
0010
0000
0010
1000
0001
0000
,
0001
0010
0001
0000
0100
1000
0100
0000
,
0100
0010
0001
0000
0001
0100
0001
0000
,
0100
0010
0100
0000
0100
1000
0001
0000
,
0010
1000
0100
0000
0100
0010
0100
0000
,
0001
1000
0010
0000
0010
0100
0010
0000
,
0001
0100
0001
0000
0001
1000
0010
0000
,
0010
0100
0010
0000
0001
1000
0001
0000
,
0100
0010
0100
0000
0001
0010
0001
0000
,
0001
1000
0010
0000
0100
0010
0100
0000
,
0100
1000
0001
0000
0001
0010
0100
0000
,
0100
1000
0100
0000
0001
0010
0001
0000
,
0100
1000
0100
0000
0100
0010
0001
0000
,
0001
1000
0001
0000
0100
1000
0100
0000
,
1001
0000
0100
0000
,
0010
0000
0001
0000
,
0010
1000
0010
1000
0000
0100
0001
0010
,
0100
0010
0001
0010
0000
0100
0001
0010
,
0100
0000
0001
0010
0000
0100
0010
0000
,
0001
0100
0001
1000
0000
1000
0100
0000
,
0010
0100
0001
0010
0000
0010
0001
1000
,
0010
0100
0010
0100
0000
1000
0001
1000
,
0001
0000
0001
0010
0000
0010
0001
1000
,
0001
0100
0001
0010
,
0100
0010
0100
1000
0000
0100
0010
1000
,
0010
1000
0100
0010
0000
1000
0010
1000
,
0010
0000
0001
0100
0000
1000
0001
0000
,
0010
1000
0001
1000
0000
0100
0010
0000
,
0010
1000
0001
0010
0000
0010
0001
1000
,
0001
0010
0001
0100
0000
1000
0010
1000
,
0001
0010
0001
0010
0000
1000
0010
0000
,
0010
1000
0001
1000
0000
0010
0100
0000
,
0001
0100
0001
0100
0001
1000
0010
0100
,
0001
0100
0001
0100
0010
1000
0010
1000
,
0010
0100
0001
0100
0001
0100
0010
1000
,
0001
1000
0001
1000
0100
0010
0100
0010
,
0100
1000
0010
0100
0010
0100
0010
1000
,
0001
0100
0001
0100
0001
1000
0010
1000
,
0010
1000
0001
0010
0001
0010
0001
0100
,
0010
0100
0010
0100
0001
1000
0010
0100
,
0010
0100
0001
0100
0010
1000
0010
1000
,
0010
0100
0001
0100
0010
0100
0010
1000
,
0010
1000
0001
1000
0001
0100
0010
0100
,
0010
0100
0001
0010
0001
0010
0001
0100
,
0010
0100
0010
0100
0001
1000
0001
1000
,
0001
0100
0010
0100
0010
0100
0001
0010
,
1000
0000
0000
0010
0000
0000
0100
0000
,
0000
0001
0000
0000
0010
0000
0100
0000
,
0002
0000
0000
0200
0000
0000
0000
0000
,
0000
0000
0000
0000
,
0000
0000
0000
0000
,
0000
0000
0000
0000
,
0303
0000
0000
0000
;
