#TITLE:e-motion;
#SUBTITLE:~virgin trance mix~;
#ARTIST:e.o.s (Remixed by -Nekomirin-);
#GENRE:TRANCE;
#CREDIT:B. M'Rey;
#MUSIC:e-motion ~virgin trance mix~.ogg;
#BANNER:e-motion ~virgin trance mix~.png;
#BACKGROUND:e-motion ~virgin trance mix~-bg.png;
#CDTITLE:./CDTITLES/DDR LEGACY.PNG;
#SAMPLESTART:30.918;
#SAMPLELENGTH:12.000;
#OFFSET:-0.067;
#BPMS:0.000=140.030;
#STOPS:64.000=2.999;

//--------------- dance-single - B. M'Rey ----------------
#NOTES:
     dance-single:
     B. M'Rey:
     Beginner:
     1:
     0,0,0,0,0:
0000
0000
0000
0000
,
0000
0000
0000
0000
,
0000
0000
0000
0000
,
0000
0000
0000
0000
,
0000
0000
0000
0000
,
0000
0000
0000
0000
,
0000
0000
0000
0000
,
0000
0000
0000
0000
,
0001
0000
0000
0000
,
0100
0000
0000
0000
,
0010
0000
0000
0000
,
1000
0000
0000
0000
,
0100
0000
0000
0000
,
0001
0000
0000
0000
,
1000
0000
0000
0000
,
0010
0000
0000
0000
,
1001
1000
0000
0000
,
0000
0010
0000
0100
,
0000
0001
0000
0000
,
0000
1000
0000
0010
,
0000
0100
0000
0000
,
0000
0001
0000
0000
,
0000
1000
0000
0010
,
0000
0100
0000
0001
,
0000
0001
0000
0000
,
0000
1000
0000
0010
,
0000
0100
0000
0000
,
0000
0010
0000
1000
,
0000
0001
0000
0100
,
0000
0010
0000
1000
,
0000
0010
0000
0100
,
0000
0010
0000
1000
,
0000
1001
0000
0000
,
0000
0000
0000
0000
,
0000
0000
0000
0000
,
0000
0000
0000
0000
,
0000
0100
0000
0000
,
0000
0010
0000
0000
,
0000
1000
0000
0000
,
0000
0000
0000
0000
,
0000
0001
0000
0000
,
0000
0010
0000
0000
,
0000
0100
0000
0000
,
0000
0000
0000
0000
,
0000
1000
0000
0000
,
0000
0010
0000
0000
,
0000
0100
0000
0000
,
0000
0000
0000
0000
,
0000
0001
0000
0010
,
0000
0001
0000
0100
,
0000
0010
0000
1000
,
0000
0100
0000
1000
,
0000
0010
0000
0100
,
0000
0010
0000
1000
,
0000
0001
0000
0010
,
0000
0001
0000
0100
,
0000
0010
0000
0000
,
0000
1000
0000
0000
,
0000
0001
0000
0000
,
0000
0010
0000
0100
,
0000
1000
0000
0000
,
0000
0010
0000
0000
,
0000
0100
0000
0000
,
0000
0001
0000
1000
,
0000
1001
0000
0000
,
0000
0000
0000
0000
,
0000
0010
0000
0000
,
0000
1000
0000
0010
,
0000
0100
0000
0000
,
0000
0001
0000
0010
,
0000
1000
0000
0000
,
0000
0100
0000
0010
,
0000
1000
0000
0001
,
0000
0010
0000
0100
,
0000
0001
0000
0000
,
0000
1000
0000
0010
,
0000
0100
0000
0000
,
0000
0010
0000
0001
,
0000
1000
0000
0000
,
0000
0010
0000
0000
,
0000
0100
0000
0000
,
0000
0010
0000
0000
,
0000
0000
1001
0000
;

//--------------- dance-single - B. M'Rey ----------------
#NOTES:
     dance-single:
     B. M'Rey:
     Easy:
     3:
     0,0,0,0,0:
0000
0000
0000
0000
,
0000
0000
0000
0000
,
0000
0000
0000
0000
,
0000
0000
0000
0000
,
0000
0000
0000
0000
,
0000
0000
0000
0000
,
0000
0000
0000
0000
,
0000
0000
0000
0000
,
0001
0000
0100
0000
,
0010
0000
1000
0000
,
0110
0000
0001
0000
,
0010
0000
0100
0000
,
1001
0000
0010
0000
,
0101
0000
0010
0000
,
1010
0000
0101
0000
,
0110
0000
1001
0000
,
1001
0010
1000
0010
,
1000
0010
0100
0001
,
0100
0001
0100
0010
,
1000
0010
1000
0010
,
0100
0001
0100
0001
,
0100
0010
1000
0010
,
1000
0010
0100
0001
,
0100
0001
0100
0010
,
1000
0010
1000
0010
,
0100
0001
0010
0001
,
0010
0001
1000
0010
,
0100
0010
0100
0010
,
1000
0001
1000
0001
,
1000
0100
0010
0100
,
0010
0100
1000
0001
,
1000
0001
1000
0100
,
0010
0001
0000
1000
,
0000
0010
0000
0100
,
0000
0010
0000
1000
,
0000
0001
0000
0010
,
0000
0100
0000
0000
,
0000
1000
0000
0000
,
0000
0001
0000
0000
,
0000
0000
0000
0000
,
0000
1000
0000
0010
,
0000
0100
0000
0001
,
0000
0010
0000
0001
,
0000
1000
0000
0000
,
0000
0010
0000
0100
,
0000
0001
0000
1000
,
0000
0010
0000
0100
,
0000
1001
0000
1001
,
0000
0100
1000
0100
,
0010
0100
1000
0001
,
0100
0010
1000
0100
,
1000
0010
0100
0010
,
1000
0001
0100
0001
,
0010
0100
1000
0100
,
0010
0001
0100
0010
,
1000
0100
0010
0001
,
0100
0001
0000
0100
,
0000
0010
0000
1000
,
0000
0001
0000
1000
,
0010
0100
0001
0010
,
0001
1000
0000
0010
,
0000
0100
0000
0001
,
0000
0010
0000
1000
,
0100
0001
0010
0100
,
0001
1001
0000
0000
,
0000
0000
0000
0000
,
0000
0010
0100
0010
,
0100
0010
1000
0100
,
1000
0100
1000
0010
,
0100
0001
0100
0010
,
0100
0010
1000
0010
,
1000
0100
1000
0100
,
0010
0100
0010
0001
,
0010
0001
1000
0001
,
1000
0010
1000
0010
,
0100
0010
0100
0001
,
1000
0001
1000
0001
,
0010
0100
0010
0001
,
1000
0001
1000
0001
,
0010
0100
0010
0100
,
1000
0100
1000
0001
,
1000
0001
0010
0001
,
0010
0200
0310
0000
;

//--------------- dance-single - B. M'Rey ----------------
#NOTES:
     dance-single:
     B. M'Rey:
     Medium:
     6:
     0,0,0,0,0:
0000
0000
0000
0000
,
0000
0000
0000
0000
,
0000
0000
0000
0000
,
0000
0000
0000
0000
,
0000
0000
0000
0000
,
0000
0000
0000
0000
,
0000
0000
0000
0000
,
0000
0000
0000
0000
,
0001
0000
0010
1000
0000
0000
0010
0000
,
0200
0000
0000
0320
0000
0000
2030
0000
,
3002
0000
0013
0100
0000
0000
0001
0000
,
2000
0000
0000
3020
0000
0000
0230
0000
,
0302
0000
0013
1000
0000
0000
0010
0000
,
0100
0000
0001
0100
0000
0000
0010
0000
,
1000
0000
0010
1000
0010
0000
0100
0001
,
1001
0110
0101
0110
,
2002
3003
0000
0000
0000
0000
0000
0000
0000
0000
0000
0000
0000
0000
0000
0000
0000
0000
0000
0000
0000
0000
0000
0000
0000
0000
0000
0000
0000
0000
0000
0000
0000
0000
0000
0000
0000
0000
0000
0000
0000
0000
0000
0000
0000
0000
0000
0000
0010
0000
0000
0000
0000
0000
0000
0000
0000
0000
0000
0000
0000
0000
0000
0000
0000
0000
0000
0000
0000
0000
0000
0000
0000
0000
0000
0000
0000
0000
0000
0000
0000
0000
0000
0000
0000
0000
0000
0000
0000
0000
0000
0000
0000
0000
0000
0000
0100
0000
0000
0000
0000
0000
0000
0000
0000
0000
0000
0000
0000
0000
0000
0000
0000
0000
0000
0000
0000
0000
0000
0000
0001
0000
0000
0000
0000
0000
0000
0000
0000
0000
0000
0000
0000
0000
0000
0000
0000
0000
0000
0000
0000
0000
0000
0000
0000
0000
0000
0000
0000
0000
0000
0000
0000
0000
0000
0000
0000
0000
0000
0000
0000
0000
0000
0000
0000
0000
0000
0000
0010
0000
0000
0000
0000
0000
0000
0000
0000
0000
0000
0000
0000
0000
0000
0000
0000
0000
0000
0000
0000
0000
0000
0000
,
1000
0010
0200
0000
0000
0320
0000
0000
,
2030
0000
3001
0100
0001
0100
0000
0010
,
1000
0010
0200
0000
0000
0320
0000
0000
,
2030
0000
3001
0100
0001
0100
0000
0010
,
1000
0000
0000
0000
0010
0000
0000
0000
0100
0000
0000
0000
0002
0000
0000
2003
,
0000
3020
0130
0000
0100
0000
0010
0000
,
1000
0001
0100
0010
,
0001
1000
0001
0000
0010
0100
0000
0001
,
0100
0001
0200
0000
0000
0320
0000
0000
,
2030
0000
3010
1000
0010
0100
0000
0001
,
0100
0010
2000
0000
0000
3020
0000
0000
,
0230
0000
0301
0000
0100
0001
0000
0010
,
1000
0000
0000
0000
0010
0000
0000
0000
0100
0000
0010
0000
0200
0000
0000
0302
,
0000
0023
1030
0000
0010
0000
0100
0000
,
0010
1001
0110
0101
,
1010
0001
1000
0001
,
1000
0001
0000
0000
0010
0000
0100
0000
,
0010
0100
0000
0000
0001
0000
1000
0000
,
0001
1000
0000
0000
0010
0000
0100
0000
,
0010
0100
2000
0000
0000
3001
0000
0000
,
0010
0000
0020
0000
0000
0031
0000
0000
,
0010
0000
0020
0000
0000
0130
0000
0000
,
0001
0000
2000
0000
0000
3010
0000
0000
,
0000
0000
0001
1000
0001
0000
0010
0000
,
0100
0000
0010
0100
0010
0000
1000
0000
,
0100
0000
0001
0010
0001
0000
0010
0000
,
0100
0000
0001
1000
0001
0000
0010
0000
,
0100
0000
1001
0000
0010
0100
0101
0000
,
0000
0000
0010
0000
1000
0010
1010
0000
,
0000
0000
0010
0000
0100
0001
0101
0000
,
0000
0010
1000
0001
,
0100
0000
0001
0000
1000
0000
0001
1000
,
0001
1000
0000
0100
0010
0000
0100
0010
,
0100
0010
0000
0001
0010
0000
1000
0001
,
1000
0001
0000
0010
0100
0000
0100
0010
,
0100
0010
0000
0100
1000
0000
0100
1000
,
0100
1000
0000
0100
0010
0000
0100
0010
,
0100
0010
0000
0001
0010
0000
0010
0001
,
0010
0001
0000
0010
0100
0000
0100
0010
,
0100
0000
2002
0000
3003
0202
0000
0303
,
0010
1000
2020
0000
3030
0220
0000
0330
,
0001
1000
2002
0000
3003
0220
0000
0330
,
0001
0100
0001
0000
0010
0000
1000
0000
,
0010
0000
0202
0000
0303
2020
0000
3030
,
0010
0100
0202
0000
0303
2020
0000
3030
,
0010
0100
0220
0000
0330
2020
0000
3030
,
0010
0100
0001
0000
1000
0000
0010
0000
,
0100
2002
0000
0000
,
0000
0000
0000
0000
,
3003
0000
0010
0000
0100
0010
0000
0001
,
0010
0001
0020
0000
0000
2030
0000
0000
,
3020
0000
0130
0000
0010
1000
0000
0010
,
1000
0010
0200
0000
0000
0320
0000
0000
,
0032
0000
0013
0000
0100
0010
0000
1000
,
0100
0000
0000
0000
0010
0000
0000
0000
0100
0000
0000
0000
0002
0000
0000
0023
,
0000
2030
3001
0000
0000
0000
0101
0000
,
0000
0110
0000
1010
,
0000
0000
0010
0000
0100
0001
0000
0010
,
1000
0010
0200
0000
0000
0320
0000
0000
,
0032
0000
1003
0010
1000
0001
0000
0100
,
0001
0100
0020
0000
0000
2030
0000
0000
,
3200
0000
0310
0000
1000
0001
0000
0010
,
0100
0000
1001
0000
0010
0100
0000
0001
,
1000
1010
0100
1001
,
0010
0101
0110
1001
,
0110
2002
3113
0000
;

//--------------- dance-single - B. M'Rey ----------------
#NOTES:
     dance-single:
     B. M'Rey:
     Hard:
     8:
     0,0,0,0,0:
0000
0000
0000
0000
,
0000
0000
0000
0000
,
0000
0000
0000
0000
,
0000
0000
0000
0000
,
0000
0000
0000
0000
,
0000
0000
0000
0000
,
0000
0000
0000
0000
,
0000
0000
0000
0000
,
0001
0010
0001
0100
0000
0010
1000
0010
,
0200
0000
0000
0302
0000
0000
0023
0000
,
0130
0010
0100
0010
0000
1000
0001
1000
,
0020
0000
0000
0230
0000
0000
0302
0000
,
0113
0010
0100
1000
0000
0001
0100
0010
,
0101
0000
0000
0000
0010
0000
0100
0000
0010
0000
0000
0001
0000
0000
1000
0000
,
0101
0000
0010
1000
1010
0000
0100
0010
,
1010
0011
0110
0011
,
2002
3003
0000
0000
0000
0000
0000
0000
0000
0000
0000
0000
0000
0000
0000
0000
0000
0000
0000
0000
0000
0000
0000
0000
0000
0000
0000
0000
0000
0000
0000
0000
0000
0000
0000
0000
0000
0000
0000
0000
0000
0000
0000
0000
0000
0000
0000
0000
0001
0000
0000
0000
0000
0000
0000
0000
0000
0000
0000
0000
0000
0000
0000
0000
0000
0000
0000
0000
0000
0000
0000
0000
1000
0000
0000
0000
0000
0000
0000
0000
0000
0000
0000
0000
0000
0000
0000
0000
0000
0000
0000
0000
0000
0000
0000
0000
0001
0000
0000
0000
0000
0000
0000
0000
0000
0000
0000
0000
0000
0000
0000
0000
0000
0000
0000
0000
0000
0000
0000
0000
1000
0000
0000
0000
0000
0000
0000
0000
0000
0000
0000
0000
0000
0000
0000
0000
0000
0000
0000
0000
0000
0000
0000
0000
0001
0000
0000
0000
0000
0000
0000
0000
0000
0000
0000
0000
0000
0000
0000
0000
0000
0000
0000
0000
0000
0000
0000
0000
0010
0000
0000
0000
0000
0000
0000
0000
0000
0000
0000
0000
0000
0000
0000
0000
0000
0000
0000
0000
0000
0000
0000
0000
,
0100
0010
0100
0010
0001
1000
0001
0100
,
0001
0100
0010
0100
0001
1000
0001
1000
,
0001
0100
0010
0100
0010
0100
0001
1000
,
0001
1000
0001
0100
0010
0100
0010
0100
,
0001
1000
0001
1000
0001
0100
0010
0100
,
0010
0100
0001
1000
0100
1000
0100
0010
,
0100
0010
0001
0010
0100
1000
0100
1000
,
0001
1000
0010
0100
0010
0100
0010
1000
,
0100
1000
0100
1000
0001
0010
0001
0010
,
0001
0100
0010
1000
0010
1000
0001
1000
,
0010
0100
0010
0100
0010
1000
0001
0100
,
0001
1000
0011
0000
0100
0010
0100
0000
,
0001
0000
1000
0000
1001
0000
0000
0000
0001
0000
0100
0000
0010
0000
0000
0100
,
0000
0010
1001
0000
0001
0010
0011
0000
,
0100
1000
1100
0000
1001
0000
0101
0000
,
1001
0000
0000
0000
0001
0000
1000
0000
0000
0010
0000
0000
0100
0000
0000
0010
,
0000
0000
0100
0000
0000
0000
0100
0000
0000
0010
0000
0000
1000
0000
0000
0001
,
0000
0000
0010
0000
0000
0000
0010
0000
0000
0001
0000
0000
0100
0000
0000
0001
,
0000
0000
1000
0000
0000
0000
1000
0000
0000
0010
0000
0000
0100
0000
0000
0010
,
0000
0010
0002
0000
0000
2003
0000
0000
,
3010
0100
0002
0000
0000
0023
0000
0000
,
1030
0100
2000
0000
0000
3020
0000
0000
,
0130
0010
0100
0000
0000
1000
0000
0000
,
0001
0100
0001
0000
0001
1000
0001
0000
,
0010
0100
0001
0000
0010
1000
0010
0000
,
0010
0100
0001
0000
0100
1000
0001
1000
,
0001
0100
0001
0000
0100
1000
0001
1000
,
0001
0010
0001
0000
0100
0010
0100
0000
,
0100
1000
0001
0000
0001
0100
0010
0000
,
0001
0010
0011
0000
1001
0000
1010
0000
,
0010
1000
0101
0000
0101
0000
1001
0000
,
1010
0000
0000
0000
0100
0000
0100
1000
0000
0010
0001
0000
0001
0010
0000
1000
,
0100
0000
0100
0000
0000
0000
0001
0010
0000
1000
0010
0000
0010
1000
0000
0010
,
0100
0000
0100
0000
0000
0000
0100
1000
0000
0010
0100
0000
0010
0000
1000
0000
,
0010
0000
1000
0000
0000
0000
0001
1000
0000
0100
0010
0000
0001
1000
0000
1000
,
0100
0000
0001
0000
0000
0000
0001
0100
0000
0100
0010
0000
0001
1000
0000
1000
,
0001
0000
0100
0000
0000
0000
0001
1000
0000
0100
0010
0000
0010
0100
0000
1000
,
0010
0000
0010
0000
0000
0000
0100
0010
0000
0010
0001
0000
0001
0000
1000
0000
,
0001
0000
1000
0000
0000
0000
0001
1000
0000
0100
0001
0000
0100
1000
0000
1000
,
0001
0000
0001
1000
0200
0000
0000
0000
0001
0000
0302
0000
0000
0000
0000
0000
,
0103
0000
0020
0000
1000
2030
0000
0000
,
3100
0000
0020
0000
0100
0100
0031
1000
,
0001
0000
1000
0000
0010
0000
0001
0010
0000
0010
0001
0000
0010
1000
0000
1000
,
0010
0001
0020
0000
0100
0230
0000
0000
,
1300
0000
0002
0000
0010
0023
0000
0000
,
0130
0000
0002
0000
1000
1003
1000
0001
,
1000
0000
0001
0000
0010
0000
0010
1000
0000
1000
0001
0000
0010
0100
0000
1000
,
0100
0000
0010
1000
0200
0000
0000
0000
0000
0000
0000
0000
0000
0000
0000
0000
,
0000
0000
0000
0000
,
0000
0000
0301
1000
0001
1000
0001
0100
,
0010
0100
0010
0100
0001
1000
0010
1000
,
0100
1000
0100
0010
0100
0010
0001
0010
,
0100
1000
0100
1000
0100
0010
0001
0010
,
0001
0010
0100
1000
0100
1000
0100
0010
,
0001
0010
0001
0010
0100
1000
0010
1000
,
0100
1000
0100
0010
0100
0010
0001
0010
,
0001
1000
0001
1000
0100
0010
0100
0010
,
0100
1000
1010
0000
0010
0100
0010
0100
,
0001
0100
0020
0100
0100
2030
0000
0100
,
3200
0001
0301
0000
0010
1000
0010
1000
,
0010
0100
0002
0100
0103
0200
0000
1000
,
0320
1000
0131
0000
0010
0100
0001
0010
,
0100
0010
0011
0000
0001
0100
0001
0100
,
0010
0100
1010
0000
0110
0000
0101
0000
,
0110
1010
0110
0101
,
0110
2020
3131
0000
;
