#TITLE:ZⅣ;
#ARTIST:X-XL;
#TITLETRANSLIT:ZIV;
#GENRE:HARDCORE;
#CREDIT:B. M'Rey;
#MUSIC:ZIV.ogg;
#BANNER:ZIV-bn.png;
#BACKGROUND:ZIV-bg.png;
#CDTITLE:./CDTITLES/DDR LEGACY.PNG;
#SAMPLESTART:12.000;
#SAMPLELENGTH:12;
#OFFSET:-0.014;
#BPMS:0=199.940,32=99.970,36=199.940,64=399.880,72=199.940,100=399.880,108=99.970,125.5=199.940,165=99.970,189=199.940,221=399.880,285=99.970;
#STOPS:164.938=2.401,546.125=2.000;
#DISPLAYBPM:*;
#BGCHANGES:0.000=ZIV.avi=1.000=0=0=1,;

//--------------- dance-single - B. M'Rey ----------------
#NOTES:
     dance-single:
     B. M'Rey:
     Beginner:
     2:
     0.176,0.262,0.05,0.05,0.005:
0000
0000
0000
0000
,
0000
0000
0000
0000
,
0000
0000
0000
0000
,
0000
0000
0000
0000
,
1000
0000
0010
0000
,
0100
0000
0001
0000
,
0010
0000
0100
0000
,
1000
0000
0001
0000
,
0100
0000
0000
0000
,
1000
0000
0010
0000
,
0100
0000
0001
0000
,
0010
0000
1000
0000
,
0100
0010
0100
0010
,
0100
0000
0001
0000
,
1000
0000
0010
0000
,
0100
0000
0001
0000
,
0010
0000
0000
0000
,
1001
0000
0000
0000
,
0010
0000
1000
0000
,
0010
0000
0100
0000
,
0001
0000
0010
0000
,
1000
0100
1000
0100
,
1000
0000
0010
0000
,
0100
0000
0001
0000
,
0010
0000
0100
0000
,
1000
0000
0000
0000
,
1001
0000
0000
0000
,
0001
0000
0000
0000
,
0000
0100
0000
0000
0000
0000
0000
0000
,
0000
0000
0000
0010
0000
0000
0000
0000
0000
0000
0000
0000
0000
0000
0000
0000
,
0000
0001
0000
0000
,
0000
1000
0000
0001
,
0000
0100
0000
0010
,
0000
1000
0000
0001
,
0000
0100
0010
0001
,
0010
0100
0000
1000
,
0000
0010
0000
0100
,
0000
0001
0000
0010
,
0000
1000
0000
0010
,
0000
2002
0000
0000
,
0000
0000
0000
0000
,
0000
0000
0000
0000
0000
0000
0000
0000
0000
0000
0000
0000
0000
0000
0000
3003
0010
0000
0000
0000
0000
0000
0000
0000
0000
0000
0000
0000
0000
0000
0000
0000
0000
0000
0000
0000
0000
0000
0000
0000
0000
0000
0000
0000
0000
0000
0000
0000
0000
0000
0000
0000
0000
0000
0000
0000
0000
0000
0000
0000
0000
0000
0000
0000
,
0000
1000
0000
0000
,
0000
0001
0000
0000
,
0000
0100
0000
0000
,
0000
0001
0000
0000
,
0000
2000
0000
0000
,
0000
3001
0000
0100
,
0000
0010
0000
1000
,
0000
0001
0000
0100
,
0000
1000
0100
0010
,
0001
0010
0000
0100
,
0000
1000
0000
0001
,
0000
0100
0000
0010
,
0000
1000
0000
0000
,
0000
1000
0000
0000
,
0000
0001
0000
0000
,
0000
0100
0000
0000
,
0000
0010
0000
0000
,
0000
1000
0000
0000
,
0000
0100
0000
0000
,
0000
1000
0000
0000
,
0000
0010
0000
0000
,
0000
0001
0000
0000
,
0000
0100
0000
0000
,
0000
0010
0000
0000
,
0000
1000
0000
0000
,
0000
0001
0000
0000
,
0000
0010
0000
0000
,
0000
0001
0000
0000
,
0000
0100
0000
0000
,
0000
1001
0000
0000
,
0000
0010
0000
0100
,
1000
0001
0000
0100
,
0000
0220
0000
0000
,
0000
0330
0000
0000
;

//--------------- dance-single - B. M'Rey ----------------
#NOTES:
     dance-single:
     B. M'Rey:
     Easy:
     5:
     0.327,0.412,0.03,0.139,0.03:
0000
0000
0000
0000
,
0000
0000
0000
0000
,
0000
0000
0000
0000
,
0000
0000
0000
0000
,
1000
0010
0100
0001
,
0010
0100
1000
0100
,
0010
0001
0010
0100
,
0010
1000
0100
0001
,
0010
0000
0000
0000
,
1000
0100
0010
0001
,
0010
0100
0010
1000
,
0100
0001
0010
0100
,
0010
1000
0010
0000
0100
0010
0001
0000
,
1000
0001
0010
0100
,
0001
0010
1000
0100
,
0010
0001
0100
0010
,
2000
0000
0000
0000
,
0000
0000
0000
0000
,
3001
0010
1000
0100
,
0010
0001
0010
0100
,
0010
1000
0100
0001
,
0010
1000
0100
0000
0001
0100
0010
0000
,
1000
0001
0010
0100
,
0010
0001
0010
1000
,
0010
0100
0001
0100
,
0020
0000
0000
0000
,
0000
0000
0000
0000
,
1030
0000
0000
0000
,
0000
0001
0000
0000
0000
0000
0000
0000
,
0000
0000
0000
0100
0000
0000
0000
0000
0010
0000
0000
0000
0001
0000
0000
0000
,
1000
0010
0001
1000
,
0010
0001
0010
0100
,
0010
0001
0010
1000
,
0010
0100
0010
0001
,
0100
0000
0010
1000
0100
0000
0001
0010
,
0100
0010
1000
0100
,
0001
0010
0100
0010
,
1000
0100
0001
0010
,
0100
2000
0000
0000
,
0000
0002
0000
0000
,
0000
0000
0000
0000
,
0000
0000
0000
0000
0000
0000
0000
0000
0000
0000
0000
0000
0000
0000
0000
3003
0010
0000
0000
0000
0000
0000
0000
0000
0000
0000
0000
0000
0100
0000
0000
0000
0000
0000
0000
0000
0000
0000
0000
0000
0000
0000
0000
0000
0000
0000
0000
0000
0000
0000
0000
0000
0000
0000
0000
0000
0000
0000
0000
0000
0000
0000
0000
0000
,
0000
0000
1000
0000
1000
0000
0000
0100
0000
0000
0010
0000
0000
0000
0000
0000
,
0001
0000
0001
0000
0010
0000
0000
0100
0000
0000
1000
0000
0000
0000
0000
0000
,
0000
0000
0100
0000
0100
0000
0000
0010
0000
0000
0001
0000
0000
0000
0000
0000
,
1000
0000
1000
0000
0100
0000
0000
0010
0000
0000
0001
0000
0000
0000
0000
0000
,
0000
0010
2000
0000
0000
0000
0000
0000
,
0000
0000
0000
0000
0000
0000
0000
0000
0000
0000
0000
0000
0000
0000
0000
3000
0001
0000
0000
0000
0000
0000
0000
0000
0000
0000
0000
0000
0000
0000
0000
0000
0010
0000
0000
0000
0000
0000
0000
0000
0000
0000
0000
0000
0000
0000
0000
0000
0100
0000
0000
0000
0000
0000
0000
0000
0000
0000
0000
0000
0000
0000
0000
0000
,
1000
0010
0100
0001
,
0010
0100
0010
1000
,
0100
0000
0001
0010
0100
0000
1000
0100
,
0010
0001
0100
0010
,
1000
0100
0001
0010
,
0100
0010
1000
0010
,
0100
1001
0000
0000
,
0000
1000
0000
0001
,
0000
1000
0000
0001
,
0000
1000
0000
0001
,
0000
1000
0000
0001
,
0000
0010
0000
0100
,
0000
0010
0000
0100
,
0000
0010
0000
0100
,
0000
0010
0000
0100
,
0000
0001
0000
1000
,
0000
0010
0000
0100
,
0000
0001
0000
1000
,
0000
0010
0000
0100
,
0000
0001
0000
1000
,
0000
0010
0000
0100
,
0000
0001
0000
1000
,
0000
0010
0000
0100
,
0000
2002
0000
0000
,
0000
0000
0000
0000
0000
0000
0000
0000
0000
0000
0000
0000
0000
0000
0000
3003
0200
0000
0000
0000
0000
0000
0000
0000
0000
0000
0000
0000
0000
0000
0000
0000
0000
0000
0000
0000
0000
0000
0000
0000
0000
0000
0000
0000
0000
0000
0000
0000
0320
0000
0000
0000
0000
0000
0000
0000
0000
0000
0000
0000
0000
0000
0000
0000
,
0032
0023
0000
0230
,
0000
2302
0000
0000
,
0000
3003
0000
0000
;

//--------------- dance-single - B. M'Rey ----------------
#NOTES:
     dance-single:
     B. M'Rey:
     Medium:
     8:
     0.411,0.675,0.06,0.169,0.025:
0000
0000
0000
0000
,
0000
0000
0000
0000
,
0000
0000
0000
0000
,
0000
0000
0000
0000
,
1000
0010
1000
0010
1000
0001
0010
0100
,
0010
0001
1000
0100
0010
0100
0010
0001
,
1000
0010
0100
0001
1000
0010
0100
0001
,
1000
0100
0010
1001
0100
1000
0001
0010
,
0002
0000
0000
0000
,
1003
0000
1000
0100
0000
0100
0000
0010
,
0001
0010
0001
0010
,
0100
0000
1000
0100
0000
0010
0000
1000
,
0100
0001
0000
0001
0010
0100
0000
0000
,
0100
0000
1000
0100
0000
0001
0000
0100
,
0001
0010
0100
1000
,
0001
0000
0010
1000
0000
0001
0000
1000
,
0010
0100
0001
1001
,
0001
0010
0100
1000
,
0010
0000
1000
0100
0000
0001
0000
0010
,
0001
1000
0010
1000
,
0100
0000
0010
1000
0000
0100
0000
0010
,
0001
0010
1000
0000
0100
0001
1000
0000
,
0010
0000
0100
1000
0000
0001
0000
1000
,
0100
1000
0001
0100
,
0010
0000
1000
0100
0000
0010
0000
0100
,
0001
1000
0010
0100
,
0001
1000
0100
0010
,
2000
0000
0000
0000
,
0000
3002
0000
0000
0000
0000
0000
0000
,
0000
0103
1000
0010
,
0100
0000
0001
0100
0010
0001
0100
0010
,
1000
0100
0010
0001
1000
0100
0000
0001
,
0000
0100
1000
0000
0001
0000
0010
0000
,
0100
0000
1000
0000
0010
0001
0000
0100
,
0000
0001
1000
0010
0100
0000
0010
0100
,
0001
0000
0100
0000
0001
0010
0000
1000
,
0000
0100
1000
0000
0100
0000
0010
0000
,
0100
0000
0010
0000
0001
0010
0000
1000
,
0000
0001
0100
0000
0001
0000
0010
0000
,
0100
2002
0000
0000
,
0000
0000
0000
0000
,
0000
0000
0000
0000
0000
0000
0000
0000
0000
0000
0000
0000
0000
0000
0000
3003
0010
0000
0000
0000
0000
0000
0000
0000
0000
0000
0000
0000
0100
0000
0000
0000
0000
0000
0000
0000
0000
0000
0000
0000
0000
0000
0000
0000
0000
0000
0000
0000
0000
0000
0000
0000
0000
0000
0000
0000
0000
0000
0000
0000
0000
0000
0000
0000
,
0000
0000
1000
0000
1000
0000
0000
0100
0000
0000
0010
0000
0000
0000
0000
0000
,
0001
0000
0001
0000
0010
0000
0000
0100
0000
0000
1000
0000
0000
0000
0000
0000
,
0000
0000
0100
0000
0100
0000
0000
0010
0000
0000
0001
0000
0000
0000
0000
0000
,
1000
0000
1000
0000
0100
0000
0000
0010
0000
0000
0001
0000
0000
0000
0000
0000
,
0000
0010
2000
0000
0000
0000
0000
0000
,
0000
0000
0000
0000
0000
0000
0000
0000
0000
0000
0000
0000
0000
0000
0000
3000
0010
0000
0000
0000
0000
0000
0000
0000
0000
0000
0000
0000
0000
0000
0000
0000
1000
0000
0000
0000
0000
0000
0000
0000
0100
0000
0000
0000
0000
0000
0000
0000
0000
0000
0000
0000
0000
0000
0000
0000
0001
0000
0000
0000
0000
0000
0000
0000
,
0000
0100
1000
0000
0001
0000
0010
0000
,
0100
0000
1000
0000
0010
0001
0000
0100
,
0000
0001
1000
0010
0100
0000
0010
0100
,
0001
0000
0100
0000
0001
0010
0000
1000
,
0000
0100
1000
0000
0100
0000
0010
0000
,
0100
0000
0010
0000
0001
0010
0000
1000
,
0000
0001
2002
0000
0000
0000
0000
0000
,
0000
3003
0001
0000
0000
0000
1000
0000
,
0000
0001
0000
0100
,
0000
0010
0000
0010
,
0000
0100
0000
0001
,
0000
0100
0000
0001
,
0000
0001
0000
0010
,
0000
1000
0000
0100
,
0000
1000
0000
0010
,
0000
0001
0000
0001
,
0000
0100
0000
0100
,
0000
0100
0000
1000
,
0000
1000
0000
0100
,
0000
0010
0000
1000
,
0000
0010
0000
0100
,
0000
0010
0000
0010
,
0000
0001
0000
0001
,
0000
2020
0000
0000
,
0000
0000
0000
0000
0000
0000
0000
0000
0000
0000
0000
0000
0000
0000
0000
3030
0002
0000
0000
0000
0000
0000
0000
0000
0000
0000
0000
0000
0000
0000
0000
0000
0000
0000
0000
0000
0000
0000
0000
0000
0000
0000
0000
0000
0000
0000
0000
0000
0203
0000
0000
0000
0000
0000
0000
0000
0000
0000
0000
0000
0000
0000
0000
0000
,
2300
3200
0000
0302
,
0000
2023
0000
0000
,
0000
3030
0000
0000
;

//--------------- dance-single - B. M'Rey ----------------
#NOTES:
     dance-single:
     B. M'Rey:
     Hard:
     10:
     0.638,0.974,0.279,0.159,0.08:
0000
0000
0000
0000
,
0000
0000
0000
0000
,
0000
0000
0000
0000
,
0000
0000
0000
0000
,
1000
0000
0010
0000
1000
0000
0010
0000
1000
0000
0001
0100
0000
0100
0001
0000
,
1000
0000
0100
0000
1000
0000
0100
0000
1000
0000
0010
1000
0000
1000
0000
0010
,
0100
0000
0001
0000
0100
0000
0001
0000
0100
0000
1000
0100
0000
0100
0000
0010
,
0001
0010
0001
0010
0100
1000
0100
1000
,
0020
0000
0000
0230
,
0310
1000
0001
0100
0001
0010
0100
1000
,
0001
0010
0100
1000
0010
0100
0001
1001
,
0001
0010
0100
1000
0010
1000
0001
0100
,
0001
1000
0010
1000
0100
0010
0001
0011
,
0001
1000
0100
1000
0010
0100
0001
0010
,
0100
1000
0001
0100
0010
1000
0001
1001
,
0001
1000
0010
0100
0001
1000
0100
0010
,
0001
0010
0100
1000
,
0010
0100
0001
1001
,
1000
0100
1000
0010
0100
0001
0010
0110
,
0100
1000
0010
0100
0001
1000
0100
0010
,
0001
0100
0001
1000
0010
1000
0100
1100
,
0100
0010
0001
1000
0010
0100
0001
0010
,
0100
1000
0001
1000
0010
0100
0001
1001
,
1000
0010
1000
0100
0010
0001
0100
0001
,
1000
0010
0100
0001
1000
0100
0010
0100
,
0001
1000
0010
0100
,
0001
0000
1000
0000
0100
0010
0001
0010
,
0200
0000
0000
0000
,
0000
2300
0000
0000
0000
0000
0000
0000
,
0000
0000
0000
3000
0010
0000
0000
0000
0110
0000
0000
0000
1001
0000
0000
0000
,
1001
0000
0000
0000
0110
0000
1001
0000
0110
0000
1001
0000
0010
0100
0010
0001
,
1000
0001
0100
0010
0100
0010
1000
0000
0100
0000
0010
0000
1000
0000
0100
0000
,
1000
0010
0100
0001
0010
0100
1000
0010
,
0100
0001
1000
0110
0001
1000
0100
0010
,
0001
0100
0010
1000
0001
0010
0110
0011
,
0110
1010
0100
0001
0010
0100
1000
0010
,
1000
0010
0100
0001
0010
0100
1000
0010
,
0100
1000
0010
0100
0001
1000
0100
1000
,
0010
0100
0001
0110
0101
0110
1100
0110
,
0110
0011
2002
0000
0000
0000
0000
0000
,
0000
0000
0000
0000
,
0000
0000
0000
0000
0000
0000
0000
0000
0000
0000
0000
0000
0000
0000
0000
3003
1000
0000
0000
0000
0000
0000
0000
0000
0000
0000
0000
0000
0000
0000
0000
0000
1000
0000
0000
0000
0000
0000
0000
0000
0000
0000
0000
0000
0000
0000
0000
0000
1000
0000
0000
0000
0000
0000
0000
0000
0000
0000
0000
0000
0000
0000
0000
0000
,
1000
0100
0010
0000
0010
0000
0010
0000
,
0010
0001
0100
0000
0100
0000
0100
0000
,
0100
0010
0001
0000
0001
0000
0001
0000
,
0001
0010
1000
0000
1000
0000
1000
0000
,
1000
0001
0200
0020
0000
0000
0000
0000
,
0330
0000
0010
0100
0010
0000
1000
0000
0010
0000
1000
0000
0001
0000
0010
0000
,
0100
1000
0010
0100
0001
0010
0001
0100
,
0010
1000
0100
1000
0010
0100
0001
0010
,
0100
1000
0010
0100
0010
0100
0010
0100
,
0010
0100
0010
1000
0001
0010
0100
1000
,
0010
1000
0001
0100
0010
0100
0001
0010
,
0100
0010
0001
1000
0100
0010
0100
1000
,
0010
0000
0100
0000
0002
0000
1000
0000
0000
0000
1003
0000
0001
0100
0001
0000
,
1000
0100
1000
0000
0001
0000
0000
0000
0000
0000
0000
0000
1000
0000
0000
0000
,
0000
0010
0100
0010
,
0100
0001
0000
1000
,
0000
0100
0010
0100
,
0010
0001
0000
1000
,
0000
0100
1000
0100
,
1000
0100
0000
0010
,
0000
0000
0001
1000
0001
0000
0100
0000
,
0000
0010
0000
1000
,
0001
1000
0001
1000
,
0000
0010
0000
0100
,
0001
0100
0001
0100
,
0000
0010
0000
1000
,
0100
1000
0010
1000
,
0001
0100
0001
1000
,
0010
0000
1000
0000
0001
0000
1000
0001
,
1000
2001
0000
0000
,
0000
0000
0000
0000
0000
0000
0000
0000
0000
0000
0000
0000
0000
0000
0000
3000
0020
0000
0000
0000
0000
0000
0000
0000
0000
0000
0000
0000
0000
0000
0000
0000
0000
0000
0000
0000
0000
0000
0000
0000
0000
0000
0000
0000
0000
0000
0000
0000
0230
0000
0000
0000
0000
0000
0000
0000
0000
0000
0000
0000
0000
0000
0000
0000
,
0302
2003
0000
3002
,
0000
2000
0000
0000
,
0000
3003
0000
0000
;
