#TITLE:WILLY USE A BILLY...BOY;
#ARTIST:E-ROTIC;
#GENRE:EURODANCE;
#CREDIT:B. M'Rey;
#MUSIC:WILLY USE A BILLY...BOY.ogg;
#BANNER:WILLY USE A BILLY...BOY-bn.png;
#BACKGROUND:WILLY USE A BILLY...BOY-bg.png;
#CDTITLE:./CDTITLES/DANCEMANIA EXTRA.PNG;
#SAMPLESTART:55.900;
#SAMPLELENGTH:12.000;
#OFFSET:0.664;
#BPMS:0.000=143.640;

//--------------- dance-single - B. M'Rey ----------------
#NOTES:
     dance-single:
     B. M'Rey:
     Beginner:
     1:
     0.073,0.082,0,0.043,0:
0000
0000
0000
0000
,
0000
0000
0000
0000
,
0000
0000
0000
0000
,
0000
0000
0000
0000
,
0000
0000
0000
0000
,
0000
0000
0000
0000
,
0000
0000
0000
0000
,
0000
0000
0000
0000
,
0000
0000
0000
0000
,
0000
0000
0000
1000
,
0000
0000
0000
0001
,
0000
0000
0000
0100
,
0000
0000
0000
0010
,
0000
0000
0000
1000
,
0000
0000
0000
0001
,
0000
0000
0000
0100
,
0000
0000
0000
0010
,
0000
0000
0000
1000
,
0000
0000
0000
0100
,
0000
0000
0000
1000
,
0000
0000
0000
0001
,
0000
0000
0000
0010
,
0000
0000
0000
0001
,
0000
0000
0000
0100
,
0000
0000
0000
0010
,
0000
0000
0000
1000
,
0000
0000
0000
0100
,
0000
0000
0000
1000
,
0000
0000
0000
0001
,
0000
0000
0000
0010
,
0000
0000
0000
0001
,
0000
0000
0000
0100
,
0000
0000
0000
0010
,
0000
0000
0000
1000
,
0000
0000
0000
0100
,
0000
0000
0000
0001
,
0000
0000
0000
0010
,
0000
0000
0000
0001
,
0000
0000
0000
0100
,
0000
0000
0000
0010
,
0000
0000
0000
1000
,
0000
0000
0000
0100
,
0000
0000
0000
1000
,
0000
0000
0000
0001
,
0000
0000
0000
0010
,
0000
0000
0000
0001
,
0000
0000
0000
0100
,
0000
0000
0000
0010
,
0000
0000
0000
1000
,
0000
0000
0000
0001
,
0000
0000
0000
0100
,
0000
0000
0000
0010
,
0000
0000
0000
1000
,
0000
0000
0000
0001
,
0000
0000
0000
0010
,
0000
0000
0000
0100
,
0000
0000
0000
0001
,
0000
0000
0000
0100
,
0000
0000
0000
2000
,
0000
0000
0000
3002
,
0000
0000
0000
0203
,
0000
0000
0000
0320
,
0000
0000
0000
0032
,
0000
0000
0000
0003
;

//--------------- dance-single - B. M'Rey ----------------
#NOTES:
     dance-single:
     B. M'Rey:
     Easy:
     2:
     0.161,0.223,0.009,0.052,0:
0000
0000
0000
0000
,
0000
0000
0000
0000
,
0000
0000
0000
0000
,
0000
0000
0000
0000
,
0000
0000
0000
0000
,
0000
0000
0000
0000
,
0000
0000
0000
0000
,
0000
0000
0000
0000
,
0000
0000
0000
0000
,
0000
0000
0000
1000
,
0000
0000
0000
0010
,
0000
0000
0000
0100
,
0000
0000
0000
0001
,
0000
0000
0000
0010
,
0000
0000
0000
1000
,
0000
0000
0000
0001
,
0000
0000
0000
0100
,
0000
0000
0000
0001
,
0000
1000
0000
0010
,
0000
0100
0000
0001
,
0000
0010
0000
0100
,
0000
0010
0000
1000
,
0000
0001
0000
0010
,
0000
0001
0000
0100
,
0000
0010
0000
1000
,
0000
0100
0000
1000
,
0100
0001
0000
0010
,
0100
0001
0000
0100
,
0001
0010
0000
1000
,
0100
0010
0000
1000
,
0001
0100
0000
0010
,
0100
1000
0000
0010
,
0100
0001
0000
0010
,
1000
0100
0000
1001
,
0000
0000
0000
1000
,
0010
0100
0000
0001
,
0010
0100
0000
1000
,
0100
0001
0100
0010
,
1000
0010
0100
0001
,
0000
0010
0100
1000
,
0000
0100
0001
1000
,
0010
0100
0001
0010
,
0100
1000
0100
0010
,
0000
0001
0010
0100
,
0000
1000
0010
0100
,
0010
0001
0100
0010
,
0000
1000
0010
0100
,
0000
0001
0010
0100
,
0000
1000
0100
0010
,
0001
0100
0010
1000
,
0100
0000
0000
0100
,
0000
0001
0000
0100
,
0000
0010
0000
1000
,
0000
0001
0000
0100
,
0000
0001
0000
0100
,
0000
0001
0000
0100
,
0000
0010
0000
1000
,
0000
0001
0000
1000
,
0000
0010
0000
2000
,
0000
0000
0000
3200
,
0000
0000
0000
0320
,
0000
0000
0000
0032
,
0000
0000
0000
0023
,
0000
0000
0000
0230
,
0000
0000
0000
0300
;

//--------------- dance-single - B. M'Rey ----------------
#NOTES:
     dance-single:
     B. M'Rey:
     Medium:
     6:
     0.299,0.481,0.069,0.069,0:
0000
0000
0000
0000
,
0000
0000
0000
0000
,
0000
0000
0000
0000
,
0000
0000
0000
0000
,
0000
0000
0000
0000
,
0000
0000
0000
0000
,
0000
0000
0000
0000
,
0000
0000
0000
0000
,
0000
0000
0000
0000
,
0000
0000
0000
1000
,
0000
0000
0000
0010
,
0000
0000
0000
0100
,
0000
0000
0000
0001
,
0000
0000
0000
0010
,
0000
0000
0000
1000
,
0000
0000
0000
0001
,
0000
0000
0000
1001
,
1001
1001
1001
1000
,
0001
0010
0100
1000
,
0100
0001
0010
0001
,
1000
0010
0100
0001
,
0100
0010
0001
0010
,
0100
0010
1000
0100
,
0001
0010
0100
0010
,
0001
1000
0100
0010
,
1000
0100
0001
0010
,
0100
0000
1000
0100
0001
0010
0100
0001
,
1000
0100
0010
0001
0010
0000
0100
1000
,
0001
0010
0100
0010
0001
1000
0010
0100
,
0010
0000
1000
0000
0100
0000
0010
0100
,
0001
0010
1000
0100
0001
0010
0100
0010
,
0001
1000
0010
0100
0010
0001
0100
0010
,
1000
0100
0001
0010
0100
0010
0001
1000
,
0010
0100
0001
0010
0200
0000
0310
0000
,
0000
0000
0000
0001
,
0100
0000
1000
0100
0001
0010
0100
0000
,
1000
0000
0001
0010
0001
0100
0010
0000
,
1000
0001
0010
0001
,
0100
0000
0010
0100
1000
0010
0001
0000
,
0100
0000
1000
0001
0010
0100
1000
0000
,
0001
0000
0010
0100
0001
1000
0010
0000
,
0001
1000
0010
0100
,
0001
1000
0010
0100
0001
0010
0100
0000
,
0010
0000
1000
0001
0010
0100
0001
0000
,
0010
0000
1000
0001
0010
0100
0010
0000
,
1000
0001
0010
0001
,
0100
0000
0001
1000
0010
0100
0010
0000
,
0001
0000
0010
1000
0100
0001
0010
0000
,
0100
0000
0001
1000
0010
0100
0001
0000
,
1000
0010
0100
1001
,
0110
1001
0110
0001
,
0010
0100
0001
1000
,
0010
0100
0001
1000
,
0010
0100
0001
0010
,
1000
0010
0100
0001
,
0010
0100
0001
0100
,
0010
1000
0100
0001
,
0010
0100
0010
1000
,
0100
0001
0010
0200
,
0000
0000
0000
0320
,
0000
0000
0000
0032
,
0000
0000
0000
2003
,
0000
0000
0000
3200
,
0000
0000
0000
2300
,
0000
0000
0000
3020
,
0000
0000
0000
0030
;

//--------------- dance-single - B. M'Rey ----------------
#NOTES:
     dance-single:
     B. M'Rey:
     Hard:
     7:
     0.421,0.489,0.319,0.069,0.194:
0000
0000
0000
0000
,
0000
0000
0000
0000
,
0000
0000
0000
0000
,
0000
0000
0000
0000
,
0000
0000
0000
0000
,
0000
0000
0000
0000
,
0000
0000
0000
0000
,
0000
0000
0000
0000
,
0000
0000
0000
0000
,
0000
0000
0000
0000
0000
0000
1000
0001
,
0000
1000
0000
0000
0001
0000
0000
1000
0000
0000
0100
0000
0000
0000
1000
0000
,
0000
0100
0000
0000
1000
0000
0000
0001
0000
0000
0100
0000
0000
0000
0001
0000
,
0000
0100
0000
0000
0001
0000
0000
0010
0000
0000
0100
0000
0000
0000
0010
0000
,
0000
0100
0000
0000
0010
0000
0000
0100
0000
0000
1000
0000
0001
0000
0100
0000
,
0000
0010
0000
0000
1000
0000
0000
0100
0000
0000
0010
0000
0000
0000
0001
0000
,
0000
0010
0000
0000
0100
0000
0000
1000
0000
0000
0001
0000
0000
0000
0010
0000
,
0000
0001
0000
0000
1000
0000
0000
0100
0000
0000
0100
1000
0100
0000
0000
0000
,
1000
0000
1000
0000
1000
0000
1000
0001
,
0000
0010
0000
0000
0001
0000
0000
0100
0000
0000
1000
0000
0100
0000
0001
0000
,
0000
0100
0000
0000
0010
0000
0000
1000
0000
0000
0001
0000
1000
0000
0100
0000
,
0000
0001
0000
0000
0100
0000
0000
1000
0000
0000
0001
0000
0100
0000
0010
0000
,
0000
0100
0000
0000
1000
0000
0000
0100
0000
0000
0001
0000
1000
0000
0100
0000
,
0000
1000
0000
0000
0100
0000
0000
0001
0000
0000
0100
0000
1000
0000
0010
0000
,
0000
0100
0000
0000
0001
0000
0000
0010
0000
0000
1000
0000
0010
0000
0001
0000
,
0000
1000
0000
0000
0100
0000
0000
1000
0000
0000
0001
0000
0101
0000
0000
0000
,
1100
1010
0110
1001
,
1001
0000
0001
1000
0100
0010
0001
0100
,
0001
0010
0100
1000
0001
0000
0010
0001
,
0100
1000
0100
0010
1000
0100
0001
0100
,
0010
0001
0011
0000
1100
0000
0001
0000
,
0101
0000
1000
0010
1010
0000
1000
0001
,
1000
0100
1000
0001
0100
0010
1000
1000
,
0001
0001
0100
0100
0010
1000
0100
0010
,
0001
0000
0100
0000
1000
0000
0010
0000
0001
0000
0000
0000
1000
0001
0000
0001
,
0100
0010
1000
0000
0000
0000
0010
1000
,
0010
0100
0001
0000
0101
0000
0001
0100
,
1000
0000
0001
0010
1000
0000
0011
0000
,
1100
0011
0101
1010
,
0101
0000
0001
0100
0010
0100
1000
0100
,
0010
1000
0001
0000
0101
0000
1000
0100
,
0001
0000
1000
0010
0001
0000
0101
0000
,
0110
0000
1010
0000
0110
0000
0001
1000
,
0100
0010
0001
0010
1000
0010
0001
0010
,
0110
0000
0010
0000
1010
0000
0001
0010
,
0011
0000
1000
0100
0010
0001
1000
0000
,
1010
0000
1000
0010
0100
0100
0001
0001
,
1000
0010
0001
0010
1000
0010
0100
0010
,
0110
0000
0001
0000
0101
0000
1000
0010
,
1010
0000
0010
1000
0001
1000
0010
0000
,
1000
0010
0100
0010
1000
0000
0110
0000
,
1001
0000
0011
0000
1100
0000
0010
1000
,
0000
0100
0000
0000
0001
0000
0000
0100
0000
0000
0010
0000
0001
0000
1000
0000
,
0000
0010
0000
0000
0001
0000
0000
0010
0000
0000
0100
0000
0010
0000
1000
0000
,
0000
0100
0000
0000
1000
0000
0000
0001
0000
0000
0100
0000
0010
0000
1000
0000
,
0000
0010
0000
0000
0100
0000
0000
0001
0000
0000
0100
0000
0010
0000
1000
0000
,
0000
0100
0000
0000
0001
0000
0000
0100
0000
0000
0010
0000
0001
0000
1000
0000
,
0000
0001
0000
0000
0010
0000
0000
1000
0000
0000
0010
0000
0100
0000
1000
0000
,
0000
0001
0000
0000
0100
0000
0000
0010
0000
0000
1000
0000
1010
0000
0000
0000
,
0110
0101
0110
2000
,
0000
0000
0000
3200
,
0000
0000
0000
0320
,
0000
0000
0000
0032
,
0000
0000
0000
2003
,
0000
0000
0000
3002
,
0000
0000
0000
2003
,
0000
0000
0000
3020
,
0000
0000
0000
0030
;
