#TITLE:UNTERM WEIHNACHTSBAUM;
#SUBTITLE:(KURZER WEIHNACHTSBAUM MIX);
#ARTIST:BLÜMCHEN;
#GENRE:HAPPY HARDCORE;
#CREDIT:B. M'Rey;
#MUSIC:Unterm Weihnachtsbaum (Kurzer Weihnachtsbaum Mix).ogg;
#BANNER:Unterm Weihnachtsbaum (Kurzer Weihnachtsbaum Mix)-bn.png;
#BACKGROUND:Unterm Weihnachtsbaum (Kurzer Weihnachtsbaum Mix)-bg.png;
#CDTITLE:./CDTITLES/DANCEMANIA DIAMOND 2.png;
#SAMPLESTART:26.601;
#SAMPLELENGTH:12.000;
#OFFSET:-0.021;
#BPMS:0.000=176.013,176.000=88.006,192.000=176.013;

//--------------- dance-single - B. M'Rey ----------------
#NOTES:
     dance-single:
     B. M'Rey:
     Beginner:
     1:
     0,0,0,0,0:
0000
0000
0000
0000
,
0000
0000
0000
0000
,
0000
0000
0000
0000
,
0000
0000
0000
0000
,
0001
0000
0001
0000
,
0000
0000
0100
0000
,
0100
0000
0000
0000
,
0000
0000
0000
0000
,
0010
0000
0010
0000
,
1000
0000
0000
0000
,
0001
0000
0000
0000
,
0000
0000
0100
0000
,
0100
0000
0000
0000
,
0001
0000
1000
0000
,
0010
0000
0000
0000
,
0000
0000
0100
0000
,
0010
0000
0000
0000
,
0001
0000
1000
0000
,
0001
0000
0000
0000
,
0000
0000
1000
0000
,
1000
0000
0010
0000
,
0100
0000
0000
0000
,
0001
0000
0010
0000
,
0001
0000
0100
0000
,
0010
0000
0000
0000
,
0000
0000
1000
0000
,
0001
0000
0000
0000
,
0000
0000
0000
0000
,
0100
0000
0010
0000
,
0100
0000
0000
0000
,
0001
0000
1000
0000
,
0010
0000
0100
0000
,
0001
0000
0000
0000
,
0000
0000
1000
0000
,
0010
0000
0000
0000
,
0000
0000
0000
0000
,
0100
0000
1000
0000
,
0001
0000
0010
0000
,
0001
0000
0001
0000
,
0001
0000
1000
0000
,
1000
0000
0010
0000
,
0100
0000
0000
0000
,
0001
0000
0000
0000
,
0010
0000
0000
0000
,
1000
0000
0000
0000
,
0010
0000
0000
0000
,
0001
0000
0000
0000
,
0100
0000
0000
0000
,
0010
0000
0000
0000
,
1000
0000
0000
0000
,
0001
0000
0000
0000
,
0100
0000
0000
0000
,
0010
0000
0000
0000
,
1000
0000
0000
0000
,
0100
0000
0000
0000
,
1001
0000
0000
0000
,
0001
0000
0001
0000
,
1000
0000
1000
0000
,
0100
0000
0100
0000
,
0010
0000
0010
0000
,
0001
0000
0001
0000
,
1000
0000
1000
0000
,
0010
0000
0010
0000
,
0100
0000
0100
0000
,
1001
0000
0000
0000
;

//--------------- dance-single - B. M'Rey ----------------
#NOTES:
     dance-single:
     B. M'Rey:
     Easy:
     4:
     0,0,0,0,0:
0000
0000
0000
0000
,
0000
0000
0000
0000
,
0000
0000
0000
0000
,
0000
0000
0000
0000
,
0010
0000
0100
0000
,
0010
0000
0001
0100
,
0001
0000
0001
1000
,
0100
0000
0000
0100
,
0001
0000
0001
0000
,
0100
0010
0100
0010
,
0001
0000
0001
0100
,
0001
1000
0100
1000
,
0100
0000
0010
0100
,
0010
0100
0010
1000
,
0100
0000
0100
1000
,
0001
0100
0001
0100
,
0001
0000
0000
1000
,
0100
0000
0001
0000
,
1001
0000
0101
0000
,
1010
0000
0010
0100
,
0001
1000
0001
1000
,
0001
0010
0100
1000
,
0100
1000
0100
0010
,
0001
1000
0010
0100
,
0010
0001
0000
1000
0000
0001
0000
1000
,
0000
0001
0000
0100
0000
0010
0000
0100
,
0001
0000
0100
0000
,
0100
1000
0100
1000
,
0010
1000
0100
0010
,
0001
0010
0100
0010
,
0001
1000
0010
1000
,
0001
1000
0010
0100
,
0010
0100
0000
0001
0000
0100
0000
0001
,
0000
1000
0000
0001
0000
1000
0000
0001
,
0100
1000
0100
0010
,
0001
0010
0001
1000
,
0001
1000
0100
1000
,
0100
0010
0100
0010
,
0001
0000
0001
1000
,
0100
0000
0100
1000
,
0001
0100
0001
0010
,
0001
0100
0010
0100
,
0010
0000
0001
0010
,
0001
0000
0001
1000
,
0200
0000
0000
0000
,
0302
0000
0000
0000
,
0023
0000
0000
0000
,
2030
0000
0000
0000
,
3100
0010
0100
0010
,
0001
0010
0001
0100
,
0001
0100
0010
0100
,
0001
0010
0001
0010
,
0001
1000
0100
1000
,
0100
1000
0001
0100
,
0001
0100
0001
0010
,
0100
0000
0100
0000
,
0001
1000
0001
1000
,
0001
0010
0100
0010
,
0100
0010
0001
1000
,
0010
1000
0010
1000
,
0100
0010
0100
0010
,
0100
1000
0010
1000
,
0010
1000
0001
0100
,
0001
0100
0001
0010
,
0100
0000
0000
0000
;

//--------------- dance-single - B. M'Rey ----------------
#NOTES:
     dance-single:
     B. M'Rey:
     Medium:
     7:
     0,0,0,0,0:
0000
0000
0000
0000
,
0000
0000
0000
0000
,
0000
0000
0000
0000
,
0000
0000
0000
0000
,
0001
1000
0100
0000
,
0100
0000
0100
0010
,
0001
0000
0001
1000
,
0010
0000
0000
1000
,
0001
0000
0001
0000
,
0001
1000
0100
1000
,
0100
0000
0010
0100
,
0010
0100
0010
1000
,
0001
0100
0001
0000
0001
0000
0100
0000
,
0001
1000
0001
0000
0001
0100
0010
0000
,
0010
0000
0000
0000
0100
1000
0010
0000
,
0010
0000
0100
1000
0001
0000
0001
0000
,
0100
0010
0100
0000
0100
0000
0001
1000
,
0001
0000
0010
0100
0010
0000
0010
0000
,
0110
0000
0110
0000
,
0002
0000
0000
0000
1000
0000
1000
0003
,
0001
1000
0001
0000
0001
0010
0100
0000
,
0100
0000
0001
0000
1000
0000
0001
0100
,
0010
0000
0010
0100
0001
0000
0001
1000
,
0010
0000
0100
0010
0001
0000
0001
1000
,
0100
0010
0000
0100
0000
0001
0000
1000
,
0000
1000
0000
0100
0010
0000
0001
0100
,
0001
0000
0010
1000
0010
0000
0010
0100
,
0001
0000
0001
0010
0001
0000
0010
0000
,
0010
1000
0001
0000
0001
0100
0010
0000
,
0002
0000
0000
0000
0103
0000
0100
0010
,
0100
0000
0001
0000
0001
0100
0010
0000
,
0010
0000
0010
1000
0100
0000
0010
0000
,
0010
0100
0000
1000
0000
0010
0000
1000
,
0000
0001
0000
1000
0010
0000
0010
0100
,
0010
0000
0000
1000
0001
0000
0000
0100
,
0010
0100
0001
1000
,
0100
0001
0000
1000
0000
0001
0000
0010
,
0100
0001
0000
1000
0000
0010
0000
1000
,
0100
0010
0000
1000
0000
0001
0000
0010
,
1000
0001
0000
0010
0000
0001
0000
0100
,
0001
0010
0000
0100
0000
0010
0000
0100
,
1000
0001
0000
0010
0000
0001
0000
1000
,
0100
0010
0000
1000
0000
0010
0000
1000
,
0100
0001
0000
0010
0000
0001
0000
0010
,
0200
0000
0000
0000
,
0302
0000
0000
0000
,
2003
0000
0000
0000
,
3020
0000
0000
0000
,
0031
1000
0010
1000
,
0010
1000
0001
0010
,
0001
1000
0001
0100
,
0010
1000
0010
1000
,
0001
1000
0001
0100
,
0001
1000
0100
0010
,
0100
0010
0100
1000
,
1010
0000
0110
0000
,
0001
1000
0001
1000
0000
0100
0000
0100
,
0010
0100
0000
0010
0000
0100
0000
0100
,
0010
0100
0000
1000
0000
0001
0000
1000
,
0001
0010
0000
0100
0000
0010
0000
1000
,
0100
1000
0000
0001
0000
0010
0000
1000
,
0100
1000
0000
0010
0000
0100
0000
0100
,
0001
0100
0000
0010
0001
0010
0000
0010
,
0001
0100
0000
1000
0001
1000
0000
1000
,
0010
0000
0000
0000
;

//--------------- dance-single - B. M'Rey ----------------
#NOTES:
     dance-single:
     B. M'Rey:
     Hard:
     9:
     0,0,0,0,0:
0000
0000
0000
0000
,
0000
0000
0000
0000
,
0000
0000
0000
0000
,
0000
0000
0000
0000
,
0001
0010
1000
0000
0001
0100
1000
0000
,
0001
0000
0100
0000
0010
0001
0100
0000
,
0110
0000
0001
1000
,
1001
0000
0010
0100
,
0001
0010
0100
0000
0001
0010
0100
0000
,
0010
0100
1000
0000
0010
0100
1000
0000
,
0110
0000
0000
0000
0001
0010
0100
0000
,
0101
0100
0010
1000
,
0001
1000
0100
1000
0010
1000
0100
0010
,
0100
0010
0001
0010
0001
1000
0010
0100
,
0010
0100
0010
1000
0001
1000
0001
1000
,
0010
0100
0010
0100
0001
0100
0001
1000
,
0001
1000
0100
1000
0100
0010
0100
0010
,
0001
0010
0001
1000
0001
0100
0010
0000
,
0110
0000
0101
0000
,
0110
1010
0010
0100
,
0010
0100
0001
0100
0001
0100
0010
1000
,
0010
1000
0010
0100
0001
0010
0001
0010
,
0001
0100
0010
0100
0010
0100
0001
1000
,
0100
1000
0100
1000
0010
0100
0010
1000
,
0010
1000
0000
1000
0000
0100
0001
0100
,
0000
0100
0000
1000
0010
1000
0001
0010
,
0011
0001
1100
0100
,
0010
0000
0010
0100
0010
0000
0011
0000
,
0001
0010
0001
1000
0100
1000
0100
1000
,
0010
0100
0010
1000
0010
1000
0001
1000
,
0001
0010
0100
0010
0100
0010
0001
1000
,
0001
1000
0100
1000
0001
0100
0001
0100
,
0001
1000
0000
1000
0000
1000
0001
0010
,
0000
0010
0000
0010
0001
1000
0010
0000
,
0010
0100
0010
0000
0001
0100
0001
0000
,
0001
0010
0100
0000
0100
0010
0001
0000
,
0001
1000
0100
1000
0100
0010
0100
0010
,
0001
0010
0100
1000
0001
1000
0001
1000
,
0100
0010
0100
0010
0100
1000
0010
1000
,
0100
1000
0100
0010
0100
0010
0001
0010
,
0001
1000
0001
1000
0100
1000
0100
0010
,
0100
0010
0001
0010
0001
0100
0001
0100
,
0010
0100
0010
1000
0010
0100
0001
0100
,
0001
0100
0010
1000
0010
1000
0010
0100
,
0001
1000
0001
1000
,
0010
1000
0010
0100
,
0010
0100
0001
0100
,
0001
1000
0010
0100
,
0001
1000
0001
0000
0001
0000
0100
0000
,
0100
0010
0001
0000
0001
0000
0001
0000
,
0010
1000
0010
0000
0100
0000
0100
0000
,
0001
0010
0001
0000
0100
0000
0100
0000
,
0100
0010
0001
0000
0001
0000
0001
0000
,
0100
1000
0100
0000
0001
0000
0001
0000
,
0001
0010
0100
0000
0100
0010
0001
0000
,
0001
1000
0001
1000
,
0010
1000
0010
1000
0010
0100
0001
0100
,
0001
0100
0010
1000
0010
1000
0010
0100
,
0001
0100
0001
0100
0010
1000
0010
0100
,
0010
0100
0001
1000
0001
1000
0001
0010
,
0100
0010
0001
0010
0001
1000
0001
1000
,
0010
1000
0010
0100
0010
0100
0001
0010
,
0001
1000
0001
1000
0010
1000
0010
0100
,
0010
0100
0001
0100
0001
1000
0010
1000
,
0010
0000
0000
0000
;
